#TITLE:Dear...;
#SUBTITLE:;
#ARTIST:源屋;
#TITLETRANSLIT:;
#SUBTITLETRANSLIT:;
#ARTISTTRANSLIT:Gen'ya;
#GENRE:Minamotrance;
#CREDIT:;
#BANNER:;
#BACKGROUND:;
#LYRICSPATH:;
#CDTITLE:;
#MUSIC:[Round B] - Dear.mp3;
#OFFSET:0.430000;
#SAMPLESTART:67.406044;
#SAMPLELENGTH:15.000000;
#SELECTABLE:YES;
#BPMS:0.000000=145.000000
,36.000000=72.500000
,68.000000=145.000000
;
#STOPS:
;
#BGCHANGES:;
#KEYSOUNDS:;
#ATTACKS:;

//---------------dance-single - ----------------
#NOTES:
     dance-single:
     :
     Hard:
     8:
     0.487477,0.689620,0.132816,0.112383,0.495505,334.000000,321.000000,13.000000,11.000000,0.000000,0.000000,0.487477,0.689620,0.132816,0.112383,0.495505,334.000000,321.000000,13.000000,11.000000,0.000000,0.000000:
0000
0000
0000
0000
,
1000
0001
1000
0001
,
0100
0010
0100
0010
,
1000
0100
1000
0100
,
0010
0001
0010
0001
,
1000
0100
1000
0000
0001
0100
0001
0000
,
1000
0001
1000
0000
0010
0100
0010
0000
,
1000
0100
0010
0001
0100
0010
1000
0001
,
1000
0100
1000
0100
0010
0001
0010
0001
,
1000
0000
0100
0010
0000
0001
0010
0000
0100
1000
0100
0010
0000
0100
0010
0100
,
0001
0010
0001
1000
0000
0010
0100
0001
0100
0000
0010
0100
0000
0001
0000
1000
,
0010
0100
0001
1000
0000
0001
0100
0010
0010
0000
1000
1000
0000
0010
0000
0100
,
0001
0000
1000
0010
0000
0100
0000
0001
1000
0000
0000
0000
1001
0000
0000
0000
,
0001
0100
0010
1000
0000
0000
0000
0000
0001
0100
0010
1000
0000
0000
0000
0000
,
0100
0010
0001
0010
0000
0000
0000
1000
0100
0000
1000
0001
0000
1000
0000
0010
,
0100
0001
0100
0010
0000
1000
0100
1000
0010
0000
0100
0010
0100
0010
0000
0001
,
0010
0000
0100
1000
0000
0010
0000
0100
0001
0000
0000
0000
0000
0000
0000
0000
,
1001
0000
0000
0001
0000
0000
0100
0000
0010
0000
0000
1000
0000
0000
0100
0000
,
0010
0000
0000
0001
0000
0000
0100
0000
0010
0000
0000
1000
0000
0000
0100
0000
,
0010
0000
0000
0001
0000
0000
0001
0000
0100
0000
0000
0010
0000
0000
0010
0000
,
1000
0000
0000
0100
0000
0000
0010
0000
0001
0000
0000
0100
0000
0000
0010
0000
,
1000
0000
0000
1000
0000
0000
0010
0000
0100
0000
0000
0100
0000
0000
0001
0000
,
0100
0000
0000
0010
0000
0000
1000
0000
0100
0000
0000
0010
0000
0000
0001
0000
,
0100
0000
0000
0010
0000
0000
1000
0000
0010
0000
0000
0100
0000
0000
0001
0000
,
1000
0000
0001
0000
,
1002
0000
0203
0000
,
0320
0000
2030
0000
,
3001
0000
0000
0001
0000
0000
0001
0000
1000
0000
0000
1000
0000
0000
1000
0000
,
0010
0000
0000
0010
0000
0000
0010
0000
0100
0000
0000
0100
0000
0000
0100
0000
,
1001
0000
0000
0010
0000
0000
0100
0000
0010
0000
0000
1000
0000
0000
0010
0000
,
1010
0000
0000
0001
0000
0000
0100
0000
0001
0000
0000
0010
0000
0000
0001
0000
,
0101
0000
0000
0010
0000
0000
1000
0000
1010
0000
0000
0010
0000
0000
0100
0000
,
0110
1010
0011
1001
,
1000
0000
0001
0100
0000
0100
0001
0000
1000
0000
0001
1000
0000
1000
0001
0000
,
1000
0000
0100
0010
0000
0001
0010
0000
0100
0000
1000
0001
0000
0100
0010
0000
,
1000
0000
0001
0100
0000
0100
0001
0000
1000
0000
0010
0100
0000
0010
0100
0000
,
0001
0000
0000
1000
0000
0010
0100
0000
0001
0000
0000
0001
0000
0100
0010
0000
,
1000
0000
0000
1000
0000
0000
0010
0000
0100
0000
0000
0100
0000
0000
0001
0000
,
0010
0000
0000
0010
0000
0000
0100
0000
1000
0000
0000
1000
0000
0000
0001
0000
,
0100
0000
0000
1000
0000
0000
0100
0000
0001
0000
0000
0010
0000
0000
1000
0000
,
0010
0000
0000
0001
0000
0000
0100
0000
0010
0000
0000
1000
0000
0000
0010
0000
,
1010
0000
0010
0000
1000
0000
0010
0000
0200
0000
0000
0001
0000
0000
0301
0000
,
1000
0000
0100
0000
0001
0000
0200
0000
1000
0000
0000
1000
0000
0000
1300
0000
,
0010
0000
0100
0000
0001
0000
2000
0000
0010
0000
0000
0010
0000
0000
3010
0000
,
0200
0000
0301
0100
0000
0010
0000
1000
,
0100
0000
0001
0000
0100
0000
2000
0000
0010
0000
0000
0010
0000
0000
3010
0000
,
0100
0000
0000
0000
0001
0000
0100
0000
0010
0000
0000
1000
0000
0000
0010
0000
,
0100
0001
1000
0100
0010
0001
0100
0010
,
1000
0000
0000
0000
0010
0000
0000
0000
0100
0000
0000
0010
0000
0000
0100
0000
,
2002
0000
0000
0000
,
3003
0000
0000
0000
;

//---------------dance-single - ----------------
#NOTES:
     dance-single:
     :
     Medium:
     6:
     0.286065,0.450552,0.102166,0.010217,0.056191,196.000000,186.000000,10.000000,1.000000,0.000000,0.000000,0.286065,0.450552,0.102166,0.010217,0.056191,196.000000,186.000000,10.000000,1.000000,0.000000,0.000000:
0000
0000
0000
0000
,
1000
0010
0100
0001
,
0010
0100
1000
0001
,
0100
0010
1000
0001
,
0010
0100
1000
0001
,
0100
0010
0100
0000
0001
0010
0001
0000
,
1000
0001
1000
0000
0010
0100
0010
0000
,
1000
0100
1000
0100
1000
0100
1000
0100
,
0010
0001
0010
0001
0010
0001
0010
0001
,
1000
0010
0100
0000
,
0001
0000
0000
0001
0000
0000
0000
0000
1000
0000
0000
1000
0000
0000
0000
0000
,
0010
0000
0000
1000
0000
0000
0000
0000
0001
0000
0000
0100
0000
0000
0000
0000
,
0010
0000
0000
0010
0000
0000
0000
0000
1000
0000
0000
0000
0000
0000
0000
0000
,
1000
0000
0000
0000
0000
0000
0000
0000
0001
0000
0000
0100
0000
0000
0000
0000
,
0010
0000
0000
1000
0000
0000
0000
0000
0010
0000
0000
0100
0000
0000
0000
0000
,
0001
0000
0000
1000
0000
0000
0000
0000
0010
0000
0000
0100
0000
0000
0000
0000
,
0001
0000
0000
0010
0000
0000
0000
0000
0100
0000
0000
0000
0000
0000
0000
0000
,
0010
0000
1000
0000
,
0001
0000
0100
0000
,
0010
0000
1000
0000
,
0010
0000
0100
0000
,
0001
0000
0000
1000
0001
0000
0000
0100
,
0010
0000
0000
1000
0100
0000
0000
0010
,
0001
0000
0000
0100
0010
0000
0000
1000
,
0001
0000
0100
0000
,
1001
0010
0010
0000
,
1000
0000
0010
0000
,
0100
0000
0001
0000
,
0010
0000
0001
0000
,
1000
0000
0010
0000
,
0110
0000
0001
0000
,
1001
0000
1001
0000
,
1001
1001
1001
1001
,
1001
0010
0100
0001
,
0010
0001
0100
0010
,
1000
0100
0010
0001
,
0100
0010
1000
0001
,
0010
0000
0000
0001
0010
0000
0000
0100
,
1000
0000
0000
0010
0100
0000
0000
0001
,
0010
0000
0000
0100
1000
0000
0000
0010
,
0100
0000
0001
1000
,
1000
0100
0010
0002
0000
0000
0003
0000
,
0010
0001
0010
0001
0000
0000
0000
0000
,
1000
0001
1000
0001
0000
0000
0000
0100
,
0010
0000
0010
0100
0000
0001
0000
0000
,
0001
0010
0001
0010
0000
0000
0000
1000
,
0001
0000
1000
0001
0000
0000
0000
0000
,
0010
1000
0010
1000
0010
1000
0010
1000
,
0001
1000
0001
1000
0001
1000
0001
1000
,
1001
0000
0000
0000
;

//---------------dance-single - ----------------
#NOTES:
     dance-single:
     :
     Easy:
     4:
     0.208710,0.250307,0.081733,0.000000,0.045975,143.000000,135.000000,8.000000,0.000000,0.000000,0.000000,0.208710,0.250307,0.081733,0.000000,0.045975,143.000000,135.000000,8.000000,0.000000,0.000000,0.000000:
// measure 0
0000
0000
0000
0000
,  // measure 1
1000
0010
0100
0001
,  // measure 2
0010
0100
1000
0001
,  // measure 3
0100
0010
1000
0100
,  // measure 4
0010
0001
0100
0010
,  // measure 5
1000
1000
0010
0010
,  // measure 6
0100
0100
0001
0001
,  // measure 7
0010
0100
1000
0010
,  // measure 8
0100
0001
1000
0001
,  // measure 9
1001
0000
0000
1000
0000
0000
0000
0000
0010
0000
0000
0000
0000
0000
0000
0000
,  // measure 10
0100
0000
0000
0000
0000
0000
0000
0000
0001
0000
0000
1000
0000
0000
0000
0000
,  // measure 11
0010
0000
0000
0000
0000
0000
0000
0000
0100
0000
0000
0001
0000
0000
0000
0000
,  // measure 12
0100
0000
0010
0000
,  // measure 13
1000
0000
0000
1000
0000
0000
0000
0000
0010
0000
0000
0010
0000
0000
0000
0000
,  // measure 14
0100
0000
0000
0100
0000
0000
0000
0000
0001
0000
0000
0000
0000
0000
0000
0000
,  // measure 15
1000
0000
0000
1000
0000
0000
0000
0000
0010
0000
0000
0010
0000
0000
0000
0000
,  // measure 16
0100
0000
0000
0100
0000
0000
0000
0000
0001
0000
0000
0000
0000
0000
0000
0000
,  // measure 17
1000
0000
0001
0000
,  // measure 18
0100
0000
0010
0000
,  // measure 19
1000
0000
0100
0000
,  // measure 20
0001
0000
0010
0000
,  // measure 21
0100
0000
0001
0000
,  // measure 22
1000
0000
0010
0000
,  // measure 23
0001
0000
0100
0000
,  // measure 24
1000
0000
0010
0000
,  // measure 25
0001
0000
0001
0000
,  // measure 26
0100
0000
1000
0000
,  // measure 27
0010
0000
0001
0000
,  // measure 28
0100
0000
0010
0000
,  // measure 29
1001
0000
0010
0000
,  // measure 30
1001
0000
0100
0000
,  // measure 31
1001
0000
1001
0000
,  // measure 32
0100
0010
0100
0010
,  // measure 33
1001
0000
0001
0000
,  // measure 34
0100
0000
0010
0000
,  // measure 35
1000
0000
0100
0000
,  // measure 36
0001
0000
0100
0000
,  // measure 37
0010
0000
1000
0000
,  // measure 38
0001
0000
0100
0000
,  // measure 39
0010
0000
1000
0000
,  // measure 40
0001
0000
1000
0000
,  // measure 41
1001
0001
0100
0000
,  // measure 42
0010
1000
0010
0000
,  // measure 43
0100
0001
0100
0000
,  // measure 44
0010
0000
1000
0000
,  // measure 45
0001
1000
0001
0100
,  // measure 46
0010
1000
0100
0010
,  // measure 47
0001
0100
0010
1000
,  // measure 48
0100
1000
0010
0100
,  // measure 49
1001
0000
0000
0000
;
