#TITLE:Combo Final;
#SUBTITLE:;
#ARTIST:Tronic;
#TITLETRANSLIT:;
#SUBTITLETRANSLIT:;
#ARTISTTRANSLIT:;
#GENRE:PUNK;
#CREDIT:;
#MENUCOLOR:;
#NEWMETERSYSTEM:NO;
#BANNER:[Round B] - Combo Final.png;
#BACKGROUND:[Round B] - Combo Final-bg.png;
#LYRICSPATH:;
#CDTITLE:;
#MUSIC:[Round B] - Combo Final.ogg;
#OFFSET:-0.436;
#SAMPLESTART:34.294;
#SAMPLELENGTH:10.560;
#SELECTABLE:YES;
#LISTSORT:;
#BPMS:0.000=182.000;
#STOPS:;
#BGCHANGES:0.000=[Round B] - Combo Final.avi=1.000=0=1=0,
383.000=[Round B] - Combo Final-bg.png=1.000=1=0=1,
99999=-nosongbg-=1.000=0=0=0 // don't automatically add -songbackground-
;
#ATTACKS:;

//---------------dance-single - DDRDAIKENKAI----------------
#NOTES:
     dance-single:
     DDRDAIKENKAI:
     Hard:
     9:
     0.819,0.775,0.759,0.468,0.061: // measure 1
0000
0000
0000
0000
,  // measure 2
0000
0000
0000
0000
,  // measure 3
0000
0000
0000
0000
,  // measure 4
0000
0000
0000
0000
,  // measure 5
1000
0100
1000
0001
1000
0100
1000
0001
,  // measure 6
0000
1001
0001
0010
0100
1000
0100
0010
,  // measure 7
0001
0100
0001
1000
0001
0100
0001
1000
,  // measure 8
0001
0000
0100
0010
0100
0000
0001
0000
0010
0100
0010
0100
0010
0000
0001
1000
,  // measure 9
0002
0000
1003
0010
1000
0010
1000
0010
,  // measure 10
0100
0010
0100
0010
0100
0010
0100
0010
,  // measure 11
0100
0001
0100
0001
0100
0001
0100
0001
,  // measure 12
0010
0001
0010
0001
0010
0001
0010
0001
,  // measure 13
0101
0100
0010
0100
0010
0100
0010
0100
,  // measure 14
1000
0100
1000
0100
1000
0100
1000
0100
,  // measure 15
0001
0100
0001
0100
0001
0100
0001
0100
,  // measure 16
0001
0000
1000
0000
0001
0000
1000
0000
0001
0000
1000
0000
0001
0000
0100
0010
,  // measure 17
0100
0000
0101
0000
0001
1000
0100
0000
,  // measure 18
1100
0011
0100
1001
,  // measure 19
0110
0000
1010
0000
0001
1000
0100
0010
,  // measure 20
0000
0000
0001
0000
1000
0000
0001
0000
0000
0000
0001
0000
1000
0100
1000
0100
,  // measure 21
1000
0000
0110
0000
1000
0001
0100
0000
,  // measure 22
0011
0000
1100
0000
0001
0100
0010
0000
,  // measure 23
1010
0000
1001
0000
0001
0010
0100
0010
,  // measure 24
0000
0011
0000
1100
0000
0001
0100
0010
,  // measure 25
1000
0100
1000
0100
0010
0001
0010
0001
,  // measure 26
1000
0001
1000
0001
1000
0000
1001
0000
,  // measure 27
0101
0100
0001
0100
0010
0100
0010
0100
,  // measure 28
0010
1000
0010
1000
0001
0010
0100
1000
,  // measure 29
0000
1000
0010
0000
0010
0100
0001
1000
,  // measure 30
0000
1000
0100
0000
0100
0010
0001
1002
,  // measure 31
0000
0103
0101
0000
0100
0010
1000
0000
,  // measure 32
1100
0000
1001
0000
1000
0100
1000
2010
,  // measure 33
0000
3100
0010
0012
0000
0013
0100
2001
,  // measure 34
0000
3100
0010
1002
0000
0013
1001
0000
,  // measure 35
1010
1000
0010
1000
0010
0100
0010
0100
,  // measure 36
0001
0100
0001
0100
0010
1000
0100
1000
,  // measure 37
0000
1000
0010
0000
0010
1000
0001
0010
,  // measure 38
0000
0010
0001
0000
0001
0100
0010
0120
,  // measure 39
0000
1030
1010
0000
1000
0001
0010
0000
,  // measure 40
0011
0000
0101
0000
0100
0010
0100
0201
,  // measure 41
0000
0301
0010
0000
0010
0001
0100
0210
,  // measure 42
0000
0000
0301
0000
0010
0000
0000
0000
0100
0000
1000
0000
0001
0000
1000
0001
,  // measure 43
1000
0010
1000
0010
1000
0010
1000
0010
,  // measure 44
0100
0010
0100
0010
0100
0010
0100
0010
,  // measure 45
0100
0001
0101
0000
1001
0001
0100
0001
,  // measure 46
1000
0000
1001
0000
0001
1000
1010
0000
,  // measure 47
1001
1000
0100
1000
0010
1000
0100
1000
,  // measure 48
0010
0100
0010
1000
0010
0100
0010
1000
,  // measure 49
0010
0100
0001
0100
0010
0100
0001
0100
,  // measure 50
0110
0000
0000
0000
,  // measure 51
1010
1010
0000
0000
0201
0000
0000
0301
,  // measure 52
0010
000M
0010
1000
0200
0000
1300
0000
,  // measure 53
1010
1010
0000
0000
1200
0000
0000
1300
,  // measure 54
0100
M000
0100
0001
0020
0000
0130
1000
,  // measure 55
1010
1010
0000
0000
0210
0000
0000
0301
,  // measure 56
0010
2000
0000
3020
0000
0000
0031
0100
,  // measure 57
0101
0000
1001
0000
0100
1000
1010
0000
,  // measure 58
0101
0000
1001
0000
0100
0001
0011
0000
,  // measure 59
1100
0100
1000
0010
0100
0001
0100
0010
,  // measure 60
1000
0100
0010
0001
0010
0100
1000
0001
,  // measure 61
0100
0010
0100
0010
0100
0010
0100
0010
,  // measure 62
1000
0001
1000
0001
2000
0000
0000
0000
0000
0000
0000
0000
0000
0000
3000
0000
,  // measure 63
1002
0203
0302
0023
,  // measure 64
0230
0000
2300
0000
3010
0100
0001
2000
,  // measure 65
0000
3100
0020
0000
0031
0100
0010
0002
,  // measure 66
0000
0013
2000
0000
3001
0010
0100
1200
,  // measure 67
0000
1300
1020
0000
0230
0000
0301
2000
,  // measure 68
0000
0100
3200
0000
0310
0001
0010
0210
,  // measure 69
0000
1300
0010
0120
0000
0130
0001
0021
,  // measure 70
0000
0130
1000
1020
0000
0130
0110
0000
,  // measure 71
1010
0010
1000
0010
0100
0001
0100
0010
,  // measure 72
1000
0100
0010
0100
1000
0001
0010
0100
,  // measure 73
0000
0100
1000
0000
1000
0010
0100
1000
,  // measure 74
0000
1000
0100
0000
0101
0001
0010
0021
,  // measure 75
0000
0031
0101
0000
0001
0100
1000
0000
,  // measure 76
1100
0000
0101
0000
0001
0010
0001
0201
,  // measure 77
0000
0310
1000
1200
0000
0310
0100
1002
,  // measure 78
0000
0103
0010
2001
0000
3100
1001
0000
,  // measure 79
0101
0001
0100
0010
1000
0010
0100
0001
,  // measure 80
0010
1000
0010
0001
1000
0100
0010
0001
,  // measure 81
0000
0001
0100
0000
0100
0001
1000
0100
,  // measure 82
0000
0100
0001
0000
0101
0100
1000
2010
,  // measure 83
0000
3001
0201
0000
0301
0100
0010
0000
,  // measure 84
1010
0000
1100
0000
1000
0100
0010
0021
,  // measure 85
0000
0031
0100
1020
0000
1030
0100
1002
,  // measure 86
0000
0013
0100
2001
0000
3001
1001
0000
,  // measure 87
0101
0100
1000
0100
0010
1000
0100
0001
,  // measure 88
0100
0000
1000
0000
0010
0000
0100
0000
0001
1000
0001
1000
0001
1000
0002
0000
,  // measure 89
0000
0000
1003
0000
1010
0000
0000
0000
1000
0100
1000
0100
1000
0100
2000
0000
,  // measure 90
0000
3010
1010
0000
0110
0100
0100
1002
,  // measure 91
0000
1003
0001
0200
0000
0301
1000
0020
,  // measure 92
0000
0130
0001
0010
0100
1000
0001
0012
,  // measure 93
0000
0103
0010
2010
0000
3010
0100
0201
,  // measure 94
0000
0310
1000
2100
0000
3010
0000
0102
,  // measure 95
0000
1003
0000
0021
0000
0130
0000
2010
,  // measure 96
0000
3001
0000
0110
0000
2002
0000
0000
,  // measure 97
0000
3003
0000
0000
;

//---------------dance-single - DDRDAIKENKAI----------------
#NOTES:
     dance-single:
     DDRDAIKENKAI:
     Medium:
     7:
     0.633,0.627,0.215,0.698,0.000: // measure 1
0000
0000
0000
0000
,  // measure 2
0000
0000
0000
0000
,  // measure 3
0000
0000
0000
0000
,  // measure 4
0000
0000
0000
0000
,  // measure 5
0210
0000
0301
0000
1000
0100
1000
0100
,  // measure 6
0000
0010
0001
0000
0001
0100
0001
0100
,  // measure 7
0010
0000
1000
0000
0100
1000
0100
0000
,  // measure 8
1000
0001
1000
0001
1000
0001
1000
0000
,  // measure 9
1002
0000
0103
0000
0001
0010
0100
0000
,  // measure 10
1000
0000
0010
0000
0001
0010
1000
0000
,  // measure 11
0100
0000
0010
0000
0001
0100
1000
0000
,  // measure 12
0100
0000
0001
0000
0010
0100
1000
0000
,  // measure 13
1020
0000
0130
0000
0001
1000
0100
0000
,  // measure 14
0010
0000
0001
0000
0100
0001
0010
0000
,  // measure 15
0100
0000
1000
0000
0001
0010
0001
0000
,  // measure 16
1000
0100
1000
0100
1000
0100
1000
0100
,  // measure 17
1000
0000
0010
0000
0100
0001
1000
0002
,  // measure 18
0000
0000
0013
0200
0000
0000
1300
0000
,  // measure 19
0010
0000
0100
0000
0001
0010
0000
1000
,  // measure 20
0000
0010
0000
0001
0000
0001
0200
0000
,  // measure 21
0310
0000
1000
0000
0100
1000
0001
0200
,  // measure 22
0000
0000
0310
0020
0000
1030
0001
0002
,  // measure 23
0000
0000
1003
0000
0001
0010
0001
0010
,  // measure 24
0000
0100
0000
1000
0000
0010
0100
0010
,  // measure 25
1000
0001
1000
0001
1000
0001
1000
0001
,  // measure 26
1000
0001
1000
0001
1000
0000
1001
0000
,  // measure 27
0002
0023
0230
2300
,  // measure 28
3010
0000
0200
0000
0301
1000
0001
2000
,  // measure 29
0000
3200
0000
0000
0310
0000
0010
0200
,  // measure 30
0000
0000
1300
0000
0010
0100
0010
2000
,  // measure 31
0000
0000
3001
0000
0010
0001
0100
0000
,  // measure 32
0010
0000
1000
0000
0100
1000
0010
1000
,  // measure 33
0000
0010
0100
0010
0000
0100
0001
0100
,  // measure 34
0000
0001
1000
0001
0000
0010
0100
0000
,  // measure 35
0210
2300
3020
0032
,  // measure 36
0013
0000
2000
0000
3001
0010
0001
0200
,  // measure 37
0000
0320
0000
0000
1030
0100
1000
0002
,  // measure 38
0000
0000
0013
0000
0100
1000
0100
2000
,  // measure 39
0000
0000
3001
0000
0100
0001
1000
0000
,  // measure 40
0100
0000
0010
0000
0100
1000
0001
0200
,  // measure 41
0000
0320
0000
0000
1030
0000
1000
0002
,  // measure 42
0000
0023
0000
0000
0130
1000
1001
0000
,  // measure 43
2000
0100
0010
0001
,  // measure 44
3001
0010
0000
0100
0000
1000
0001
0000
,  // measure 45
0100
0110
1010
1000
,  // measure 46
0001
0000
0011
0000
0010
0010
0001
0000
,  // measure 47
0021
0001
0100
0001
,  // measure 48
0031
1000
0000
0100
0000
0010
0001
0000
,  // measure 49
0101
1000
1010
0100
,  // measure 50
0110
0000
0000
0000
,  // measure 51
1010
0000
0000
0000
0102
0000
0000
1003
,  // measure 52
0100
0000
0100
2000
0000
0000
3010
0000
,  // measure 53
0110
0000
0000
0000
2010
0000
0000
3001
,  // measure 54
0010
0000
0010
0002
0000
0000
0103
0000
,  // measure 55
0110
0000
0000
0000
0102
0000
0000
0013
,  // measure 56
0100
0010
0000
0002
0000
0000
1003
0200
,  // measure 57
0000
0000
1300
0000
0010
1000
0100
0000
,  // measure 58
0010
0000
0001
0000
0100
0001
0010
0000
,  // measure 59
0010
0001
0010
0001
0010
0001
0010
0001
,  // measure 60
0010
0001
0010
0001
0010
0001
0010
0001
,  // measure 61
1000
0001
1000
0001
1000
0001
1000
0001
,  // measure 62
1000
1000
2000
0000
0000
0000
0000
3000
,  // measure 63
1002
0023
0230
2300
,  // measure 64
3020
0000
0230
0000
0301
1000
0001
1000
,  // measure 65
0000
0200
0000
0000
0000
0000
0310
0001
,  // measure 66
0000
0001
1000
0000
1000
0010
1000
0200
,  // measure 67
0000
0310
0001
0000
1000
0000
1000
0200
,  // measure 68
0000
0000
1300
0000
0010
0000
0010
2000
,  // measure 69
0000
3010
1000
0002
0000
0013
0001
2000
,  // measure 70
0000
3010
1000
0002
0000
0013
0011
0000
,  // measure 71
0210
0320
0032
0023
,  // measure 72
0130
0000
2000
0000
3001
0010
0001
0200
,  // measure 73
0000
0320
0000
0000
0130
0000
0100
0001
,  // measure 74
0000
0001
1000
0000
0100
0010
0100
2000
,  // measure 75
0000
0000
3010
0000
0100
0001
0010
0000
,  // measure 76
0100
0000
0010
0000
0001
1000
0010
1000
,  // measure 77
0000
0010
0001
0010
0000
1000
0100
1000
,  // measure 78
0000
0010
0001
0010
0000
1000
0001
0000
,  // measure 79
1002
2003
3200
0320
,  // measure 80
0031
0000
0200
0000
0310
1000
0010
0002
,  // measure 81
0000
0023
0000
0000
1030
0000
1000
0100
,  // measure 82
0000
0100
1000
0000
1000
0010
0100
0002
,  // measure 83
0000
0000
1003
0000
0100
0010
0001
0000
,  // measure 84
0100
0000
0010
0000
1000
0010
0100
0010
,  // measure 85
0000
1000
0100
1000
0000
0100
0001
0100
,  // measure 86
0000
1000
0001
1000
0000
0100
0010
0000
,  // measure 87
0210
2300
3020
0230
,  // measure 88
0301
0000
2000
0000
3100
0100
0100
0110
,  // measure 89
0000
0020
0000
0000
0130
0100
0100
0210
,  // measure 90
0000
0000
1300
0000
0001
0001
0001
1002
,  // measure 91
0000
0000
2003
0000
3200
0000
0310
0001
,  // measure 92
0000
0001
0020
0000
0230
0000
1300
0020
,  // measure 93
0000
1030
0001
0020
0000
0031
1000
0020
,  // measure 94
0000
1030
0001
0020
0000
0031
0000
2000
,  // measure 95
0000
3100
0010
0002
0000
0013
0100
2000
,  // measure 96
0000
3100
0010
0001
0000
2002
0000
0000
,  // measure 97
0000
3003
0000
0000
;

//---------------dance-single - DDRDAIKENKAI----------------
#NOTES:
     dance-single:
     DDRDAIKENKAI:
     Easy:
     5:
     0.421,0.443,0.138,0.307,0.000: // measure 1
0000
0000
0000
0000
,  // measure 2
0000
0000
0000
0000
,  // measure 3
0000
0000
0000
0000
,  // measure 4
0000
0000
0000
0000
,  // measure 5
1000
0001
1000
0001
,  // measure 6
0000
0100
0000
0000
0100
0000
0000
0000
,  // measure 7
0010
1000
0010
1000
,  // measure 8
0001
0001
0001
0001
,  // measure 9
1000
0100
1000
0100
,  // measure 10
0010
0100
0010
0100
,  // measure 11
0010
0001
0010
0001
,  // measure 12
0100
0001
0100
0001
,  // measure 13
0100
0010
0100
0010
,  // measure 14
1000
0010
1000
0010
,  // measure 15
1000
0100
1000
0100
,  // measure 16
1000
0001
1000
0001
,  // measure 17
1001
0001
0001
0001
,  // measure 18
0010
0100
1000
0001
,  // measure 19
1000
1000
1000
1000
,  // measure 20
0100
0010
0001
1000
,  // measure 21
0100
0100
0100
0100
,  // measure 22
1000
0001
0100
0001
,  // measure 23
0010
0010
0010
0010
,  // measure 24
0100
1000
0001
0100
,  // measure 25
0001
0001
0001
0001
,  // measure 26
0001
0001
0001
1001
,  // measure 27
2000
0100
0100
3100
,  // measure 28
0100
0000
0010
0000
0100
0000
0000
0020
,  // measure 29
0000
0000
0100
0000
0130
0000
0000
2000
,  // measure 30
0000
0000
3010
0000
0100
0000
0000
0002
,  // measure 31
0000
1000
1000
1003
,  // measure 32
0200
0000
0010
0000
0310
0000
0010
0001
,  // measure 33
0000
0001
0000
0100
0000
0100
0000
0010
,  // measure 34
0000
0010
0000
1000
0000
0000
0001
0000
,  // measure 35
0002
0010
0010
0013
,  // measure 36
0010
0000
0100
0000
0010
0000
0000
0200
,  // measure 37
0000
0000
0010
0000
0310
0000
0000
0002
,  // measure 38
0000
0000
0103
0000
0010
0000
0000
2000
,  // measure 39
0000
0001
0001
3001
,  // measure 40
0020
0000
0100
0000
0130
0000
0100
1000
,  // measure 41
0000
2000
0000
0000
0000
0000
0000
3001
,  // measure 42
0000
0002
0000
0000
0000
0000
0003
0000
,  // measure 43
0001
0010
0001
0010
,  // measure 44
0001
0010
0001
0010
,  // measure 45
0100
0010
0100
0010
,  // measure 46
0100
0010
0100
0010
,  // measure 47
0100
1000
0100
1000
,  // measure 48
0100
1000
0100
1000
,  // measure 49
0001
1000
0001
0100
,  // measure 50
0110
0000
0000
0000
,  // measure 51
1010
0000
0102
0000
,  // measure 52
1003
0100
0010
0000
,  // measure 53
0011
0000
1200
0000
,  // measure 54
1300
0010
0100
0000
,  // measure 55
0110
0000
1002
0000
,  // measure 56
1003
0001
0100
0000
,  // measure 57
0120
0000
2030
0000
,  // measure 58
3200
0000
0320
0000
,  // measure 59
0031
0001
0001
0001
,  // measure 60
0001
0001
0001
0001
,  // measure 61
1000
1000
1000
1000
,  // measure 62
1000
1000
2000
0000
0000
0000
3000
0000
,  // measure 63
1002
1000
1000
1003
,  // measure 64
0100
0000
0010
0000
0001
0000
0100
0010
,  // measure 65
0000
2000
0000
0000
0010
0000
0000
3020
,  // measure 66
0000
0000
0130
0000
0001
0000
0000
2000
,  // measure 67
0000
0000
3100
0000
0010
0000
0000
0002
,  // measure 68
0000
0000
0103
0000
0010
0000
0000
2000
,  // measure 69
0000
3010
0000
0020
0000
0130
0000
0200
,  // measure 70
0000
0301
0000
0002
0000
0000
1003
0000
,  // measure 71
1002
1003
0100
1000
,  // measure 72
0001
0000
0010
0000
0100
0000
0000
0010
,  // measure 73
0000
0020
0000
0000
0031
0000
0000
0200
,  // measure 74
0000
0000
0301
0000
0010
0000
0000
0200
,  // measure 75
0000
1300
0010
1000
,  // measure 76
0100
0000
0010
0000
0001
0000
0001
1000
,  // measure 77
0000
1000
0000
0010
0000
0010
0000
0100
,  // measure 78
0000
0100
0000
0001
0000
0000
0001
0000
,  // measure 79
1001
0001
0010
0100
,  // measure 80
1000
0000
0010
0000
0100
0000
0000
0001
,  // measure 81
0000
0002
0000
0000
1003
0000
0000
0200
,  // measure 82
0000
0000
0310
0000
0001
0000
0000
2000
,  // measure 83
0000
3010
0100
0010
,  // measure 84
1000
0000
0001
0000
0100
0000
0100
0010
,  // measure 85
0000
0010
0000
1000
0000
1000
0000
0001
,  // measure 86
0000
0001
0000
1000
0000
0000
0001
0000
,  // measure 87
1002
1003
0100
1000
,  // measure 88
0001
0000
0010
0000
0100
0000
0000
0110
,  // measure 89
0000
0000
0010
0000
0001
0000
0000
1001
,  // measure 90
0000
0000
1000
0000
0010
0000
0000
0120
,  // measure 91
0000
0130
0010
1000
,  // measure 92
0001
0000
0010
0000
0100
0000
0100
1000
,  // measure 93
0000
1000
0000
0010
0000
0010
0000
0100
,  // measure 94
0000
0100
0000
0001
0000
0001
0000
1000
,  // measure 95
0000
1000
0000
0001
0000
0001
0000
1000
,  // measure 96
0000
1000
0000
0001
0000
2002
0000
0000
,  // measure 97
0000
3003
0000
0000
;

//---------------dance-single - DDRDAIKENKAI----------------
#NOTES:
     dance-single:
     DDRDAIKENKAI:
     Beginner:
     2:
     0.264,0.369,0.345,0.031,0.000: // measure 1
0000
0000
0000
0000
,  // measure 2
0000
0000
0000
0000
,  // measure 3
0000
0000
0000
0000
,  // measure 4
0000
0000
0000
0000
,  // measure 5
1001
0000
0000
0000
,  // measure 6
0001
0000
0001
0000
,  // measure 7
0100
0000
0100
0000
,  // measure 8
0010
0010
0010
0010
,  // measure 9
0010
0000
0010
0000
,  // measure 10
0100
0000
0100
0000
,  // measure 11
0001
0000
0001
0000
,  // measure 12
1000
0000
1000
0000
,  // measure 13
1001
0000
0001
0000
,  // measure 14
0100
0000
0100
0000
,  // measure 15
0010
0000
0010
0000
,  // measure 16
1000
0000
1000
0000
,  // measure 17
1001
1001
0000
1000
,  // measure 18
0000
0001
0000
1000
,  // measure 19
0000
0010
0000
0100
,  // measure 20
0000
0010
0010
0010
,  // measure 21
0000
0100
0000
0001
,  // measure 22
0000
1000
0000
0100
,  // measure 23
0000
0010
0000
0100
,  // measure 24
0000
1000
0000
0001
,  // measure 25
0001
0001
0001
0001
,  // measure 26
0001
0000
0000
1001
,  // measure 27
1001
0000
1000
0000
,  // measure 28
0001
0000
0100
0100
,  // measure 29
0100
0000
0010
0000
,  // measure 30
0100
0000
0001
0001
,  // measure 31
0001
0000
0010
0000
,  // measure 32
0100
0000
1000
0000
,  // measure 33
1001
0000
0110
0000
,  // measure 34
1001
0000
0110
0000
,  // measure 35
1001
0000
0001
0000
,  // measure 36
1000
0000
0100
0100
,  // measure 37
0100
0000
1000
0000
,  // measure 38
0010
0000
1000
1000
,  // measure 39
1000
0000
0001
0000
,  // measure 40
0010
0000
0100
0000
,  // measure 41
0110
0000
0001
0000
,  // measure 42
0110
0000
1000
0000
,  // measure 43
0001
0000
1000
0000
,  // measure 44
0100
0100
0100
0000
,  // measure 45
0010
0010
0010
0000
,  // measure 46
0001
0001
0001
0000
,  // measure 47
1001
0000
1000
0000
,  // measure 48
0001
0001
0001
0000
,  // measure 49
0100
0000
0010
0000
,  // measure 50
0110
0000
0000
0000
,  // measure 51
0110
0000
1001
0000
,  // measure 52
1000
1000
1000
0000
,  // measure 53
1001
0000
0110
0000
,  // measure 54
0100
0100
0100
0000
,  // measure 55
0110
0000
1001
0000
,  // measure 56
0001
0001
0001
0000
,  // measure 57
0010
0000
0100
0000
,  // measure 58
1000
0000
1000
0000
,  // measure 59
0002
0000
0000
0000
,  // measure 60
0000
0000
0003
0000
,  // measure 61
2000
0000
0000
0000
,  // measure 62
0000
3000
0000
0000
,  // measure 63
1001
0000
1000
0000
,  // measure 64
0001
0000
0100
0000
,  // measure 65
0010
0000
0100
0000
,  // measure 66
0001
0000
1000
0000
,  // measure 67
1001
0000
1000
0000
,  // measure 68
0100
0000
0010
0000
,  // measure 69
0110
0000
1001
0000
,  // measure 70
0110
0000
1001
0000
,  // measure 71
0110
0000
0100
0000
,  // measure 72
0010
0000
1000
0000
,  // measure 73
0001
0000
1000
0000
,  // measure 74
0010
0000
0100
0000
,  // measure 75
0110
0000
0100
0000
,  // measure 76
0001
0000
1000
0000
,  // measure 77
1001
0000
0110
0000
,  // measure 78
1001
0000
0110
0000
,  // measure 79
1001
0000
0001
0000
,  // measure 80
0010
0000
0001
0000
,  // measure 81
0100
0000
0010
0000
,  // measure 82
1000
0000
0100
0000
,  // measure 83
0110
0000
0010
0000
,  // measure 84
0001
0000
0010
0000
,  // measure 85
0110
0000
1001
0000
,  // measure 86
0110
0000
1001
0000
,  // measure 87
0110
0000
0100
0000
,  // measure 88
0001
0000
1000
1000
,  // measure 89
1000
0000
0001
0001
,  // measure 90
0001
0000
0110
0000
,  // measure 91
1001
1001
0000
0001
,  // measure 92
0000
0001
0000
1000
,  // measure 93
1000
1000
0000
1001
,  // measure 94
2002
0000
0000
0000
,  // measure 95
0000
0000
0000
0000
,  // measure 96
0000
0000
0000
0000
,  // measure 97
0000
3003
0000
0000
;
