#VERSION:0.83;
#TITLE:すぺしゃる☆れしぴ;
#SUBTITLE:;
#ARTIST:Dolly Dolci;
#TITLETRANSLIT:Special Recipe;
#SUBTITLETRANSLIT:;
#ARTISTTRANSLIT:;
#GENRE:;
#ORIGIN:;
#CREDIT:;
#BANNER:[Round A] - Special Recipe.png;
#BACKGROUND:[Round A] - Special Recipe-bg.png;
#PREVIEWVID:;
#JACKET:[Round A] - Special Recipe-jacket.png;
#CDIMAGE:;
#DISCIMAGE:;
#LYRICSPATH:;
#CDTITLE:cdtitle.png;
#MUSIC:[Round A] - Special Recipe.mp3;
#OFFSET:-2.144000;
#SAMPLESTART:50.264004;
#SAMPLELENGTH:12.468342;
#SELECTABLE:YES;
#BPMS:0.000=153.990;
#STOPS:;
#DELAYS:;
#WARPS:;
#TIMESIGNATURES:0.000=4=4;
#TICKCOUNTS:0.000=4;
#COMBOS:0.000=1;
#SPEEDS:0.000=1.000=0.000=0;
#SCROLLS:0.000=1.000;
#FAKES:;
#LABELS:0.000=Song Start;
#BGCHANGES:;
#KEYSOUNDS:;
#ATTACKS:
;

//---------------dance-single - ----------------
#NOTEDATA:;
#CHARTNAME:;
#STEPSTYPE:dance-single;
#DESCRIPTION:;
#CHARTSTYLE:;
#DIFFICULTY:Hard;
#METER:7;
#RADARVALUES:0.577966,0.680978,0.441778,0.244141,0.046503,348.000000,310.000000,38.000000,21.000000,0.000000,0.000000,0.000000,0.000000,0.000000,0.577966,0.680978,0.441778,0.244141,0.046503,348.000000,310.000000,38.000000,21.000000,0.000000,0.000000,0.000000,0.000000,0.000000;
#CREDIT:;
#NOTES:
// measure 0
0000
0000
0000
0000
,  // measure 1
0000
0000
0000
0000
,  // measure 2
0000
0000
0000
0000
,  // measure 3
0000
0000
0000
0000
,  // measure 4
0000
0000
0000
0000
,  // measure 5
1000
0001
1000
0001
0100
0000
0100
0010
,  // measure 6
0000
0010
1000
0100
0010
0000
0100
1000
,  // measure 7
0002
0000
1000
1000
0000
0010
0000
0100
,  // measure 8
0003
0000
0001
0000
1000
0010
0100
0101
,  // measure 9
0000
0000
0001
1000
0001
0100
1000
0100
,  // measure 10
0001
0010
0100
0010
0001
0100
0100
0010
,  // measure 11
1000
0100
0001
0100
1000
0010
0100
0002
,  // measure 12
1000
2003
0010
3020
0130
0001
1000
1001
,  // measure 13
0000
0001
0100
0001
1000
0000
1000
0010
,  // measure 14
0000
0010
0100
0001
0010
0000
0100
1000
,  // measure 15
0002
0000
1000
1000
0000
0100
0000
0010
,  // measure 16
0003
0000
0001
0101
0000
1100
0000
1001
,  // measure 17
0000
0000
1000
0001
1000
0100
0001
0100
,  // measure 18
1000
0010
0100
0001
1000
0010
0010
2000
,  // measure 19
0000
3010
0100
1000
0100
0001
0010
0200
,  // measure 20
0000
1300
0010
1000
0100
1000
0010
0000
,  // measure 21
1001
0001
0100
1000
0000
1000
0100
0010
,  // measure 22
0000
0010
1000
0001
1000
0100
0100
0000
,  // measure 23
1001
1000
0100
0001
0000
0001
0100
0010
,  // measure 24
0000
0010
0001
1000
0001
0100
0100
0000
,  // measure 25
1010
0010
0100
1000
0000
1000
0100
0001
,  // measure 26
0000
0001
0010
0100
1000
0010
0010
0000
,  // measure 27
1001
0000
0000
0000
0000
0000
0000
0000
0001
1000
0001
1000
0001
0100
0010
0000
,  // measure 28
0000
1000
0100
0010
0000
0001
0100
0110
,  // measure 29
0000
0000
1000
0001
1000
0000
1010
0000
0000
0000
0001
1000
0001
0000
0011
0000
,  // measure 30
0000
0000
0100
0010
0100
0000
1001
0000
0000
0000
0010
0100
0010
0000
1001
0000
,  // measure 31
0000
0001
0100
0001
1000
0100
0001
0100
,  // measure 32
1000
0010
0100
0001
1000
0100
0010
0200
,  // measure 33
0000
1300
0010
1000
0001
0100
1000
1100
,  // measure 34
0000
0100
0001
0011
0000
0010
0100
1001
,  // measure 35
0000
0001
0100
1000
0100
0001
0010
0210
,  // measure 36
0000
1300
0100
0001
0100
1000
0010
0210
,  // measure 37
0000
0301
0010
0100
1000
0010
0100
0101
,  // measure 38
0000
0010
0100
1100
0000
0010
0100
1001
,  // measure 39
0000
1000
0100
1000
0001
0100
1000
0100
,  // measure 40
0001
0010
0100
1000
0001
0100
0010
0200
,  // measure 41
0000
0301
0010
0001
1000
0010
0100
0110
,  // measure 42
0000
0001
0010
0110
0000
1000
0010
0110
,  // measure 43
0000
1000
0001
0201
0000
0301
0010
0120
,  // measure 44
0000
0130
1000
1020
0000
0030
0100
0120
,  // measure 45
0000
1030
0001
1000
0010
0100
1000
1100
,  // measure 46
0000
0100
0010
0100
0001
0010
0100
1001
,  // measure 47
0000
0001
0100
0001
1000
0010
0100
0101
,  // measure 48
0000
1100
0000
1002
0000
0103
0001
0021
,  // measure 49
0000
0000
0130
0000
1000
0000
0100
0000
0001
0000
0000
0100
0000
0000
1020
0000
,  // measure 50
0000
0100
0130
0001
0100
1000
0100
1002
,  // measure 51
0000
0010
0013
0100
1000
0010
0100
2002
,  // measure 52
0000
0000
0000
0000
,  // measure 53
0000
3003
0000
0000
;

//---------------dance-single - ----------------
#NOTEDATA:;
#CHARTNAME:;
#STEPSTYPE:dance-single;
#DESCRIPTION:;
#CHARTSTYLE:;
#DIFFICULTY:Medium;
#METER:6;
#RADARVALUES:0.465030,0.495257,0.058129,0.372024,0.000000,280.000000,275.000000,5.000000,32.000000,0.000000,0.000000,0.000000,0.000000,0.000000,0.465030,0.495257,0.058129,0.372024,0.000000,280.000000,275.000000,5.000000,32.000000,0.000000,0.000000,0.000000,0.000000,0.000000;
#CREDIT:;
#NOTES:
0000
0000
0000
0000
,
0000
0000
0000
0000
,
0000
0000
0000
0000
,
0000
0000
0000
0000
,
0000
0000
0000
0000
,
1000
0001
1000
0001
0100
0000
0010
0100
,
0000
0100
0001
1000
0001
0000
1000
0100
,
0020
0000
0031
0100
0000
0010
0000
1000
,
0000
0000
1000
0000
0100
0010
0010
0100
,
0000
1000
0010
0100
0000
0001
0000
1000
,
0000
0100
0000
0010
0000
0100
1000
0010
,
0000
0010
0100
0000
0100
0001
1000
0200
,
0000
0320
0000
0032
0000
1000
1003
0001
,
0000
1000
0010
0100
0010
0000
1000
0010
,
0000
0010
0100
0001
0010
0000
0100
0020
,
0000
0000
0031
1000
0000
0001
0000
0100
,
0000
0000
0001
1000
0000
1000
0000
1010
,
0000
0010
0100
0001
0000
1000
0000
0100
,
0000
0010
0000
0001
0000
0100
0010
1000
,
0000
1000
0001
0100
0001
0010
0100
2000
,
0000
3001
0100
0001
1000
0001
0100
0000
,
0010
1000
0010
0100
0000
0100
0001
0010
,
0000
0100
1000
0010
0100
0001
0001
0000
,
1000
0001
1000
0100
0000
0100
1000
0010
,
0000
0010
0100
0001
0010
0100
0100
0000
,
0010
0001
0010
0100
0000
0100
1000
0010
,
0000
0010
0100
0001
0010
0000
0010
0001
,
1000
0000
0000
0000
2000
0000
0000
3001
,
0000
0001
0100
0000
0000
0001
0100
0110
,
0000
1000
0100
0010
0000
0010
0001
0100
,
0000
0100
0010
1000
0000
1000
0001
0101
,
0000
0100
0010
0200
0000
0301
0010
0002
,
0000
1003
0010
2000
0000
3100
0010
0002
,
0000
0103
0010
2000
0000
3100
0010
0002
,
0000
0000
1003
0002
0000
0000
0103
0002
,
0000
1003
0010
0100
0010
1000
0010
0200
,
0000
0301
0010
0100
0010
0001
0010
0200
,
0000
1300
0010
1000
0001
1000
0010
0100
,
0000
0100
0001
0010
0000
0010
0100
1000
,
0000
0001
0100
0002
0000
0013
0001
0020
,
0000
0031
0100
0002
0000
0013
0100
2000
,
0000
3010
0100
0002
0000
0013
0100
2000
,
0000
0000
3010
2000
0000
0000
3001
2000
,
0000
3100
0010
0002
0000
1003
0010
0200
,
0000
0301
0010
0200
0000
1300
0001
0100
,
0000
0100
0010
0100
0001
1000
0100
0020
,
0000
0130
1000
0010
0000
0100
0001
0020
,
0000
0130
1000
0010
0100
0001
0010
0100
,
0000
0100
0000
1001
0000
0001
0010
0100
,
0000
1000
0010
1000
0010
1000
0010
0100
,
0000
0001
0010
0001
0010
0001
0010
0100
,
0000
0100
1000
0010
0100
0001
1000
2002
,
0000
0000
0000
0000
,
0000
3003
0000
0000
;

//---------------dance-single - ----------------
#NOTEDATA:;
#CHARTNAME:;
#STEPSTYPE:dance-single;
#DESCRIPTION:;
#CHARTSTYLE:;
#DIFFICULTY:Easy;
#METER:4;
#RADARVALUES:0.362059,0.402396,0.069754,0.046503,0.000000,218.000000,212.000000,6.000000,4.000000,0.000000,0.000000,0.000000,0.000000,0.000000,0.362059,0.402396,0.069754,0.046503,0.000000,218.000000,212.000000,6.000000,4.000000,0.000000,0.000000,0.000000,0.000000,0.000000;
#CREDIT:;
#NOTES:
0000
0000
0000
0000
,
0000
0000
0000
0000
,
0000
0000
0000
0000
,
0000
0000
0000
0000
,
0000
0000
0000
0000
,
1000
0000
0010
0100
0010
0000
0000
1000
,
0000
1000
0001
0000
0100
0000
0010
0000
,
2000
0100
0010
0001
,
3100
0000
1000
0000
0010
0100
0000
0101
,
0000
0000
0001
0100
0000
0010
0000
1000
,
0000
0001
0000
0010
0000
0100
0000
0100
,
0000
0010
0000
0000
0010
0001
0000
0001
,
0000
0100
0000
0010
0000
1000
0001
1000
,
0000
0100
0010
0000
0010
0000
0000
0100
,
0000
0100
1000
0000
0001
0000
0100
0020
,
0000
1000
0100
0001
,
1030
0000
0010
0100
0000
0100
0000
1001
,
0000
0000
0001
0100
0000
0010
0000
1000
,
0000
0100
0000
0010
0000
0010
0000
0100
,
0000
0100
1000
0000
0001
0000
0100
0010
,
0000
0010
1000
0000
0001
0000
1000
0000
,
1001
0000
0001
0100
0000
0000
0100
0010
,
0000
0000
0010
1000
0000
0001
1000
0000
,
1001
0000
1000
0100
0000
0000
0010
0100
,
0000
0000
1000
0010
0000
1000
0001
0000
,
1001
0000
1000
0010
0000
0000
0100
0010
,
0000
0000
1000
0010
0000
1000
0001
0000
,
2001
0000
0000
0000
0001
0000
3001
0100
,
0000
0100
0010
0000
0000
0100
0010
1000
,
0000
1000
0001
1000
0000
1000
0001
1000
,
0000
0001
0100
0001
0000
0001
0100
0001
,
0000
0001
1000
0000
0010
0000
0100
0000
,
0001
0000
1000
0000
0100
0010
0100
0000
,
1000
0000
0010
0000
0100
0000
0001
1000
,
0000
0000
0010
1000
0000
0000
0001
1000
,
0000
1000
0010
0000
0100
0000
0001
1000
,
0000
0000
0100
0000
0010
0000
0001
1000
,
0000
0000
0010
0000
0100
0000
0001
1000
,
0000
0000
0100
1000
0000
0000
0001
1000
,
0000
1000
0010
0000
0100
0000
0001
0000
,
1000
0000
0100
0000
0010
0001
0010
0000
,
0100
0000
1000
0000
0010
0000
0100
0001
,
0000
0000
1000
0001
0000
0000
0100
0001
,
0000
0000
0001
1000
0000
0000
1000
0010
,
0000
0000
0010
0100
0000
0000
0100
0001
,
0000
0000
1000
0000
0010
0000
0100
0010
,
0000
0010
1000
0001
0000
0000
0001
1000
,
0000
0000
0001
0000
0100
0010
0100
0010
,
0000
0010
0000
0010
0000
1000
0001
1000
,
0000
0010
0100
0000
0001
0000
1000
0010
,
0000
0010
0100
0000
0001
0000
0010
0100
,
0000
0100
1000
0000
0001
0000
0100
0020
,
0000
0000
0000
0000
,
0000
0030
0000
0000
;
