#VERSION:0.83;
#TITLE:Spaceman Came Travelling;
#SUBTITLE:;
#ARTIST:Seven;
#TITLETRANSLIT:;
#SUBTITLETRANSLIT:;
#ARTISTTRANSLIT:;
#GENRE:TRANCE;
#ORIGIN:;
#CREDIT:;
#BANNER:[Round A] - Spaceman Came Travelling.png;
#BACKGROUND:[Round A] - Spaceman Came Travelling-bg.png;
#PREVIEWVID:;
#JACKET:[Round A] - Spaceman Came Travelling-jacket.png;
#CDIMAGE:;
#DISCIMAGE:;
#LYRICSPATH:;
#CDTITLE:;
#MUSIC:[Round A] - Spaceman Came Travelling.mp3;
#OFFSET:-3.797000;
#SAMPLESTART:76.779999;
#SAMPLELENGTH:19.100000;
#SELECTABLE:YES;
#BPMS:0.000=138.000,
124.000=69.000,
142.000=138.000;
#STOPS:142.000=3.020;
#DELAYS:;
#WARPS:;
#TIMESIGNATURES:0.000=4=4;
#TICKCOUNTS:0.000=4;
#COMBOS:0.000=1;
#SPEEDS:0.000=1.000=0.000=0;
#SCROLLS:0.000=1.000;
#FAKES:;
#LABELS:0.000=Song Start;
#BGCHANGES:;
#KEYSOUNDS:;
#ATTACKS:
;

//---------------dance-single - DDRDAIKENKAI----------------
#NOTEDATA:;
#CHARTNAME:DDRDAIKENKAI;
#STEPSTYPE:dance-single;
#DESCRIPTION:DDRDAIKENKAI;
#CHARTSTYLE:;
#DIFFICULTY:Hard;
#METER:7;
#RADARVALUES:0.412868,0.510970,0.269628,0.454997,0.054768,343.000000,311.000000,32.000000,54.000000,0.000000,0.000000,0.000000,0.000000,0.000000,0.412868,0.510970,0.269628,0.454997,0.054768,343.000000,311.000000,32.000000,54.000000,0.000000,0.000000,0.000000,0.000000,0.000000;
#CREDIT:DDRDAIKENKAI;
#NOTES:
// measure 0
0000
0000
0000
0000
,  // measure 1
0000
0000
0000
0000
,  // measure 2
2000
3100
0002
0103
,  // measure 3
2000
0000
3002
0000
0023
0000
0030
0100
,  // measure 4
2000
3010
0002
0013
,  // measure 5
2000
0002
0000
0000
,  // measure 6
3000
0000
0000
0100
0203
0000
0310
0000
,  // measure 7
2002
0000
0000
0000
,  // measure 8
0000
0000
0000
0000
0000
0000
3003
0001
,  // measure 9
0100
0001
1000
0000
0010
1000
0001
0000
,  // measure 10
0010
0100
1000
0001
0200
0000
0310
0000
,  // measure 11
1000
0001
0100
0000
0001
1000
0010
0000
,  // measure 12
1000
0100
0010
0001
0200
0000
0301
0000
,  // measure 13
0010
0100
1000
0000
1000
0010
0100
0000
,  // measure 14
0100
0001
0010
0001
2000
0000
3100
0000
,  // measure 15
0010
0001
0100
0010
1000
0000
0100
0000
,  // measure 16
0020
0230
1000
1000
,  // measure 17
2300
0000
0000
0001
0001
0000
0100
0000
,  // measure 18
3002
0023
0230
2300
,  // measure 19
3001
0010
0001
0010
0100
1000
0100
1000
,  // measure 20
0001
0100
1000
0000
1000
0100
0001
0000
,  // measure 21
0001
1000
0001
0100
0010
1000
0001
0000
,  // measure 22
1000
0100
0010
0001
0100
0001
0010
0100
,  // measure 23
1000
0010
0001
0010
1000
0100
1000
0000
,  // measure 24
0001
0010
0001
0100
0010
1000
0100
1000
,  // measure 25
0001
0100
1000
0100
0001
0010
0001
0000
,  // measure 26
0010
0100
1000
0001
0100
0010
1000
0100
,  // measure 27
0020
0000
0032
0000
1003
0100
2000
0000
,  // measure 28
3001
0010
0002
0000
0103
0000
0100
0000
,  // measure 29
0002
1000
0000
1003
,  // measure 30
2000
0000
0000
0001
0001
0000
3100
0000
,  // measure 31
2001
0000
3001
0010
0100
0000
0100
1000
0010
0000
0010
0100
0020
0000
0030
0000
,  // measure 32
0200
0000
0301
1000
0100
0000
0100
1000
0002
0000
0000
0000
0000
0000
0003
0000
,  // measure 33
0010
0000
0010
0100
1000
0000
1000
0010
0100
0000
0100
0010
0002
0000
0003
0000
,  // measure 34
0010
0000
0000
1000
0000
0000
0001
0000
0010
0000
0000
0100
0000
0000
1000
0000
0020
0000
0000
0000
0001
0000
0000
0000
0100
0000
0000
0000
1000
0000
0000
0000
,  // measure 35
0230
0000
0000
0000
0000
0000
0000
0000
0000
0000
0000
0000
0001
0000
0000
0000
0302
0000
0000
0000
0000
0000
0000
0000
1003
0000
0000
0000
0000
0000
0000
0000
2002
3003
0000
0000
0000
0000
0000
0000
0000
0000
0000
0000
0000
0000
0000
0000
2001
0000
0000
0000
0000
0000
0000
0000
0000
0000
0000
0000
0000
0000
0000
0000
,  // measure 36
3010
1000
0200
0000
0301
0100
2000
0000
,  // measure 37
3010
0100
0001
0000
1001
0000
1020
0000
,  // measure 38
0130
0001
0020
0000
0130
1000
0100
0000
,  // measure 39
0110
0011
1010
0210
,  // measure 40
0310
1000
0002
0000
0013
0100
2000
0000
,  // measure 41
3100
0010
0002
0000
0103
0000
0110
0001
,  // measure 42
1000
0010
0100
0001
0100
0010
0110
0000
,  // measure 43
1010
0110
0101
0120
,  // measure 44
0000
1030
0001
0000
1001
0000
0022
0000
,  // measure 45
0033
2200
3300
1010
,  // measure 46
0101
0100
0110
0000
1002
0000
1003
0100
,  // measure 47
1000
0010
0100
0001
0010
0100
1000
0010
,  // measure 48
0001
0010
1000
0100
0001
0100
1000
0001
,  // measure 49
0010
0001
0100
0010
1000
0100
1100
0000
,  // measure 50
1001
0000
0101
0000
1001
0000
0110
0010
,  // measure 51
0100
0001
1000
0100
1000
0001
0010
0100
,  // measure 52
0010
0001
1000
0010
0100
0001
1000
0100
,  // measure 53
1000
0010
0100
0001
0010
0100
1000
0010
,  // measure 54
0001
0010
1000
0100
0010
0001
0101
0000
,  // measure 55
1100
1010
0011
2000
,  // measure 56
0000
0000
0000
0000
,  // measure 57
0000
0000
0000
0000
0000
0000
0000
0000
0000
0000
0000
0000
0000
0000
0000
0000
0000
0000
0000
0000
0000
0000
0000
0000
0000
0000
0000
0000
0000
0000
0000
0000
0000
0000
0000
0000
0000
0000
0000
0000
0000
0000
0000
0000
0000
0000
0000
0000
0000
0000
0000
0000
0000
0000
0000
0000
0000
0000
0000
0000
0000
0000
0000
0000
0000
0000
0000
0000
0000
0000
0000
0000
0000
0000
0000
0000
0000
0000
0000
0000
0000
0000
0000
0000
0000
0000
0000
0000
0000
0000
0000
0000
0000
0000
0000
0000
0000
0000
0000
0000
0000
0000
0000
0000
0000
0000
0000
0000
0000
0000
0000
0000
0000
0000
0000
0000
0000
0000
0000
0000
0000
0000
0000
0000
0000
0000
0000
0000
0000
0000
0000
0000
0000
0000
0000
0000
0000
0000
0000
0000
0000
0000
0000
0000
0000
3000
0000
0000
0000
0000
0000
0000
0000
0000
0000
0000
0000
0000
0000
0000
0000
0000
0000
0000
0000
0000
0000
0000
0000
0000
0000
0000
0000
0000
0000
0000
0000
0000
0000
0000
0000
0000
0000
0000
0000
0000
0000
0000
0000
0000
0000
0000
;

//---------------dance-single - DDRDAIKENKAI----------------
#NOTEDATA:;
#CHARTNAME:DDRDAIKENKAI;
#STEPSTYPE:dance-single;
#DESCRIPTION:DDRDAIKENKAI;
#CHARTSTYLE:;
#DIFFICULTY:Medium;
#METER:5;
#RADARVALUES:0.302128,0.437935,0.294906,0.396016,0.000000,251.000000,216.000000,35.000000,47.000000,0.000000,0.000000,0.000000,0.000000,0.000000,0.302128,0.437935,0.294906,0.396016,0.000000,251.000000,216.000000,35.000000,47.000000,0.000000,0.000000,0.000000,0.000000,0.000000;
#CREDIT:DDRDAIKENKAI;
#NOTES:
0000
0000
0000
0000
,
0000
0000
0000
0000
,
2000
0000
3200
0000
,
0310
0001
0100
0000
,
0001
0010
0100
1000
,
0002
2000
0000
0000
,
3003
0000
0010
0010
,
0220
0000
0000
0000
,
0000
0000
0000
0330
,
0110
0100
0001
0001
,
1000
0100
0010
0000
,
0100
0100
1000
1000
,
0001
0100
0010
0000
,
1000
0001
1000
0010
,
0100
0001
1000
0000
,
0001
0010
0001
0100
,
0020
0200
0000
0000
,
0330
0000
0100
0100
,
0020
1000
0100
1030
,
0002
0000
0100
0000
0100
0000
0103
0010
,
0100
0000
0010
0000
1000
0100
0010
0000
,
0001
0100
0010
0000
2000
0000
3001
0000
,
0010
0100
0010
0000
0001
0100
0001
0000
,
1000
0000
0100
0000
2000
0000
3000
0010
,
0010
0100
0010
0000
1000
0010
1000
0000
,
0001
0000
0100
0000
0002
0000
0003
0010
,
0010
0000
0001
0100
0001
0000
1000
0010
,
1000
1100
0001
0101
,
1000
1100
0001
0001
,
2000
0010
0000
0010
,
0000
0010
3010
0100
,
0002
0000
0023
0000
0130
1000
0001
0000
,
0200
0000
0320
0000
2030
0000
0000
3000
,
0002
0000
0023
0000
0130
0010
0002
0003
,
1000
0010
0100
0001
2000
0000
0000
0000
,
3000
0000
0010
0010
1001
0000
1001
0000
,
1010
1001
0011
1001
,
1100
1001
0101
0011
,
1100
1010
0101
0002
,
1003
0200
0310
0011
,
0101
1100
1010
1100
,
0101
0000
0011
0000
0110
0000
1000
0100
,
1000
0000
0010
0100
0010
0000
0200
0000
,
0302
0000
1003
0100
0010
0000
0002
0000
,
0013
0100
2000
0000
3001
0000
0101
0000
,
0000
1010
0000
1100
,
0011
0110
1001
2000
,
3010
1000
0200
0000
1300
0010
2000
0000
,
3001
0100
0002
0000
0013
0000
0200
0000
,
0310
0001
0020
0000
0031
0100
0002
0000
,
1000
0010
0103
0020
,
0130
1000
0020
0000
1030
0100
0020
0000
,
0130
1000
0002
0000
0103
0000
0020
0000
,
1030
0100
0020
0000
0031
0010
0200
0000
,
2300
3020
0032
0013
,
0110
1010
0110
0020
,
0000
0000
0000
0000
,
0000
0000
0000
0030
;

//---------------dance-single - DDRDAIKENKAI----------------
#NOTEDATA:;
#CHARTNAME:DDRDAIKENKAI;
#STEPSTYPE:dance-single;
#DESCRIPTION:DDRDAIKENKAI;
#CHARTSTYLE:;
#DIFFICULTY:Easy;
#METER:3;
#RADARVALUES:0.202221,0.316286,0.109536,0.202221,0.000000,168.000000,155.000000,13.000000,24.000000,0.000000,0.000000,0.000000,0.000000,0.000000,0.202221,0.316286,0.109536,0.202221,0.000000,168.000000,155.000000,13.000000,24.000000,0.000000,0.000000,0.000000,0.000000,0.000000;
#CREDIT:DDRDAIKENKAI;
#NOTES:
0000
0000
0000
0000
,
0000
0000
0000
0000
,
2000
0000
3100
0000
,
0002
0000
0013
0000
,
0002
0000
2003
0000
,
3002
0000
0000
0000
,
0003
0000
1000
1000
,
2002
0000
0000
0000
,
0000
0000
0000
3003
,
0001
1000
0001
0000
,
1000
0001
1000
0000
,
0010
0010
0100
0100
,
0010
1000
0001
0000
,
1000
0100
1000
0000
,
0001
0010
0001
0000
,
0100
0010
1000
0001
,
2000
0002
0000
0000
,
3003
0000
0100
0100
,
0020
0000
0000
0000
,
0000
0000
0000
0030
,
0100
0001
0010
0100
,
1000
0100
1000
0000
,
0010
1000
0100
0010
,
0001
0010
0001
0000
,
1000
0001
0100
0010
,
1000
0001
1000
0000
,
0001
0100
0010
1000
,
0002
0000
0000
0000
,
0003
0000
1000
1000
,
2002
0000
0000
0000
,
0003
0000
0001
3001
,
2000
3100
0020
0031
,
0002
0103
0020
0030
,
0200
0301
2000
3001
,
0001
1000
0002
0000
,
0003
0000
1001
0110
,
0100
0001
0100
0001
,
0010
0100
0000
0110
,
0100
1000
0100
2000
,
0000
0000
3000
0010
,
0100
0001
1000
0001
,
0100
0010
0000
1000
,
0100
1000
0100
0020
,
0000
0032
0000
1003
,
0000
0010
0010
0110
,
0000
0110
0000
1001
,
1001
0001
0001
1000
,
1000
0010
0010
0100
,
0100
0001
0001
0010
,
0010
0100
0100
1000
,
1000
0001
0001
0100
,
0100
1000
1000
0100
,
0100
0001
0001
0010
,
0010
1000
1000
0010
,
0010
0010
0010
1001
,
1001
1001
1001
0002
,
0000
0000
0000
0000
,
0000
0000
0000
0003
;
