#VERSION:0.83;
#TITLE:Shelter;
#SUBTITLE:;
#ARTIST:Porter Robinson & Madeon;
#TITLETRANSLIT:;
#SUBTITLETRANSLIT:;
#ARTISTTRANSLIT:;
#GENRE:;
#ORIGIN:;
#CREDIT:;
#BANNER:;
#BACKGROUND:;
#PREVIEWVID:;
#JACKET:;
#CDIMAGE:;
#DISCIMAGE:;
#LYRICSPATH:;
#CDTITLE:;
#MUSIC:[Round A] - Shelter.ogg;
#OFFSET:-0.141000;
#SAMPLESTART:96.139999;
#SAMPLELENGTH:19.199984;
#SELECTABLE:YES;
#BPMS:0.000=100.000;
#STOPS:;
#DELAYS:;
#WARPS:;
#TIMESIGNATURES:0.000=4=4;
#TICKCOUNTS:0.000=4;
#COMBOS:0.000=1;
#SPEEDS:0.000=1.000=0.000=0;
#SCROLLS:0.000=1.000;
#FAKES:;
#LABELS:0.000=Song Start;
#BGCHANGES:;
#KEYSOUNDS:;
#ATTACKS:
;

//---------------dance-single - ----------------
#NOTEDATA:;
#CHARTNAME:;
#STEPSTYPE:dance-single;
#DESCRIPTION:;
#CHARTSTYLE:;
#DIFFICULTY:Hard;
#METER:7;
#RADARVALUES:0.339029,0.453325,0.063949,0.149213,0.362375,334.000000,325.000000,9.000000,21.000000,0.000000,0.000000,0.000000,0.000000,0.000000,0.339029,0.453325,0.063949,0.149213,0.362375,334.000000,325.000000,9.000000,21.000000,0.000000,0.000000,0.000000,0.000000,0.000000;
#CREDIT:;
#NOTES:
0000
0000
0000
0000
,
0000
0000
0000
0000
,
0000
0000
0000
0000
,
0000
0000
0000
0000
,
0001
0000
0000
0000
1000
0010
0000
0100
0000
0000
0000
0000
0000
0000
0001
0000
,
1000
0000
0000
0000
0001
0100
0000
0010
0000
0000
0000
0000
0100
0000
0001
0000
,
1000
0000
0000
0000
0100
0010
0000
0001
0000
0000
0000
0000
0000
0000
0100
0000
,
0010
0000
0000
0000
1000
0000
0000
0000
0010
0000
0000
0000
0100
0000
0000
0000
0001
0000
0000
0000
0100
0000
0000
0000
0001
0000
0000
0000
0010
0000
0000
0000
0001
0000
0000
0000
1000
0000
0000
0100
0000
0000
0000
0000
0000
0010
0000
0000
,
0001
0000
1000
0000
0001
0100
0000
0010
1000
0000
0000
0000
0100
0000
0010
0000
,
0001
0000
0000
0000
1000
0010
0000
0100
0000
0000
0000
0000
0010
0000
1000
0000
,
0001
0000
0000
0000
0001
0100
0000
0010
0000
0000
0000
0000
1000
0000
0001
0000
,
1000
0010
0100
0010
1000
0100
0010
0001
0100
0001
0010
0100
,
1000
0000
0001
0000
0100
0010
0000
0010
1000
0000
0000
0000
0001
0000
0010
0000
,
0100
0000
0010
0000
0001
1000
0000
0010
0000
0000
0100
0000
0010
0000
1000
0000
,
0010
0000
0100
0000
0001
0010
0000
0100
0000
0000
0010
0000
0001
0000
1000
0000
,
0001
0010
0100
0010
0001
0010
0100
1000
0100
0010
0100
1000
,
0001
0000
1000
0010
0100
0001
0010
0100
,
0010
0000
0000
0100
0000
0000
1000
0000
0010
0000
0000
0100
0000
0000
0000
0000
,
1001
0000
1000
0000
0010
0000
0100
0001
,
0010
0000
0000
0000
0001
0000
0000
0000
1000
0000
0000
0000
0001
0100
0001
0100
,
0001
0000
0010
0000
0100
0010
0001
1000
,
0010
1000
0110
1001
,
0001
0000
1000
0010
0100
0001
0010
0100
,
1000
0001
0010
1001
,
2000
3010
2000
3001
,
2000
3100
2000
3001
,
0002
0103
0002
1003
,
0002
0013
0002
1003
,
0200
0000
2300
0000
,
3002
0000
0023
0000
,
0230
0000
2300
0000
,
0002
0000
0000
0000
,
3003
0000
0000
0000
1000
0010
0000
0100
0000
0000
0000
0000
0000
0000
0000
0000
,
0010
0000
0000
0000
0100
0001
0000
0010
0000
0000
0000
0000
0100
0000
0010
0000
,
0001
0000
0000
0000
1000
0001
0000
0100
0000
0000
0000
0000
0000
0000
0010
0000
,
1000
0001
0010
0001
1000
0010
1000
0001
0100
0001
1000
0100
,
1000
0000
0000
0000
0001
0010
0000
0100
0000
0000
0000
0000
0000
0000
0000
0000
,
0010
0000
0000
0000
0001
1000
0000
0010
0000
0000
0000
0000
0100
0000
0001
0000
,
0010
0000
0000
0000
0100
0010
0000
0001
0000
0000
0000
0000
0000
0000
0000
0000
,
1000
0000
0000
0000
1000
0000
0000
0000
0001
0000
0000
0000
0010
0000
0000
0000
0010
0000
0000
0000
0100
0000
0000
0000
0010
0000
0000
0000
0010
0000
0000
0000
0010
0000
0000
0000
0001
0000
0000
1000
0000
0000
0001
0000
0000
1000
0000
0000
,
0001
0000
1000
0000
0001
0010
0000
0100
0010
0000
0001
0000
1000
0000
0000
0000
,
0001
0000
1000
0000
0100
0010
0000
0100
0000
1000
0010
0000
0100
0000
0001
0000
,
1000
0000
0010
0000
0100
0001
0000
0010
0100
0000
0000
0000
1000
0000
0001
0000
,
0100
0001
0100
0010
1000
0010
1000
0100
1000
0100
0010
0001
,
1000
0000
0010
0000
0100
0001
0000
0001
0100
0000
0010
0000
1000
0000
0000
0000
,
0100
0000
0010
0000
0001
0010
0000
0010
0000
0010
0001
0000
0100
0000
0010
0000
,
1000
0000
0001
0000
0100
0001
0000
0001
0100
0000
0010
0000
1000
0000
0100
0000
,
0010
0000
0010
0000
0100
0000
1000
0000
1000
0000
0001
0000
0100
0000
0100
0000
0010
0000
1000
0000
0000
0001
0000
0000
,
1001
0000
0011
0000
0100
0010
0001
0000
,
0100
0000
0011
0000
0010
0001
0100
0000
,
0010
0000
1001
0000
1000
0001
0100
0000
,
0010
0000
1100
0000
1000
0010
1000
0001
,
0200
0301
0020
0130
,
2000
0000
3001
0000
0100
0010
1000
0100
,
0002
0000
0000
0000
0203
0000
0000
2000
,
0000
0000
0000
0000
,
0000
0000
0000
0000
,
0000
0000
0000
0000
,
3300
0000
0000
0000
;

//---------------dance-single - ----------------
#NOTEDATA:;
#CHARTNAME:;
#STEPSTYPE:dance-single;
#DESCRIPTION:;
#CHARTSTYLE:;
#DIFFICULTY:Medium;
#METER:5;
#RADARVALUES:0.253764,0.370902,0.056843,0.120792,0.184740,250.000000,242.000000,8.000000,17.000000,0.000000,0.000000,0.000000,0.000000,0.000000,0.253764,0.370902,0.056843,0.120792,0.184740,250.000000,242.000000,8.000000,17.000000,0.000000,0.000000,0.000000,0.000000,0.000000;
#CREDIT:;
#NOTES:
0000
0000
0000
0000
,
0000
0000
0000
0000
,
0000
0000
0000
0000
,
0000
0000
0000
0000
,
1000
0000
0000
0000
0001
1000
0000
0001
0000
0000
0000
0000
0000
0000
1000
0000
,
0001
0000
0000
0000
1000
0001
0000
1000
0000
0000
0000
0000
0010
0000
0100
0000
,
0010
0000
0000
0000
1000
0001
0000
1000
0000
0000
0000
0000
0000
0000
0010
0000
,
0100
0100
0100
0100
,
0001
0000
1000
0000
0010
0100
0000
0001
0000
0000
0000
0000
0000
0000
0100
0000
,
0010
0000
1000
0000
0010
1000
0000
0010
0000
0000
0000
0000
0100
0000
0001
0000
,
0010
0000
0100
0000
1000
0100
0000
1000
0000
0000
0000
0000
0000
0000
0100
0000
,
1000
1000
1000
1000
,
1001
0000
0000
0000
0001
0100
0000
0010
1000
0000
0000
0000
0010
0000
0100
0000
,
0001
0000
0000
0000
1000
0001
0000
0001
1000
0000
0100
0000
1000
0000
0000
0000
,
0010
0000
0000
0000
0100
0010
0000
0010
0100
0000
0001
0000
1000
0000
0000
0000
,
0001
0001
0001
0001
,
2000
0000
0000
3010
,
0200
0000
0020
0330
,
1001
0000
0001
0000
1000
0000
0010
1000
,
0010
0000
0100
0000
0001
0000
1000
1000
,
1000
0100
1000
0010
,
0101
0011
0001
1100
,
1000
0000
0001
0000
0100
0000
0010
0100
,
0001
0000
1000
0000
0100
0000
1000
0010
,
0100
0000
0010
0000
,
1000
0000
0001
0000
,
0010
0000
0001
0000
,
1000
0000
0010
0000
,
0200
0000
0000
0300
0002
0000
0000
0003
,
2000
0000
0000
3000
0002
0000
0000
0003
,
0200
0000
0000
0300
0020
0000
0000
0030
,
2000
0000
0000
0000
,
3001
0000
0000
0000
0100
0010
0000
1000
0000
0000
0000
0000
0000
0000
0000
0000
,
0100
0000
0000
0000
0010
1000
0000
0100
0000
0000
0000
0000
0010
0000
0001
0000
,
1000
0000
0000
0000
0001
1000
0000
0010
0000
0000
0000
0000
0000
0000
0100
0000
,
0010
0010
0010
0010
,
0100
0000
0000
0000
0001
0100
0000
0010
0000
0000
0000
0000
0000
0000
0000
0000
,
0010
0000
0000
0000
1000
0100
0000
0010
0000
0000
0000
0000
0100
0000
1000
0000
,
0010
0000
0000
0000
0100
0001
0000
1000
0000
0000
0000
0000
0000
0000
0000
0000
,
0001
1000
0001
1000
0001
1000
0001
1000
0001
0020
0000
0000
,
0130
0000
1000
0000
0010
1000
0000
1000
0010
0000
0000
0000
0000
0000
0100
0000
,
0010
0000
1000
0000
0001
1000
0000
1000
0001
0000
0000
0000
0010
0000
0100
0000
,
1000
0000
0100
0000
0010
0001
0000
0001
0010
0000
0000
0000
0000
0000
0100
0000
,
0010
0010
0010
0010
,
0100
0000
0010
0000
0001
1000
0000
1000
0010
0000
0000
0000
0000
0000
0100
0000
,
0001
0000
0010
0000
0100
1000
0000
1000
0010
0000
0100
0000
0001
0000
0010
0000
,
0100
0000
1000
0000
0100
1000
0000
1000
0001
0000
0000
0000
0000
0000
0100
0000
,
0001
0000
0001
0000
0001
0000
0010
0100
,
1000
0000
0000
0100
0000
0000
1000
0000
0000
0000
0010
0000
0000
0000
0100
0000
,
0001
0000
0000
0010
0000
0000
0001
0000
0000
0000
0000
0000
0000
0000
1000
0000
,
0001
0000
0000
0001
0000
0000
1000
0000
0000
0000
0010
0000
0100
0000
0001
0000
,
1000
0000
0000
0100
0000
0000
1000
0000
0000
0000
0000
0000
0010
0000
0100
0000
,
1002
0003
1020
0030
,
2100
0000
3100
0000
0010
0000
0001
0100
,
0020
0000
0000
0000
2030
0000
0000
0002
,
0000
0000
0000
0000
,
0000
0000
0000
0000
,
0000
0000
0000
0000
,
3003
0000
0000
0000
;

//---------------dance-single - ----------------
#NOTEDATA:;
#CHARTNAME:;
#STEPSTYPE:dance-single;
#DESCRIPTION:;
#CHARTSTYLE:;
#DIFFICULTY:Easy;
#METER:2;
#RADARVALUES:0.146168,0.206057,0.042632,0.156319,0.000000,144.000000,138.000000,6.000000,22.000000,0.000000,0.000000,0.000000,0.000000,0.000000,0.146168,0.206057,0.042632,0.156319,0.000000,144.000000,138.000000,6.000000,22.000000,0.000000,0.000000,0.000000,0.000000,0.000000;
#CREDIT:;
#NOTES:
0000
0000
0000
0000
,
0000
0000
0000
0000
,
0000
0000
0000
0000
,
0000
0000
0000
0000
,
0010
0000
0000
0000
,
1000
0000
0001
0000
,
0100
0000
0000
0000
,
0020
0000
0000
0030
,
0100
0001
1000
0000
,
0001
0010
0001
1000
,
0100
0010
0100
0000
,
0020
0000
0000
0000
,
0031
1000
0010
0000
,
1000
0001
0100
0001
,
0010
0001
1000
0000
,
0200
0000
0000
0000
,
0300
0010
0001
0010
,
0002
0000
2000
3003
,
0001
0100
0001
1000
,
0001
0000
0000
0110
,
1001
1000
0010
0100
,
0001
0000
1000
0000
,
0100
1000
1000
0001
,
0010
0000
0000
0000
,
0200
0000
0320
0000
,
0032
0000
2000
3003
,
2000
0000
3020
0000
,
0230
0000
0302
0000
,
0013
0000
0100
0000
,
1000
0000
0100
0000
,
0010
0000
0001
0000
,
1000
0000
0000
0000
,
0001
0200
0300
0000
,
0001
2000
3001
0010
,
0001
2000
3100
0000
,
2000
0000
0000
0000
,
3010
0200
0301
0000
,
0010
0200
1300
0100
,
1000
0002
0103
0000
,
0020
0000
0000
0130
,
0001
1000
1000
0000
,
0001
0010
0100
0010
,
0001
1000
1000
0000
,
0001
0100
0010
1000
,
1001
0001
0010
0000
,
0001
1000
0100
1000
,
0010
0100
0001
0000
,
0001
0001
0001
1000
,
0001
0100
0001
0010
,
0001
1000
0001
1000
,
0100
1000
0010
0100
,
0001
0010
0001
1000
,
0101
0000
1100
0000
,
1001
0000
0001
1000
,
0010
0000
0000
0000
0100
0000
0000
0002
,
0000
0000
0000
0000
,
0000
0000
0000
0000
,
0000
0000
0000
0000
,
0003
0000
0000
0000
;

//---------------dance-single - ----------------
#NOTEDATA:;
#CHARTNAME:;
#STEPSTYPE:dance-single;
#DESCRIPTION:;
#CHARTSTYLE:;
#DIFFICULTY:Beginner;
#METER:1;
#RADARVALUES:0.077144,0.144240,0.049738,0.007105,0.000000,76.000000,69.000000,7.000000,1.000000,0.000000,0.000000,0.000000,0.000000,0.000000,0.077144,0.144240,0.049738,0.007105,0.000000,76.000000,69.000000,7.000000,1.000000,0.000000,0.000000,0.000000,0.000000,0.000000;
#CREDIT:;
#NOTES:
// measure 0
0000
0000
0000
0000
,  // measure 1
0000
0000
0000
0000
,  // measure 2
0000
0000
0000
0000
,  // measure 3
0000
0000
0000
0000
,  // measure 4
1000
0000
0000
0000
,  // measure 5
1000
0000
0000
0000
,  // measure 6
1000
0000
0000
0000
,  // measure 7
1000
0000
0000
0000
,  // measure 8
0001
0000
0100
0000
,  // measure 9
0001
0000
1000
0000
,  // measure 10
0001
0000
1000
0000
,  // measure 11
0010
0000
0000
0000
,  // measure 12
0100
0000
0000
0000
,  // measure 13
0010
0000
1000
0000
,  // measure 14
0001
0000
0000
0000
,  // measure 15
1000
0000
0000
0000
,  // measure 16
0010
0000
0000
0000
,  // measure 17
0100
0000
0001
0000
,  // measure 18
1000
0000
0000
0000
,  // measure 19
0001
0000
0000
0100
,  // measure 20
0100
0000
0000
0010
,  // measure 21
0010
0000
0100
0000
,  // measure 22
0000
0001
0000
0000
,  // measure 23
1000
0000
0000
0000
,  // measure 24
0100
0000
1000
0000
,  // measure 25
0001
0000
0100
0000
,  // measure 26
0010
0000
0010
0000
,  // measure 27
1000
0000
0001
0000
,  // measure 28
0100
0000
0000
0000
,  // measure 29
0010
0000
0000
0000
,  // measure 30
1000
0000
0000
0000
,  // measure 31
0001
0000
0000
0000
,  // measure 32
1001
0000
0000
0000
,  // measure 33
0010
0000
0000
0000
,  // measure 34
0100
0000
0000
0000
,  // measure 35
0010
0000
0000
0000
,  // measure 36
1001
0000
0000
0000
,  // measure 37
1000
0000
0000
0000
,  // measure 38
0001
0000
0000
0000
,  // measure 39
0100
0000
0000
0000
,  // measure 40
0110
0000
0000
0000
,  // measure 41
1001
0000
1000
0000
,  // measure 42
0001
0000
0000
0000
,  // measure 43
0100
0000
0100
0000
,  // measure 44
1001
0000
0000
0000
,  // measure 45
0110
0000
0010
0000
,  // measure 46
1001
0000
0000
0000
,  // measure 47
0001
0000
0000
1000
,  // measure 48
0001
0000
0000
0000
,  // measure 49
0100
0000
0000
0000
,  // measure 50
0001
0000
0000
0000
,  // measure 51
1000
0000
0000
0000
,  // measure 52
0010
0000
0010
0000
,  // measure 53
0010
0000
0000
0000
,  // measure 54
0100
0000
0200
0000
,  // measure 55
0000
0000
0000
0000
,  // measure 56
0000
0000
0000
0000
,  // measure 57
0000
0000
0000
0000
,  // measure 58
0300
0000
0000
0000
;
