#TITLE:Megalara Garuda;
#SUBTITLE:;
#ARTIST:SYUNN;
#TITLETRANSLIT:;
#SUBTITLETRANSLIT:;
#ARTISTTRANSLIT:;
#GENRE:;
#CREDIT:;
#BANNER:Megalara Garuda.png;
#BACKGROUND:Megalara Garuda-bg.png;
#LYRICSPATH:;
#CDTITLE:rook-cd.png;
#MUSIC:[Round A] - Megalara Garuda.mp3;
#OFFSET:-1.499137;
#SAMPLESTART:61.473000;
#SAMPLELENGTH:15.000000;
#SELECTABLE:YES;
#DISPLAYBPM:180.000000;
#BPMS:0.000000=180.000000
,60.000000=270.000000
,64.000000=180.000000
,303.000000=270.000000
,307.000000=180.000000
;
#STOPS:60.000000=0.083000,
60.750000=0.084000,
61.500000=0.027000,
61.750000=0.028000,
62.000000=0.037000,
62.333332=0.037000,
62.666668=0.037000,
63.000000=0.037000,
63.333332=0.037000,
63.666668=0.037000,
176.000000=0.333000,
303.000000=0.084000,
303.750000=0.083000,
304.500000=0.027000,
304.750000=0.028000,
305.000000=0.037000,
305.333344=0.037000,
305.666656=0.037000,
306.000000=0.037000,
306.333344=0.037000,
306.666656=0.037000
;
#BGCHANGES:;
#KEYSOUNDS:;
#ATTACKS:;

//---------------dance-single - ----------------
#NOTES:
     dance-single:
     :
     Challenge:
     12:
     0.998942,1.000000,0.152381,0.541799,0.914286,744.000000,18.000000,64.000000,6.000000,0.000000,0.000000,0.998942,1.000000,0.152381,0.541799,0.914286,744.000000,18.000000,64.000000,6.000000,0.000000,0.000000:
// measure 0
0000
0000
0000
0000
,  // measure 1
0000
0000
0000
0000
,  // measure 2
0000
0000
0000
0000
,  // measure 3
0000
0000
0000
0000
,  // measure 4
0000
0000
0000
0000
,  // measure 5
0000
0000
0000
0000
,  // measure 6
0000
0000
0000
0000
,  // measure 7
0000
0000
0000
0000
,  // measure 8
1000
0000
0001
0100
0010
0000
0100
0001
1000
0100
0010
0001
1000
0000
0001
0100
,  // measure 9
0010
0000
0100
0001
1000
0000
0100
1000
0001
0100
0010
0100
0001
0000
1000
0001
,  // measure 10
0010
0000
0100
1000
0001
0000
0100
0001
1000
0100
1000
0001
0100
0000
0010
1000
,  // measure 11
0001
0000
0100
0001
1000
0000
0100
0010
0001
1000
0001
0100
0010
0000
0100
0010
,  // measure 12
1000
0000
0100
0010
0001
0000
1000
0100
0010
0001
1000
0010
1000
0000
0001
0010
,  // measure 13
0100
0000
0010
0001
1000
0000
0010
0100
0010
1000
0001
0010
0001
0000
1000
0100
,  // measure 14
0010
0000
0100
1000
0001
0000
0100
0010
1000
0001
0010
0001
1000
0000
0010
0100
,  // measure 15
0001
0000
0000
0000
0000
0000
0000
0000
0000
1001
0000
0000
0000
0000
0000
0000
0000
0000
1000
0000
0000
0100
0000
0000
0010
0000
0000
0000
0001
0000
0000
0000
1000
0000
0000
0000
0010
0000
0000
0000
0100
0000
0000
0000
0010
0000
0000
0000
,  // measure 16
1000
0100
0010
0002
0000
1003
0010
0200
,  // measure 17
0000
0000
0310
0000
1000
0100
0010
0001
1000
0000
0100
0000
0010
0000
0100
0000
,  // measure 18
0001
0100
0010
0001
1000
0010
0100
1000
,  // measure 19
0100
0000
0010
0000
1000
0001
0010
0001
1000
0000
0010
0000
0100
0000
0001
0000
,  // measure 20
1000
0100
0001
0200
0000
0310
0001
2000
,  // measure 21
0000
0000
3010
0000
0100
0000
0020
0000
0000
0000
1030
0001
0010
0000
0100
0000
,  // measure 22
0001
0001
0100
0010
0001
1000
0010
0100
,  // measure 23
0001
0000
1000
0000
0100
0010
0100
1000
0001
0000
0100
0000
0010
0000
1000
0000
,  // measure 24
2001
0000
0000
0000
0010
0000
0000
3000
2000
0000
3010
0100
0001
1000
0100
1000
,  // measure 25
0001
0100
0010
1000
0002
0000
0000
0000
0023
0000
0130
0010
0001
1000
0010
0100
,  // measure 26
0002
0000
0000
0000
1000
0000
0000
0003
0001
1000
0100
1000
0001
0100
0010
1000
,  // measure 27
0002
0000
0023
0000
0230
0000
0310
0001
1000
0001
0100
0001
1000
0100
0010
0001
,  // measure 28
2000
0000
0000
0000
0010
0000
0000
3000
2000
0000
3100
1000
0001
0100
0010
1000
,  // measure 29
0001
0010
0001
1000
0020
0000
0230
0000
0302
0000
1003
0001
0010
0100
1000
0001
,  // measure 30
2000
0000
0000
0000
0001
0000
0000
3000
1000
0100
1000
0001
0100
0010
1000
0001
,  // measure 31
0010
0000
0110
0000
0100
1000
0001
0000
1000
0000
1010
0000
0001
1000
0100
0000
,  // measure 32
0012
0000
0000
0000
1000
0000
0000
0003
0002
0000
1003
0010
0100
0010
1000
0001
,  // measure 33
0010
0001
1000
0100
0020
0000
0000
0000
0230
0000
1300
0001
0100
0010
1000
0001
,  // measure 34
0020
0000
0000
0000
0100
0000
0000
0030
0010
0001
1000
0010
0100
0001
1000
0100
,  // measure 35
0020
0000
0032
0000
2003
0000
0000
3010
1000
0001
0010
0100
1000
0001
1000
0010
,  // measure 36
0200
0000
0000
0000
0001
0000
0000
0300
0200
0000
0301
1000
0100
0010
0001
1000
,  // measure 37
0001
0100
0010
1000
0002
0000
0000
0000
0023
0000
0130
1000
0001
0100
0010
1000
,  // measure 38
0001
0000
0001
0000
0010
0000
0100
0000
1000
0001
1000
0010
0100
0000
0001
0000
,  // measure 39
1000
0100
0010
0001
1000
0100
0010
0001
1000
0100
0010
0001
1000
0001
0100
0010
,  // measure 40
2000
0000
3100
0100
0100
0100
0002
0000
,  // measure 41
0103
0000
0100
0000
0100
0000
0100
0000
0100
0000
0100
0000
0010
0001
1000
0010
,  // measure 42
0200
0000
0310
1000
0001
0010
0100
1000
,  // measure 43
0001
0100
0010
1000
0001
0010
0100
0010
,  // measure 44
0001
0000
0000
0000
0000
0000
M000
0000
00M0
0000
0M00
0000
000M
0000
00M0
0000
0M00
0000
1001
0000
0000
0001
0000
0000
,  // measure 45
0100
0000
0020
0000
1000
0000
0130
0000
0001
0000
2000
0000
0000
0000
3010
1000
,  // measure 46
0001
0100
0010
1000
0001
0000
0010
0000
0100
0000
0010
0000
1000
0000
0010
0000
,  // measure 47
0100
1000
0001
0100
0010
0001
0010
0100
,  // measure 48
0001
1000
0100
1000
0001
0000
0100
0000
0010
0000
1000
0000
0001
0000
0010
0000
,  // measure 49
1000
0020
0100
0031
1000
0020
0000
0130
,  // measure 50
0001
0000
1000
0100
0010
0000
0001
1000
0010
0000
0100
0000
1000
0000
0100
0000
,  // measure 51
0001
0000
1000
0000
0100
0000
0010
0000
0001
0000
1000
0000
0010
1000
0001
0000
,  // measure 52
1000
0100
0010
0100
1000
0000
0001
0000
0100
0000
0010
0000
1010
0000
1000
0000
,  // measure 53
0001
0000
0020
0000
0000
0000
0130
1000
0001
0000
0100
0000
0010
0000
1000
0000
,  // measure 54
0001
0010
0100
1000
0001
0000
1000
0001
0100
0000
0010
0000
0100
0000
0001
0000
,  // measure 55
1000
0000
0200
0000
0000
0000
1300
0000
0001
0000
0010
0100
1000
0000
0001
0000
,  // measure 56
0100
0010
1000
0010
0100
0000
0001
1000
0100
0000
0010
0001
1000
0000
0001
0000
,  // measure 57
0100
0000
0020
0000
0000
0000
1030
0001
0010
0000
0200
0000
0000
0000
1300
0000
,  // measure 58
0100
1000
0001
0100
0010
0000
1000
0001
0010
0000
0100
0000
0010
0000
0001
0000
,  // measure 59
1000
0000
0020
0000
0000
0000
1030
0000
0001
0000
1000
0010
0100
0000
0001
0000
,  // measure 60
1000
0000
0000
0001
0000
0000
0010
0000
0000
0100
0000
0000
1000
0000
0000
0000
0001
0000
0000
0000
0100
0000
0000
0000
0010
0000
0000
0000
0100
0000
0000
0000
0001
0000
0000
0000
1002
0000
0000
0000
0000
0000
0000
0000
0000
0000
0000
0000
,  // measure 61
0000
0000
1003
0001
0100
0000
0000
1010
0000
0000
1000
0001
1000
0100
0020
0000
,  // measure 62
0000
0000
0000
0000
0000
0000
0031
0000
0000
1000
0000
0000
0010
0000
0000
0000
0000
0000
0100
0000
0000
0001
0000
0000
1000
0000
0000
0100
0000
0000
0010
0000
0000
0000
0000
0000
0001
0000
0000
0000
1000
0000
0000
0000
0000
0000
0000
0000
,  // measure 63
1010
0000
0010
0100
0010
0000
0101
0000
0001
1000
0001
0000
,  // measure 64
0011
0000
0010
0100
0010
0000
1100
0000
0100
0020
0000
0000
,  // measure 65
0000
0000
0031
1000
0010
0000
0000
0101
0000
0000
0001
1000
0010
0100
0020
0000
,  // measure 66
0000
0000
0000
0000
0000
0000
1030
0000
0000
0001
0000
0000
0010
0000
0000
0000
0000
0000
0001
0000
0000
1000
0000
0000
0010
0000
0000
0100
0000
0000
0010
0000
0000
0000
0000
0000
1000
0000
0000
0000
0001
0000
0000
0000
0000
0000
0000
0000
,  // measure 67
0011
0000
0010
0100
0010
0000
1100
0000
1000
0001
0100
0010
,  // measure 68
1000
0000
0000
0000
0001
0000
0000
0000
0010
0000
0000
0000
0100
0000
0000
0000
1000
0000
0000
0000
0001
0000
0000
0000
0200
0000
0000
0000
0000
0000
0000
0000
0000
0300
0000
0000
2001
0000
0000
0000
0000
0000
0000
0000
0000
0000
0000
0000
,  // measure 69
0001
0000
0000
3000
1000
0000
0001
1000
0010
0100
0001
1000
0100
0010
0100
1000
,  // measure 70
0002
0000
0000
0000
0203
0000
0310
1000
0001
1000
0100
0010
0002
0000
0000
0000
,  // measure 71
2003
0000
3020
0000
0130
0001
1000
0100
0010
0001
1000
0010
0200
0000
0320
0000
,  // measure 72
2030
0000
3001
0010
0100
1000
0001
0100
0020
0000
0130
0010
2000
0000
0000
0000
,  // measure 73
0001
0000
0000
3000
2000
0000
3100
0010
0001
1000
0001
0010
0001
1000
0010
0100
,  // measure 74
0002
0000
0023
0000
0230
0000
0310
0001
1000
0010
0100
0001
2000
0000
0000
0000
,  // measure 75
0010
0000
0000
3000
1000
0001
0010
0100
1000
0001
1000
0010
0100
0000
0000
0101
,  // measure 76
0000
0000
0000
0000
0000
0000
1000
0000
0000
0001
0000
0000
0010
0000
0000
0000
0001
0000
0000
0000
1000
0000
0000
0000
0010
0000
0000
0000
0100
0000
0000
0000
0010
0000
0000
0000
1000
0000
0000
0000
0000
0000
0001
0000
0000
0000
0000
0000
,  // measure 77
0010
0100
0010
0001
1000
0010
0100
0001
,  // measure 78
1000
0100
0010
0001
1000
0010
0100
0010
,  // measure 79
1000
0001
0010
0100
1000
0001
0100
0010
,  // measure 80
1000
0001
0010
0001
1000
0010
0100
0001
,  // measure 81
1000
0100
0010
0001
1000
0010
0100
0001
,  // measure 82
1000
0100
0010
0100
1000
0001
0100
0010
,  // measure 83
1000
0001
0010
0001
1000
0010
0100
0010
,  // measure 84
1000
0001
0010
0100
1000
0001
0000
0000
;

//---------------dance-single - ----------------
#NOTES:
     dance-single:
     :
     Hard:
     10:
     0.811489,0.859683,0.076190,0.617989,0.410582,589.000000,9.000000,73.000000,6.000000,0.000000,0.000000,0.811489,0.859683,0.076190,0.617989,0.410582,589.000000,9.000000,73.000000,6.000000,0.000000,0.000000:
0000
0000
0000
0000
,
0000
0000
0000
0000
,
0000
0000
0000
0000
,
0000
0000
0000
0000
,
0000
0000
0000
0000
,
0000
0000
0000
0000
,
0000
0000
0000
0000
,
0000
0000
0000
0000
,
1000
0100
0010
0100
1000
0001
0100
0010
,
0100
0001
1000
0100
0010
0001
1000
0001
,
0100
0010
1000
0001
0010
0100
1000
0001
,
0100
0001
1000
0100
0010
0001
1000
0010
,
0002
0000
0000
0000
0000
0000
0000
0000
0013
0000
0100
0010
0100
0000
0000
0000
,
0000
0000
0001
0000
1000
0000
0000
0000
0000
0000
0001
0010
0001
0000
1000
0000
,
1000
0000
0000
0000
0001
0000
0000
0000
0000
0000
0100
0000
0010
0000
1000
0100
,
1000
0000
0000
0000
0000
0000
0000
0000
0000
0010
0000
0000
0000
0000
0000
0000
0000
0000
0100
0000
0000
0010
0000
0000
1000
0000
0000
0000
0001
0000
0000
0000
1000
0000
0000
0000
0100
0000
0000
0000
0010
0000
0000
0000
0100
0000
0000
0000
,
1000
0010
0100
0002
0000
1003
0100
0020
,
0000
0130
1000
0010
1000
0100
0010
0100
,
0001
0100
0010
0001
1000
0010
0100
1000
,
0100
0010
1000
0100
1000
0001
0100
0010
,
1000
0100
0001
0200
0000
0310
0001
2000
,
0000
3010
0100
0002
0000
1003
0001
0010
,
1000
1000
0010
0100
1000
0010
0001
0020
,
0000
0130
0001
0010
1000
0010
0100
1000
,
2002
0000
0000
0000
0000
0000
0000
3003
2000
0000
3010
0100
0001
0000
1000
0000
,
0100
0000
0010
0000
0002
0000
0000
0000
2003
0000
3010
1000
0001
0000
0010
0000
,
2002
0000
0000
0000
0000
0000
0000
3003
0001
0000
0100
0000
0010
0000
1000
0001
,
0020
0000
0230
0000
2300
0000
0000
3001
0000
0000
0001
1000
0020
0000
1030
0001
,
0020
0000
0000
0000
0000
0000
0000
0000
0230
0000
1300
0001
0100
0000
0010
0000
,
1000
0000
0001
0000
0020
0000
0000
0000
0230
0000
1300
0001
0100
0000
0010
0000
,
2020
0000
0000
0000
0000
0000
0000
3030
0001
0000
1000
0000
0100
0000
0010
0001
,
1000
0000
0001
0000
0100
0010
1000
0000
0001
0000
0010
0000
0001
1000
0010
0000
,
0202
0000
0000
0000
0000
0000
0000
0303
0002
0000
1003
0010
0100
0000
0001
0000
,
0010
0000
0100
0000
2000
0000
0000
0000
3002
0000
1003
0001
0100
0000
0010
0000
,
2020
0000
0000
0000
0000
0000
0000
3030
1000
0000
0001
0000
0010
0000
0001
0100
,
0020
0000
2030
0000
3002
0000
0000
0013
0000
0000
0010
0001
2000
0000
3010
0100
,
0002
0000
0000
0000
0000
0000
0000
0000
2003
0000
3100
1000
0001
0000
1000
0000
,
0010
0000
0100
0000
0002
0000
0000
0000
0023
0000
0130
1000
0001
0000
1000
0000
,
0010
0010
0100
0010
0010
0010
0100
0010
,
1000
0100
0010
0001
1000
0100
0010
0001
1000
0100
0010
0001
1000
0001
0010
0100
,
2000
0000
3010
0010
0010
0010
0200
0000
,
0310
0010
0010
0010
0010
0010
0100
0001
,
0020
0000
0130
1000
0001
0010
0100
1000
,
0001
0010
0100
1000
0001
0010
0100
1000
,
0001
0000
0000
0000
0000
0000
000M
0000
0M00
0000
00M0
0000
M000
0000
000M
0000
0M00
0000
1001
0000
0000
0001
0000
0000
,
0100
0020
0000
0130
0001
2000
0000
3100
,
0010
0000
0001
1000
0001
0000
0100
0000
0010
0000
0100
0000
1000
0000
0100
0000
,
0010
1000
0001
0100
0010
0001
0010
0100
,
0001
0000
0100
0010
0100
0000
0001
0000
1000
0000
0100
0000
0010
0000
0100
0000
,
0001
0200
0000
0310
0100
2000
0000
3001
,
0010
0000
0100
1000
0001
0000
1000
0000
0010
0000
0100
0000
1000
0000
0100
0000
,
0001
0000
1000
0000
0100
0000
0010
0000
0001
0000
1000
0000
0010
1000
0001
0000
,
1000
0100
1000
0001
0100
0010
1010
1000
,
0001
0000
0020
0000
0000
0000
0130
1000
0001
0000
1000
0000
0010
0000
1000
0000
,
0001
0000
0010
0000
0001
0000
1000
0001
0100
0000
0010
0000
0100
0000
0001
0000
,
1000
0000
0200
0000
0000
0000
1300
0000
0001
0000
0010
0001
1000
0000
0010
0000
,
0100
0000
0001
0000
1000
0000
0100
0010
0100
0000
0010
0100
0010
0000
0001
0000
,
1000
0000
0020
0000
0000
0000
1030
0001
0010
0000
0200
0000
0000
0000
1300
0000
,
0001
0000
0100
0000
0010
0000
1000
0001
0010
0000
0100
0000
0010
0000
0001
0000
,
1000
0000
0020
0000
0000
0000
1030
0000
0001
0000
1000
0010
0100
0000
0001
0000
,
1000
0000
0000
0100
0000
0000
0010
0000
0001
0000
1000
0000
0010
0000
1000
0000
0001
0000
2000
0000
0000
0000
0000
0000
,
0000
0000
3001
1000
0100
0000
0000
0010
0000
0000
0100
0000
0000
0000
2000
0000
,
0000
0000
3001
1000
0010
0000
0000
0100
0000
0000
0100
0000
0001
1000
0000
0000
,
1000
0000
0000
0001
0010
0001
0000
0000
1000
0000
0000
0001
0100
0001
0000
0000
,
0010
0000
0000
0001
1000
0001
0000
0000
0100
0000
0000
0001
2000
0000
0000
0000
,
0000
0000
3001
1000
0100
0000
0000
0010
0000
0000
0001
0000
0000
0000
0020
0000
,
0000
0000
0031
1000
0010
0000
0000
0100
0000
0000
0100
0000
0001
1000
0000
0000
,
0001
0000
0000
0000
0000
0000
0000
0000
0000
1000
0000
0000
0100
0000
0000
1000
0000
0000
0000
0000
0000
0000
0000
0000
0010
0000
0000
0000
0000
0000
0000
0000
1000
0000
0000
0000
0100
0000
0000
0000
0010
0000
0000
0000
0001
0000
0000
0000
,
1000
0000
0000
0000
0100
0000
0000
0000
0010
0000
0000
0000
0001
0000
0000
0000
1000
0000
0000
0000
0100
0000
0000
0000
0020
0000
0000
0000
0000
0000
0000
0000
0000
0030
0000
0000
2002
0000
0000
0000
0000
0000
0000
0000
0000
0000
0000
0000
,
0000
0000
0000
3003
0001
0000
1000
0001
0010
0000
0100
0000
1000
0000
0001
0000
,
0200
0000
0000
0000
0320
0000
1030
0001
0010
0000
0100
0000
2000
0000
0000
0000
,
3002
0000
0000
0000
0103
0000
0001
0000
1000
0000
0100
0010
0002
0000
0023
0000
,
0230
0000
0000
1300
0000
0000
1000
0001
0200
0000
0310
1000
0002
0000
0000
0000
,
0000
0000
0000
0000
2003
0000
3100
0010
0001
0000
1000
0000
0010
0000
0100
0000
,
0002
0000
0023
0000
0230
0000
0310
0001
1000
0000
0001
0000
0202
0000
0000
0000
,
0000
0000
0000
0303
0100
0000
0001
0000
1000
0000
0100
0010
0001
0000
0000
1000
,
0000
0000
0000
0000
0000
0000
0010
0000
0000
0100
0000
0000
0001
0000
0000
0000
1000
0000
0000
0000
0100
0000
0000
0000
0010
0000
0000
0000
0001
0000
0000
0000
1000
0000
0000
0000
0100
0000
0000
0000
0000
0000
1000
0000
0000
0000
0000
0000
,
0010
0100
0010
1000
0001
0010
0001
1000
,
0001
0010
0100
1000
0001
0100
0010
0100
,
0001
1000
0100
0010
0001
1000
0010
0100
,
0001
1000
0100
1000
0001
0100
0010
1000
,
0001
0010
0100
1000
0001
0100
0010
1000
,
0001
0010
0100
0010
0001
1000
0010
0100
,
0001
1000
0100
1000
0001
0100
0010
0100
,
0001
1000
0100
0010
0001
1000
0000
0000
;

//---------------dance-single - ----------------
#NOTES:
     dance-single:
     :
     Medium:
     8:
     0.660317,0.680582,0.008466,0.660317,0.059259,467.000000,1.000000,78.000000,0.000000,0.000000,0.000000,0.660317,0.680582,0.008466,0.660317,0.059259,467.000000,1.000000,78.000000,0.000000,0.000000,0.000000:
0000
0000
0000
0000
,
0000
0000
0000
0000
,
0000
0000
0000
0000
,
0000
0000
0000
0000
,
0000
0000
0000
0000
,
0000
0000
0000
0000
,
0000
0000
0000
0000
,
0000
0000
0000
0000
,
1000
0001
0100
0010
0000
0100
0001
1000
,
0100
0010
0001
1000
0000
0001
0100
0010
,
0100
0001
1000
0100
0000
0010
0100
1000
,
0001
0100
0010
1000
0000
0001
0010
0100
,
2000
0000
0000
0000
3000
0001
1000
0010
,
0100
0001
1000
0100
0000
0010
0100
1000
,
0001
0100
0010
1000
0000
0100
0010
0001
,
1000
0000
0000
0000
0000
0000
0000
0000
0000
1000
0000
0000
0000
0000
0000
0000
0000
0000
0001
0000
0000
0000
0000
0000
2000
0000
0000
0000
0000
0000
0000
0000
0000
0000
0000
0000
0000
0000
0000
0000
0000
0000
0000
0000
3000
0000
0000
0000
,
1000
0100
0010
0002
0000
1003
0010
0200
,
0000
0310
2000
0000
3100
0010
0001
1000
,
0001
0100
0010
1000
0001
0010
0001
1000
,
0010
0100
0002
0000
0103
0001
0010
0100
,
1000
0010
1000
0200
0000
0310
0001
2000
,
0000
3100
0010
0002
0000
2003
3001
0100
,
0010
0010
0100
0010
1000
0001
0010
0200
,
0000
0310
0002
0000
1003
0010
0100
0001
,
2000
0000
0000
0000
3000
1000
0001
0000
,
0000
1000
0200
0000
0320
0130
1000
0001
,
0200
0000
0000
0000
0300
0100
0010
1000
,
0002
0000
0023
0000
0230
0000
0300
1000
0000
0000
1000
0000
0002
0000
1003
0000
,
0020
0000
0000
0000
0030
0010
1000
0000
,
0000
0001
0020
0000
0230
1300
0001
0100
,
0020
0000
0000
0000
0030
0010
1000
0001
,
0010
0100
0010
0100
1000
0001
1000
0001
,
0200
0000
0000
0000
0300
0100
0010
0000
,
0000
0100
0002
0000
2003
3001
0010
0100
,
2000
0000
0000
0000
3000
1000
0100
0010
,
0002
0203
0320
0030
0100
0001
2000
3100
,
0020
0000
0000
0000
0030
0010
0001
0000
,
0000
0010
0200
0000
2300
3001
1000
0001
,
0100
0010
1000
0001
1000
0010
0100
0001
,
0010
0100
0010
0100
0010
0100
0010
0100
,
2000
0000
3001
1000
0001
1000
0020
0000
,
1030
0001
1000
0001
1000
0001
0020
0000
,
0230
0000
1300
0100
0010
0001
1000
0100
,
0010
0001
1000
0100
0010
0001
1000
0100
,
0010
0000
0000
0000
0000
0000
0001
1000
,
0010
0200
0000
0310
1000
0002
0000
0013
,
0200
0000
0310
0001
1000
0010
0100
0001
,
1000
0100
0010
0001
1000
0010
0100
0010
,
2000
0000
3010
1000
0001
0010
0100
0010
,
0001
2000
0000
3010
0100
0002
0000
1003
,
0100
0020
0000
0032
0000
1003
0001
0100
,
0010
1000
0001
0010
0100
2000
0000
3001
,
1000
0010
0100
0001
1000
0100
1000
0010
,
1000
0200
0000
0310
0001
1000
0010
0100
,
0002
0000
1003
0001
0010
0100
0010
0001
,
1000
0020
0000
0130
0001
0100
0010
1000
,
0002
0000
1003
0100
0010
0001
1000
0001
,
0010
0200
0000
0310
0001
2000
0000
3001
,
0200
0000
0310
1000
0001
0010
0100
0010
,
0001
2000
0000
3001
0100
0010
1000
0001
,
2000
0000
3001
1000
0100
0010
0002
0000
,
0000
0000
1003
0000
0001
0000
0000
1000
0000
0000
1000
0000
0000
0000
0002
0000
,
0000
0000
1003
0000
0001
0000
0000
0100
0000
0000
0100
0000
0010
0000
0000
0000
,
1000
0000
0000
0100
0010
0000
0000
0000
0100
0000
0000
1000
0001
0000
0000
0000
,
0100
0000
0000
0010
1000
0000
0000
0000
0010
0000
0000
1000
0002
0000
0000
0000
,
0000
0000
0013
0000
0001
0000
0000
1000
0000
0000
1000
0000
0000
0000
0020
0000
,
0000
0000
0130
0000
0001
0000
0000
0010
0000
0000
0010
0000
0100
1000
0000
0000
,
1000
0000
0000
0001
0010
0000
0000
0000
0001
0000
0000
0000
0000
0000
0000
0000
,
0000
0000
0000
0000
0000
0000
0200
0000
0300
2002
0000
0000
,
0000
0000
0000
3003
0000
0000
0001
0000
0100
0000
0000
0000
0000
0000
0001
0000
,
2000
0000
3200
0310
0001
1000
0020
0000
,
0230
0000
0301
1000
0001
0010
0002
0203
,
0320
0000
0000
1030
0000
0000
1000
0000
0020
0000
0130
0000
0002
0000
0000
0000
,
0000
0000
0003
0001
0010
0000
0000
0100
,
2000
3002
0203
0310
1000
0001
2000
0000
,
0000
0000
0000
0000
3000
0000
1000
0000
0001
0000
1000
0000
0100
0000
0000
0010
,
0000
0000
0000
0001
0000
0000
2000
0000
0000
0000
0000
0000
0000
0000
0000
0000
3000
0000
1000
0000
0000
0001
0000
0000
,
0100
0010
0000
1000
0001
0010
0100
1000
,
0001
0100
0000
0010
0100
0001
1000
0100
,
0010
0001
0000
1000
0001
0100
0010
0100
,
0001
1000
0100
0010
0100
1000
0001
0100
,
0010
1000
0000
0001
1000
0100
0010
0001
,
1000
0010
0000
0100
0001
1000
0100
1000
,
0001
0100
0000
0010
1000
0010
0100
0010
,
1000
0001
0010
0100
1000
0001
0000
0000
;

//---------------dance-single - ----------------
#NOTES:
     dance-single:
     :
     Easy:
     4:
     0.305971,0.321905,0.076190,0.067725,0.000000,236.000000,9.000000,8.000000,0.000000,0.000000,0.000000,0.305971,0.321905,0.076190,0.067725,0.000000,236.000000,9.000000,8.000000,0.000000,0.000000,0.000000:
0000
0000
0000
0000
,
0000
0000
0000
0000
,
0000
0000
0000
0000
,
0000
0000
0000
0000
,
0000
0000
0000
0000
,
0000
0000
0000
0000
,
0000
0000
0000
0000
,
0000
0000
0000
0000
,
1000
0100
0010
0100
,
1000
0001
0100
0010
,
1000
0001
0010
0100
,
0010
0001
1000
0001
,
0100
0010
0100
0001
,
1000
0100
1000
0001
,
0100
0010
0100
0001
,
2000
0000
0000
0000
,
3001
0000
1000
0000
,
0100
0000
0010
0000
,
0001
0000
1000
0000
,
0001
0000
1000
0001
,
0100
0000
0010
0000
,
1000
0000
0001
0000
,
0010
0000
0100
0000
,
1000
0000
0001
0100
,
1010
0001
0000
1000
,
0000
0001
1000
0100
,
0010
0001
0000
1000
,
0001
0100
0010
1000
,
0010
0100
0000
0001
,
0000
1000
0100
0010
,
0001
1000
0000
0010
,
0100
0001
0100
0001
,
1000
0100
0010
0100
,
1000
0001
0100
0010
,
1000
0001
0010
0001
,
1000
0010
0100
0001
,
1000
0001
0010
0100
,
1000
0001
0100
0010
,
0100
0001
1000
0100
,
0010
0001
1000
0001
,
0100
0020
0000
2030
,
3020
0000
0000
0130
,
1001
1000
0100
0010
,
0001
1000
0100
0010
,
0001
0000
0000
1001
,
0000
1000
0000
0001
,
0000
0100
0000
0010
,
0000
0100
0000
0001
,
0000
1000
0000
0100
,
0000
0010
0000
0100
,
0000
1000
0000
0001
,
0000
0100
0000
0010
,
0000
0100
0000
0001
,
1000
0001
0010
0100
,
1000
0001
0100
0010
,
0100
0001
1000
0100
,
0010
0001
1000
0001
,
0100
0001
1000
0100
,
0010
0100
1000
0001
,
0100
0010
1000
0001
,
0010
0100
1000
2001
,
0000
3001
0000
0000
,
0000
1100
0000
0000
,
1001
0000
0000
0000
,
0000
0000
0000
1002
,
0000
1003
0000
0000
,
0000
0101
0000
0000
,
0000
0000
0000
0000
,
0000
0000
0000
0000
0000
0000
0000
0000
2000
0000
0000
3000
1001
0000
0000
0000
,
0001
0100
0010
0100
,
0001
1000
0100
0010
,
0001
1000
0001
0100
,
0001
0100
0010
1000
,
0001
0010
0100
1000
,
0001
0100
0010
0100
,
0001
1000
0100
2000
,
0000
0000
0000
3001
,
1000
0100
0010
0001
,
1000
0010
0100
0010
,
1000
0001
0010
0100
,
1000
0001
1000
0010
,
0100
0010
1000
0001
,
0010
0100
0010
0001
,
1000
0010
0100
0001
,
1000
0100
0010
0000
;
