#TITLE:Mach ma Bass;
#SUBTITLE:;
#ARTIST:Finger & Kadel;
#TITLETRANSLIT:;
#SUBTITLETRANSLIT:;
#ARTISTTRANSLIT:;
#GENRE:TECHNO;
#CREDIT:;
#BANNER:[round a] - mach ma bass.png;
#BACKGROUND:[Round A] - Mach Ma Bass-bg.png;
#LYRICSPATH:;
#CDTITLE:;
#MUSIC:[Round A] - Mach ma Bass.ogg;
#OFFSET:0.000000;
#SAMPLESTART:44.274998;
#SAMPLELENGTH:14.500000;
#SELECTABLE:YES;
#BPMS:0.000000=130.000000
,126.000000=65.000000
,150.000000=130.000000
;
#STOPS:60.000000=0.923077,
178.000000=0.923077,
208.000000=0.923000
;
#BGCHANGES:;
#KEYSOUNDS:;
#ATTACKS:;

//---------------dance-single - ----------------
#NOTES:
     dance-single:
     :
     Hard:
     10:
     0.625775,0.688660,0.141304,0.172705,0.749696,558.000000,540.000000,18.000000,22.000000,0.000000,0.000000,0.625775,0.688660,0.141304,0.172705,0.749696,558.000000,540.000000,18.000000,22.000000,0.000000,0.000000:
// measure 0
0000
0000
0000
0000
,  // measure 1
0000
0000
0000
0000
,  // measure 2
0000
0000
0000
0000
,  // measure 3
0000
0000
0000
0000
,  // measure 4
0100
0000
0000
0000
0100
0000
0000
0000
0100
0000
0000
0010
0000
0000
1000
0000
,  // measure 5
0001
0000
0000
0000
0001
0000
0000
0000
0001
0000
0000
1000
0000
0000
0100
0000
,  // measure 6
0010
0000
0000
0100
0000
0000
1000
0000
0001
0000
0000
0100
0000
0000
0010
0000
,  // measure 7
0100
0000
0000
0001
0000
0100
0001
0100
0001
1000
0001
1000
0100
0000
1000
0000
,  // measure 8
0001
0000
0001
1000
0100
0000
0100
1000
,  // measure 9
0100
0000
0010
0000
0100
0000
1000
0000
0001
0000
0000
0001
1000
0000
0001
0000
,  // measure 10
0100
0010
1000
0100
0010
0000
0010
0100
,  // measure 11
1000
0000
0010
0000
0100
0000
0010
0000
1000
0000
0000
1000
0010
0000
1000
0000
,  // measure 12
0001
0000
0001
1000
0100
0000
0100
1000
,  // measure 13
0001
0000
1000
0000
0100
0000
0010
0000
0100
0000
0000
0100
0010
0000
0001
0000
,  // measure 14
0100
0000
0010
0000
0100
0000
0001
0000
1000
0100
1000
0100
0010
0000
0210
0000
,  // measure 15
1300
0000
0000
0000
0100
0000
0100
0000
1000
0000
0000
1000
0100
1000
0001
1000
,  // measure 16
0000
0000
0001
1000
0001
0100
0010
0000
0000
0000
0010
0100
0001
0100
0001
1000
,  // measure 17
0000
0000
0000
0000
0000
0000
0001
0000
0000
1000
0000
0000
0100
0000
0000
0000
0010
0000
0000
0000
0001
0000
0000
0000
0000
0000
0000
0000
0000
0000
0000
0000
0000
0001
0000
0000
0010
0000
0000
0001
0000
0000
1000
0000
0000
0001
0000
0000
,  // measure 18
0000
0000
1000
0001
1000
0010
0100
0000
0000
0000
0100
0010
1000
0010
1000
0001
,  // measure 19
0000
0000
1000
0100
0020
0000
0000
0000
0130
0000
0000
0100
0010
0100
1000
0100
,  // measure 20
0000
0000
1000
0100
1000
0010
0100
0000
0000
0000
0100
0010
1000
0010
1000
0100
,  // measure 21
0000
0000
0000
0000
0000
0000
1000
0000
0000
0100
0000
0000
0010
0000
0000
0000
0100
0000
0000
0000
0010
0000
0000
0000
0011
0000
0000
0000
0000
0000
0000
0000
0000
0000
0000
0000
1100
0000
0000
0000
0000
0000
0000
0000
0000
0000
0000
0000
,  // measure 22
0011
0000
1100
0000
0021
0001
0100
0130
,  // measure 23
0012
0000
0010
0000
1000
0000
1003
0000
1001
0000
0001
1000
0010
1000
0001
1000
,  // measure 24
0001
0000
1000
0001
1000
0010
0100
0000
0110
0000
0100
0010
1000
0010
1000
0001
,  // measure 25
1000
0000
0000
0000
0000
0000
0001
0000
0000
1000
0000
0000
0100
0000
0000
0000
0010
0000
0000
0000
0001
0000
0000
0000
0010
0000
0000
0000
0000
0000
0010
0000
0000
0001
0000
0000
0100
0000
0000
0001
0000
0000
1000
0000
0000
0001
0000
0000
,  // measure 26
1000
0000
0001
1000
0001
0100
0010
0000
0110
0000
0010
0100
0001
0100
0001
1000
,  // measure 27
0001
0000
1000
0100
0020
0000
0000
0000
0130
0000
0010
0100
0010
0100
1000
0100
,  // measure 28
1000
0000
1000
0100
1000
0010
0100
0000
0110
0000
0100
0010
1000
0010
1000
0100
,  // measure 29
1000
0000
0000
0000
0000
0000
1000
0000
0000
0100
0000
0000
0010
0000
0000
0000
0100
0000
0000
0000
0010
0000
0000
0000
0001
0000
0000
0000
0000
0000
0010
0000
0000
0001
0000
0000
0000
0000
0000
0010
0000
0000
0001
0000
0000
1000
0000
0000
,  // measure 30
0000
0001
1000
0010
0000
1000
0010
0100
0010
0000
0000
0010
0100
0001
0100
0001
,  // measure 31
1000
0001
1000
0001
0020
0000
1000
0000
,  // measure 32
0100
0000
0000
0000
0000
0000
0000
0000
0031
0000
0000
0001
0010
0000
0001
0000
0200
0000
0000
0000
0000
0000
0000
0000
1000
0000
0000
0000
0000
0000
0000
0000
,  // measure 33
0010
0000
0000
0000
0000
0000
0000
0000
0301
0000
0000
0001
0100
0000
0001
0000
1000
0000
0000
0000
1000
0000
0100
0000
0010
0000
0000
0000
0000
0000
0100
0000
,  // measure 34
1000
0000
0001
0000
1000
0000
0010
0000
0100
0000
0000
0010
0100
0000
0010
0000
1000
0000
0001
0000
1000
0000
0100
0000
0010
0000
0000
0000
0000
0000
0100
0000
,  // measure 35
1000
0000
0001
0000
0100
0000
0010
0000
0100
0000
0000
0000
0000
0000
0000
0000
0020
0000
0000
0100
0000
0000
1000
0000
1030
0000
0000
0010
0000
0000
0000
0000
,  // measure 36
0000
0000
0010
0000
1000
0000
0100
0000
0020
0000
0000
0000
0100
0000
0000
0000
0032
0000
0000
0010
0000
0000
1000
0000
1003
0000
0000
0001
0000
0000
0000
0000
,  // measure 37
2000
0001
3020
1000
0130
0000
0100
0000
,  // measure 38
0100
0100
0100
0100
,  // measure 39
0100
0010
0100
0001
0010
0000
0010
0000
,  // measure 40
0010
0010
0010
0010
,  // measure 41
0010
0000
0000
0000
0000
0000
0001
0000
0000
0000
0000
0000
0010
0000
0000
0000
0000
0000
0100
0000
0000
0000
0000
0000
1000
0000
0000
0100
0000
0000
0010
0000
0000
0100
0000
0000
0020
0000
0000
0000
0001
0000
0000
0000
0031
0000
0000
0000
,  // measure 42
0010
0000
0000
0001
0000
0000
0100
0000
0000
0001
0000
0000
0200
0000
0000
0000
0010
0000
0000
0000
0310
0000
0000
0000
0100
0000
0000
0010
0000
0000
1000
0000
0000
0010
0000
0000
2000
0000
0000
0000
0100
0000
0000
0000
3100
0000
0000
0000
,  // measure 43
1000
0000
0000
0001
0000
0000
0010
0000
0000
0001
0000
0000
0020
0000
0000
0000
0100
0000
0000
0000
0130
0000
0000
0000
0010
0000
0000
0001
0000
0000
1000
0000
0000
0010
0000
0000
0200
0000
0000
0000
0010
0000
0000
0000
0310
0000
0000
0000
,  // measure 44
0100
0000
0000
0001
0000
0000
1000
0000
0000
0100
0000
0000
0020
0000
0000
0000
0100
0000
0000
0000
0130
0000
0000
0000
0010
0000
0000
0000
0000
0000
0000
0000
0000
0000
0000
0000
0100
0000
0000
0000
0000
0000
0100
0000
0000
0000
0000
0000
,  // measure 45
0010
0001
0100
0000
0001
0100
0010
0100
0010
0000
0100
0010
0000
0000
0010
0000
,  // measure 46
0000
0010
1000
0001
1000
0000
0001
0010
0100
0000
0010
0100
0000
0000
0100
0000
,  // measure 47
0000
0010
0100
0000
0010
0100
1000
0001
1000
0000
0001
1000
0000
0000
1000
0000
,  // measure 48
0000
1000
0010
0100
0010
0000
0100
0010
1000
0000
0001
0010
0200
0000
0000
0000
,  // measure 49
0310
0001
0100
0000
0001
0100
0010
0100
0010
0000
0100
0010
0000
0000
0010
0000
,  // measure 50
0000
0010
1000
0001
1000
0000
0001
0010
0100
0000
0010
0100
0000
0000
0100
0000
,  // measure 51
0110
1100
0110
1100
,  // measure 52
0110
0000
0000
0000
0012
0000
0000
0000
0013
0001
0100
0000
0001
0100
0010
0100
,  // measure 53
0010
0000
0100
0010
0100
0000
0010
0000
0100
0010
1000
0001
1000
0000
0001
0010
,  // measure 54
0100
0000
0010
0100
0010
0000
0100
0000
0100
0010
0100
0000
0010
0100
1000
0001
,  // measure 55
1000
0000
0001
1000
0001
0000
1000
0000
0001
1000
0010
0100
0010
0000
0100
0010
,  // measure 56
1000
0000
0001
0010
0200
0000
0010
0000
0310
0001
0100
0000
0001
0100
0010
0100
,  // measure 57
0010
0000
0100
0010
0100
0000
0010
0000
0100
0010
1000
0001
1000
0000
0001
0010
,  // measure 58
0100
0000
0010
0100
0010
0000
0100
0000
1000
0000
0010
1000
0000
0010
1000
0001
,  // measure 59
0000
1000
0001
0100
0000
0001
0100
0010
0100
0000
0000
0100
0010
1000
0010
1000
,  // measure 60
0001
1000
1200
0000
0310
0000
0000
0000
;

//---------------dance-single - ----------------
#NOTES:
     dance-single:
     :
     Medium:
     8:
     0.438491,0.451191,0.125603,0.141304,0.141304,391.000000,375.000000,16.000000,18.000000,1.000000,0.000000,0.438491,0.451191,0.125603,0.141304,0.141304,391.000000,375.000000,16.000000,18.000000,1.000000,0.000000:
0000
0000
0000
0000
,
0000
0000
0000
0000
,
0000
0000
0000
0000
,
0000
0000
0000
0000
,
0010
0000
0000
0000
0010
0000
0000
0000
0010
0000
0000
0100
0000
0000
0001
0000
,
1000
0000
0000
0000
1000
0000
0000
0000
1000
0000
0000
0001
0000
0000
0010
0000
,
0100
0000
0000
0010
0000
0000
0001
0000
1000
0000
0000
0010
0000
0000
0100
0000
,
0010
0000
0000
1000
0000
0000
0001
0000
2000
0000
0000
0000
3100
0000
1000
0000
,
0001
0000
0001
1000
0100
0000
0100
1000
,
0100
0000
0010
0000
0100
0000
1000
0000
0001
0000
0000
1000
0000
0000
0001
0000
,
0100
0010
1000
0100
0010
0000
0010
0100
,
1000
0000
0010
0000
0100
0000
0010
0000
1000
0000
0000
0010
0000
0000
1000
0000
,
0001
0000
0001
1000
0100
0000
0100
1000
,
0001
0000
1000
0000
0100
0000
0010
0000
0100
0000
0000
0010
0000
0000
0001
0000
,
0100
0010
0100
0001
0010
0010
0010
0012
,
0103
0000
0001
0001
1000
0000
0001
1000
,
0010
0000
1000
0010
0100
0000
0010
0100
,
1000
0000
0000
0100
0000
0000
0010
0000
0100
0000
0010
0000
0000
0000
0000
0000
0000
0000
1000
0000
0000
0001
0000
0000
,
0010
0000
0001
0010
0100
0000
0010
0100
,
0001
0100
0020
0000
0031
0000
1000
0001
,
0100
0000
0001
0100
0010
0000
0100
0010
,
0001
0000
0000
0010
0000
0000
0100
0000
0010
0000
0100
0000
0010
0000
0000
0000
0000
0000
0010
0000
0000
0000
0000
0000
,
0010
0000
0010
0000
0100
0010
1000
0100
,
0010
0100
1000
1000
0001
1000
0010
0100
,
1000
0100
0010
1000
0001
1000
0100
0010
,
1000
0000
0000
0010
0000
0000
0100
0000
0010
0000
0100
0000
0010
0000
0000
0001
0000
0000
0100
0000
0000
0010
0000
0000
,
0001
0010
0100
0001
0010
0100
0001
0100
,
0010
0001
0012
0000
1003
0001
0100
0010
,
0001
0010
0100
0001
1000
0001
0010
0100
,
0001
0000
0000
0100
0000
0000
0010
0000
0100
0000
0010
0000
0100
0000
0000
0110
0000
0000
0000
0000
0000
0011
0000
0000
,
0000
0000
0101
0000
0000
0000
0110
0000
0010
0000
0000
0100
0000
0000
0010
0000
,
0100
0001
1000
0001
1000
0000
0100
0000
,
0010
0000
0100
0010
0001
0000
1000
0000
,
0010
0000
0100
0010
1000
0100
0010
0000
,
0010
0100
1000
0001
0100
0010
0100
0000
,
0100
0000
0000
0000
0001
0000
0000
0000
1000
0000
0000
0000
0000
0000
0000
0000
0001
0000
0000
1000
0000
0000
0100
0000
0010
0000
0000
0100
0000
0000
0000
0000
,
0000
0000
0000
0000
0001
0000
0000
0000
0100
0000
0000
0000
1000
0000
0000
0000
0001
0000
0000
1000
0000
0000
0010
0000
0100
0000
0000
0010
0000
0000
0000
0000
,
0000
0001
0010
1000
0200
0000
0001
0000
,
0310
0100
0010
0001
,
0011
0101
0200
1000
,
0310
0100
0020
1000
,
2030
0000
0000
0100
0000
0000
3200
0000
0000
0310
0100
0010
,
0002
0000
0000
0103
0001
0100
0020
0000
0000
1030
0010
1000
,
0002
0000
0000
0013
0001
0010
0200
0000
0000
1300
0100
0010
,
0002
0000
0000
0000
0000
0000
0103
0000
0001
0000
1000
0000
0010
0000
0000
0000
0000
0000
1000
0000
0000
1000
0000
0000
,
0001
0100
0010
0000
0001
0010
0100
0100
,
0010
0100
0001
0000
1000
0001
0010
0010
,
0001
0000
0001
0010
0100
0010
0100
0100
,
1000
0010
0100
0010
1000
0001
2001
0000
,
3001
0010
0100
0000
0001
0100
0010
0010
,
0100
0010
0001
0000
1000
0001
0100
0100
,
0010
0010
0010
0010
,
0100
0000
0120
0000
1030
0010
0001
0010
,
1000
0010
0100
0100
0010
1000
0001
0010
,
1000
0010
0100
0100
1000
0010
0M10
0001
,
1000
0001
0100
0100
0010
0100
1000
0100
,
0010
0100
0210
0001
0301
0100
1000
0100
,
0001
0100
0010
0010
0100
0001
1000
0100
,
0001
0100
0010
0010
0100
0110
0000
1100
,
0000
0000
1010
0000
0000
0000
0110
0000
0100
0000
0000
0010
0000
0000
0100
0000
,
0001
1000
1002
0000
0013
0000
0000
0000
;

//---------------dance-single - ----------------
#NOTES:
     dance-single:
     :
     Easy:
     5:
     0.314009,0.427444,0.471013,0.682969,0.000000,280.000000,220.000000,60.000000,87.000000,0.000000,0.000000,0.314009,0.427444,0.471013,0.682969,0.000000,280.000000,220.000000,60.000000,87.000000,0.000000,0.000000:
0000
0000
0000
0000
,
0000
0000
0000
0000
,
0000
0000
0000
0000
,
0000
0000
0000
0000
,
0100
0100
0100
0100
,
0010
0010
0010
0010
,
1000
0100
0001
0010
,
1000
0100
0020
0000
,
0130
0010
0001
0011
,
0001
0100
1000
0100
,
0001
1000
0100
1100
,
1000
0010
0001
0010
,
0100
0001
0010
0011
,
0001
0100
1000
0100
,
0001
0000
0100
0000
0002
0100
0103
0001
,
0000
0000
1000
1000
1010
0000
0101
0000
,
1010
0101
0110
0101
,
0011
0120
0031
0011
,
1100
0011
0110
0011
,
0101
0000
0220
0330
0101
0000
1010
0000
,
0101
1010
0110
1010
,
1100
0210
1300
1000
,
1000
1000
0020
0000
,
0230
0000
0010
0010
0310
0200
0300
0002
,
0003
0020
0030
2000
3000
0002
0003
0200
,
0300
2000
3000
0020
0030
0002
0003
0200
,
0300
0002
0003
0020
0030
2000
3000
0200
,
0300
0020
0230
0000
0310
0200
0300
2000
,
3000
0020
0030
0002
0003
2000
3000
0200
,
0300
0002
0003
0020
0030
0012
0003
0201
,
0300
0120
0030
2010
3010
0000
0010
0000
,
1000
0001
1000
0001
2002
0000
0000
0000
,
0000
0000
3003
0000
,
0000
0000
0001
0001
,
1000
1000
0010
0010
,
0100
0100
0020
0030
,
0000
0200
0302
0003
,
0020
0032
2003
0001
,
3001
0001
0001
0001
,
0002
0100
0203
0010
,
0310
0010
0020
0100
,
0230
0302
0200
0003
,
0002
0300
2000
0003
,
0200
3000
0002
0300
,
0020
0000
0003
0000
1030
0000
0010
0010
,
1010
0110
0101
0011
,
0011
0110
0011
1010
,
1010
0110
1010
1001
,
1001
0000
0011
0000
0110
0000
0022
0033
,
0101
0110
1010
1100
,
1100
0110
1100
0101
,
0001
0001
0001
0001
,
0000
0000
0102
0000
1003
0002
0003
0020
,
0030
0200
0300
0002
0003
0200
0300
0020
,
0030
2000
3000
0020
0030
0200
0300
0002
,
0003
0200
0300
2000
3000
0020
0030
0200
,
0300
0002
0103
0200
0301
2000
3000
0200
,
0300
0020
0030
2000
3000
0002
0003
0200
,
0300
0020
0030
0002
0003
0012
0003
0201
,
0300
0120
0030
2010
3010
0000
0010
0000
,
1000
0001
2000
0000
3010
0000
0000
0000
;

//---------------dance-single - ----------------
#NOTES:
     dance-single:
     :
     Beginner:
     2:
     0.117753,0.142481,0.000000,0.157004,0.000000,105.000000,105.000000,0.000000,20.000000,0.000000,0.000000,0.117753,0.142481,0.000000,0.157004,0.000000,105.000000,105.000000,0.000000,20.000000,0.000000,0.000000:
0000
0000
0000
0000
,
0000
0000
0000
0000
,
0000
0000
0000
0000
,
0000
0000
0000
0000
,
1000
0000
0000
0000
,
0001
0000
0000
0000
,
0010
0000
0000
0000
,
0100
0000
0000
0000
,
1000
0000
1000
0000
,
0001
0000
0001
0000
,
0100
0000
0100
0000
,
0001
0000
0001
0000
,
1000
0000
1000
0000
,
0001
0000
0001
0000
,
0100
0000
0000
0000
0200
0000
0000
0300
,
0010
0000
0100
0000
,
0100
0000
0010
0000
,
0010
0000
1000
0000
,
1000
0000
0100
0000
,
0100
0000
0010
0000
,
0010
0000
0001
0000
,
0001
0000
0100
0000
,
0100
0000
0002
0000
,
2003
0000
3001
0000
,
0100
0000
0010
0000
,
1000
0000
0001
0000
,
1000
0000
0001
0000
,
0100
0000
0010
0000
,
0100
0000
0001
0000
,
0010
0000
0100
0000
,
0100
0000
1000
0000
,
1000
0000
0002
0000
,
0000
0000
0003
0000
,
0000
0000
1000
0000
,
0001
0000
1000
0000
,
0100
0100
0020
0030
,
0000
0002
2003
3000
,
0020
2030
3002
0000
,
0003
0000
0000
0000
,
0200
0000
0320
0000
,
0030
0000
0200
0000
,
0302
0000
2003
0000
,
3200
0000
0320
0000
,
0032
0000
2003
0000
,
3002
0000
1003
0000
,
0001
0000
0001
0000
,
0100
0000
0100
0000
,
0010
0000
0010
0000
,
1000
0000
1000
0000
,
0001
0000
0001
0000
,
0100
0000
0100
0000
,
0010
0000
0010
0000
,
0000
0000
0100
0000
,
0001
0000
1000
0000
,
0100
0000
0010
0000
,
0100
0000
1000
0000
,
0001
0000
1000
0000
,
0010
0000
0100
0000
,
0010
0000
1000
0000
,
1000
0000
0100
0000
,
0100
0000
0010
0000
;
