#VERSION:0.83;
#TITLE:Lifework;
#SUBTITLE:;
#ARTIST:ああああ;
#TITLETRANSLIT:;
#SUBTITLETRANSLIT:;
#ARTISTTRANSLIT:aaaa;
#GENRE:Life;
#ORIGIN:;
#CREDIT:;
#BANNER:[Round A] - Lifework.png;
#BACKGROUND:[Round A] - Lifework-bg.png;
#PREVIEWVID:;
#JACKET:[Round A] - Lifework-jacket.png;
#CDIMAGE:;
#DISCIMAGE:325065-abstract-wallpaper.jpg;
#LYRICSPATH:;
#CDTITLE:;
#MUSIC:[Round A] - Lifework.mp3;
#OFFSET:-0.112988;
#SAMPLESTART:118.750000;
#SAMPLELENGTH:10.786514;
#SELECTABLE:YES;
#BPMS:0.000=89.000,
16.000=178.000,
76.000=89.000,
78.000=178.000,
202.000=89.000,
204.000=178.000,
296.000=89.000,
298.000=178.000,
326.000=89.000,
328.000=178.000,
392.000=89.000;
#STOPS:;
#DELAYS:;
#WARPS:;
#TIMESIGNATURES:0.000=4=4;
#TICKCOUNTS:0.000=4;
#COMBOS:0.000=1;
#SPEEDS:0.000=1.000=0.000=0;
#SCROLLS:0.000=1.000;
#FAKES:;
#LABELS:0.000=Song Start;
#BGCHANGES:0.000=[Round A] - Lifework.mp4=1.000=0=0=1=====,
99999=-nosongbg-=1.000=0=0=0 // don't automatically add -songbackground-
;
#KEYSOUNDS:;
#ATTACKS:
;

//---------------dance-single - ----------------
#NOTEDATA:;
#CHARTNAME:;
#STEPSTYPE:dance-single;
#DESCRIPTION:;
#CHARTSTYLE:;
#DIFFICULTY:Medium;
#METER:9;
#RADARVALUES:0.567969,0.643440,0.088050,0.298014,0.253989,587.000000,574.000000,13.000000,44.000000,0.000000,0.000000,0.000000,0.000000,0.000000,0.567969,0.643440,0.088050,0.298014,0.253989,587.000000,574.000000,13.000000,44.000000,0.000000,0.000000,0.000000,0.000000,0.000000;
#CREDIT:;
#NOTES:
0000
0000
0000
0000
,
0000
0000
0000
0000
,
0000
0000
0000
0000
,
0000
0000
0000
0000
,
1010
0000
0001
0100
0001
0010
0100
0000
,
1000
0000
0010
0100
0001
1000
0100
0000
,
0010
0000
0100
1000
0001
0100
0010
0000
,
1000
0000
0001
0100
1000
0100
0001
0010
,
0100
0000
1000
0100
0010
0001
1000
0000
,
0001
0000
0010
0100
1000
0001
0100
0000
,
0010
0000
1000
0001
0100
0001
0010
0000
,
0100
0000
1000
0001
0000
0100
1000
0100
,
0101
0000
0010
1000
0001
0010
1000
0000
,
0110
0000
0001
0100
1000
0001
0010
0100
,
0110
0000
1000
0001
0100
1000
0100
0000
,
0110
0000
0001
1000
0100
0001
1000
0010
,
0110
0000
0001
0010
0100
1000
0010
0000
,
0101
0000
1000
0100
0001
0100
1000
0010
,
1010
0000
1000
0001
0100
1000
0100
0001
,
0020
0000
0000
0000
0000
0130
1001
0000
1000
0000
0100
0000
0020
0000
0000
0000
,
0031
0200
0000
1300
0200
0000
0310
2000
,
0000
3100
0020
0000
0031
1000
0020
0000
,
0130
0002
0000
0013
0200
0000
1300
0002
,
0000
0103
0020
0000
1030
0001
0020
0000
,
0130
2000
0000
3001
0200
0000
0310
2000
,
0000
3100
0020
0000
0031
0010
0200
0000
,
1300
0020
0000
0130
0002
0000
0013
2000
,
0000
3010
0001
1000
0001
0100
0020
0000
,
1030
0200
0000
0301
0200
0000
0310
0002
,
0000
0103
0020
0000
1030
0001
0020
0000
,
0130
2000
0000
3010
0200
0000
0301
2000
,
0000
3100
0020
0000
0031
1000
0020
0000
,
0130
0002
0000
1003
0200
0000
0310
0002
,
0000
0103
0020
0000
1030
0010
0200
0000
,
0301
0020
0000
0130
2000
0000
3010
0002
,
0000
0013
1000
0100
0010
0000
0001
0100
,
0010
0100
0001
0000
0010
0000
0100
1000
,
0001
0000
0100
0000
0010
0000
1000
0100
,
0010
0100
1000
0000
0010
1000
0001
0010
,
0100
1000
0010
0000
1000
0000
0001
0010
,
0100
0010
0001
0000
0100
0000
0010
1000
,
0001
0000
0010
0000
0001
0000
1000
0010
,
0100
0010
1000
0000
0001
0010
0100
1000
,
0000
1000
0010
1000
0100
0000
1000
0010
,
0100
0010
1000
0000
0100
0000
0010
0001
,
1000
0000
0010
0000
0100
0000
0001
0010
,
0100
0010
0001
0000
0100
0001
1000
0100
,
0010
0001
0100
0000
0001
0000
1000
0100
,
0010
0100
1000
0000
0010
0000
0100
0001
,
1000
0000
0100
0000
1000
0000
0001
0100
,
0010
0000
0100
0000
0001
0000
0000
0000
1000
0100
0010
0001
0000
0001
0010
0001
,
0100
0000
0000
0000
0010
0000
0000
1000
0000
0000
1000
0000
0001
0000
0000
0000
,
0010
0000
0000
0000
0100
0000
0000
1000
0000
0000
1000
0000
0001
0000
0000
0000
,
0010
0000
0000
0000
0001
0000
0000
0100
0000
0000
0100
0000
0010
0000
0000
0000
,
1000
0000
0000
0000
0100
0000
0000
0010
0000
0000
0010
0000
0001
0000
0010
0000
,
0100
0000
0000
0000
1000
0000
0000
0001
0000
0000
0001
0000
0100
0000
0000
0000
,
0010
0000
0000
0000
1000
0000
0000
0001
0000
0000
0001
0000
0010
0000
0000
0000
,
0100
0000
0000
0000
1000
0000
0000
0010
0000
0000
0010
0000
0100
0000
0000
0000
,
0001
0000
0000
0000
0010
0000
0000
0100
0000
0000
0100
0000
0010
0000
0001
0000
,
1000
0000
0000
0000
0010
0000
0000
1000
0000
0000
0100
0000
0001
0000
0000
0000
,
0100
0000
0000
0000
0010
0000
0000
0001
0000
0000
0100
0000
1000
0000
0000
0000
,
0100
0000
0000
0000
0001
0000
0000
0010
0000
0000
0100
0000
1000
0000
0000
0000
,
0010
0000
0000
0000
1000
0000
0000
0100
0000
0000
0010
0000
0001
0000
0000
0000
,
1000
0000
0000
0000
0010
0000
0000
0001
0000
0000
0010
0000
1000
0000
0000
0000
,
0001
0000
0000
0000
0010
0000
0000
1000
0000
0000
0010
0000
0001
0000
0000
0000
,
1000
0000
0000
0000
0100
0000
0000
0001
0000
0000
0100
0000
1000
0000
0000
0000
,
0001
0000
0000
0000
0100
0000
0000
1000
0000
0000
0100
0000
0001
0000
1000
0000
,
0100
0200
0000
0010
0010
0000
1000
1000
,
0000
0000
0301
0000
0100
0000
0010
0000
0001
0000
0100
0010
0100
0000
0010
0000
,
1000
2000
0000
0010
0010
0000
0100
0100
,
0000
0000
3001
0000
0100
0000
0001
0000
0010
0100
0010
0000
0001
0000
0000
0000
,
0100
0200
0000
0010
0010
0000
0001
0001
,
0000
0000
1300
0000
0100
0000
0010
0000
1000
0000
0100
0010
0100
0000
0010
0000
,
0001
0002
0000
0010
0010
0000
0100
0100
,
0000
0000
1003
0000
0100
0000
1000
0000
0010
0100
0010
0000
1000
0000
0000
0000
0001
0000
0000
0000
0000
0000
0001
0000
0010
0000
0000
0000
0000
0000
1000
0000
,
0000
0000
1000
0000
0010
0000
0000
0000
0001
0000
0000
0001
0100
0000
0000
0010
,
0000
0000
0010
0000
1000
0000
0000
0000
0100
0000
0000
0100
0010
0000
0000
1000
,
0000
0000
1000
0000
0010
0000
0000
0000
0001
0000
0000
0001
0100
0000
0000
1000
,
0000
0000
1000
0000
0000
0100
0000
0010
1000
0000
0000
1000
0100
0000
0000
0001
,
0000
0000
0001
0000
0100
0000
0000
0000
1000
0000
0000
1000
0010
0000
0000
0100
,
0000
0000
0100
0000
0001
0000
0000
0000
0010
0000
0000
0010
0100
0000
0000
0001
,
0000
0000
0000
0000
0001
0000
0000
0000
0100
0000
0000
0000
0000
0000
0000
0000
1000
0000
0010
0000
1000
0000
0010
0000
0100
0001
0100
0000
0001
0000
0000
0000
,
1000
0000
0000
0000
0001
0000
0000
0010
0000
0000
0100
0000
0001
0000
0000
0000
,
0100
0000
0000
0000
1000
0000
0000
0010
0000
0000
0100
0000
1000
0000
0000
0000
,
0100
0000
0000
0000
0001
0000
0000
0010
0000
0000
1000
0000
0001
0000
0000
0000
,
0100
0000
0000
0000
1000
0000
0000
0010
0000
0000
0001
0000
0000
1000
0000
0100
,
0010
0000
0000
0000
1000
0000
0000
0001
0000
0000
0010
0000
1000
0000
0000
0000
,
0001
0000
0000
0000
0100
0000
0000
1000
0000
0000
0010
0000
0001
0000
0000
0000
,
1000
0100
1000
0100
0001
0010
0001
0010
,
1000
0000
0010
0000
1000
0000
0010
0000
0001
0000
0000
0100
0000
0000
0010
1000
,
0010
0000
1000
0000
0001
0000
0000
0011
0000
0000
0010
0000
0100
0000
1000
0000
,
0001
0000
0100
0000
1000
0000
0000
1100
0000
0000
0100
0000
0001
0000
0010
0000
,
0100
0000
1000
0000
0001
0000
0000
0101
0000
0000
0001
0000
1000
0000
0100
0000
,
0001
0000
0100
0000
1000
0000
0000
1010
0000
0000
0010
0000
0100
0001
0000
0100
,
0001
0000
0010
0000
0000
0100
0000
0000
1000
0000
0001
0000
0000
0010
0000
0000
,
0001
0000
0000
0001
0000
0000
1000
0000
0000
1000
0000
0000
0000
0000
0010
0000
,
1000
0001
1000
0000
0000
0001
0000
0010
0000
0000
0100
0000
0000
0100
0000
0000
,
1000
0000
0000
1000
0000
0000
0010
0000
0000
0010
0000
0000
1000
0001
1000
0000
,
0002
0000
0000
0000
,
0000
0000
0000
0000
,
0003
0000
0000
0000
;

//---------------dance-single - ----------------
#NOTEDATA:;
#CHARTNAME:;
#STEPSTYPE:dance-single;
#DESCRIPTION:;
#CHARTSTYLE:;
#DIFFICULTY:Hard;
#METER:10;
#RADARVALUES:0.770192,0.846631,0.433475,0.162553,0.714557,796.000000,732.000000,64.000000,24.000000,0.000000,0.000000,0.000000,0.000000,0.000000,0.770192,0.846631,0.433475,0.162553,0.714557,796.000000,732.000000,64.000000,24.000000,0.000000,0.000000,0.000000,0.000000,0.000000;
#CREDIT:;
#NOTES:
0000
0000
0000
0000
,
0000
0000
0000
0000
,
0000
0000
0000
0000
,
0000
0000
0000
0000
,
0110
0000
0000
0000
1000
0000
0001
0100
0001
0000
0010
0000
0100
0000
0000
0000
,
0010
0000
0000
0000
0001
0000
0100
0001
0100
0000
0010
0000
1000
0000
0000
0000
,
0100
0000
0000
0000
1000
0000
0100
0010
0100
0000
1000
0000
0001
0000
0000
0000
,
0100
0000
0000
0000
0010
0000
1000
0001
1000
0000
0001
0000
0010
0000
0000
0000
,
0100
0000
0000
0000
0010
0000
0001
0100
0001
0000
1000
0000
0010
0000
0000
0000
,
0100
0000
0000
0000
0001
0000
0010
0100
0010
0000
1000
0000
0010
0000
0000
0000
,
0001
0000
0000
0000
0100
0000
1000
0100
1000
0000
0100
0000
0001
0000
0000
0000
,
0010
0000
0000
0000
0100
0000
1000
0000
0000
0001
0100
0000
0010
0000
1000
0001
,
0010
0000
0000
0000
0100
0000
0010
0001
1000
0000
0001
0000
0100
0000
0000
0000
,
1010
0000
0000
0000
0001
0000
1000
0100
0010
0000
0100
0000
1000
0000
0010
0000
,
0110
0000
0000
0000
1000
0000
0001
0010
0100
0000
1000
0000
0010
0000
0000
0000
,
0101
0000
0000
0000
1000
0000
0001
0100
0010
0000
0100
0000
0001
0000
0010
0000
,
0110
0000
0000
0000
0001
0000
0010
0100
1000
0000
0010
0000
0100
0000
0000
0000
,
1010
0000
0000
0000
0001
0000
1000
0100
0010
0000
0100
0000
1000
0000
0010
0000
,
0110
0000
0000
0000
1000
0000
0001
1000
0100
0000
0010
0000
0001
0000
0010
0000
,
0002
1000
0000
0010
0000
0103
1001
0000
0001
0100
0010
0000
0100
0000
0010
1000
,
0000
0010
1000
0000
0100
0000
0000
0000
0010
0001
1000
0000
0100
0000
0010
0100
,
0000
0010
0100
0000
1000
0000
0000
0000
0001
1000
0010
0000
0100
0000
0001
0100
,
0000
0001
0100
0000
0010
0000
0000
0000
0100
0001
0010
0000
0100
0000
1000
0010
,
0000
1000
0010
0000
0100
0000
0000
0000
0001
1000
0100
0000
0010
0000
0100
0010
,
0000
0100
0010
0000
0001
0000
0000
0000
1000
0001
0100
0000
0010
0000
1000
0010
,
0000
1000
0010
0000
0100
0000
0000
0000
0001
0010
0100
0000
0010
0000
0001
0100
,
0000
0001
0100
0000
0010
0000
0000
0000
1000
0100
0010
0000
0100
0000
1000
0001
,
0000
1000
0001
0010
0100
0000
0010
0100
1000
0001
0100
0000
0010
0000
1000
0100
,
0000
1000
0001
0000
0010
0000
0000
0000
0100
0010
0001
0000
1000
0000
0001
0010
,
0000
0100
1000
0000
0010
0000
0000
0000
0100
0001
1000
0000
0010
0000
0100
0001
,
0000
1000
0100
0000
0010
0000
0000
0000
0100
1000
0001
0000
0100
0000
0010
1000
,
0000
0001
0010
0000
0100
0000
0000
0000
1000
0100
0010
0000
0001
0000
1000
0010
,
0000
0100
0010
0000
1000
0000
0000
0000
0001
1000
0100
0000
0010
0000
0001
0100
,
0000
0010
0100
0000
0001
0000
0000
0000
0010
0100
1000
0000
0001
0000
0100
0010
,
0000
1000
0001
0000
0010
0000
0000
0000
0001
1000
0100
0000
0010
0000
0001
0100
,
0000
0001
1000
0100
0010
0000
0010
0100
1000
0000
0000
0000
0001
0000
0100
0000
,
1000
0000
0100
0000
0001
0000
0000
0000
1000
0000
0100
1000
0100
0000
0010
0000
,
0001
0100
0010
1000
0001
0000
1000
0100
,
0001
0000
0100
0000
1000
0000
0000
0000
0001
1000
0100
1000
0000
0001
1000
0010
,
0000
1000
0100
0010
0000
0000
0001
0000
1000
0000
0000
0000
0010
0000
0001
0000
,
0010
0000
1000
0000
0010
0000
0000
0000
0100
0000
0001
1000
0001
0000
0010
0000
,
0100
1000
0001
1000
0010
0000
0100
0001
,
0100
0000
1000
0000
0100
0000
0000
0000
0001
0010
0100
0010
0000
0001
1000
0010
,
0000
0100
0001
1000
0000
0000
0010
0100
0001
0000
0000
0000
1000
0000
0100
0000
,
0001
0000
0100
0000
1000
0000
0000
0000
0001
0000
0100
0001
0100
0000
0010
0000
,
1000
0100
0010
0001
1000
0000
0001
0100
,
1000
0000
0100
0000
0001
0000
0000
0000
1000
0001
0100
0001
0000
1000
0001
0010
,
0000
0001
0100
0010
0000
0000
1000
0000
0001
0000
0000
0000
0010
0000
1000
0000
,
0010
0000
0001
0000
0010
0000
0000
0000
0100
0000
1000
0001
1000
0000
0010
0000
,
0100
0001
1000
0001
0010
0000
0100
1000
,
0100
0000
0000
0000
0001
0000
0000
0000
0100
0000
0000
0000
0000
0000
0000
0000
1000
0001
0100
0001
0000
0100
0010
1000
0000
0001
0010
0100
0000
0000
1000
0000
,
0010
0000
0000
0000
0101
0000
0000
0010
0000
0000
0010
0000
1001
0000
0000
0000
,
0010
0000
0000
0000
1100
0000
0000
0010
0000
0000
0010
0000
1001
0000
0000
0000
,
0100
0000
0000
0000
1010
0000
0000
0100
0000
0000
0100
0000
1001
0000
0000
0000
,
0100
0000
0000
0000
0011
0000
0000
0100
0000
0000
0100
0000
1001
0000
0000
0000
,
0010
0000
0000
0000
0101
0000
0000
0010
0000
0000
0010
0000
1001
0000
0000
0000
,
0010
0000
0000
0000
1100
0000
0000
0010
0000
0000
0010
0000
1001
0000
0000
0000
,
0100
0000
0000
0000
1010
0000
0000
0100
0000
0000
0100
0000
1001
0000
0000
0000
,
0100
0000
0000
0000
0011
0000
0000
0100
0000
0000
1000
0100
0010
0000
0100
0010
,
0001
0000
0000
0000
1010
0000
0000
0100
0000
0000
0100
0000
1001
0000
0000
0000
,
0100
0000
0000
0000
0011
0000
0000
0100
0000
0000
0100
0000
1001
0000
0000
0000
,
0010
0000
0000
0000
0101
0000
0000
0010
0000
0000
0010
0000
1001
0000
0000
0000
,
0010
0000
0000
0000
1100
0000
0000
0010
0000
0000
0010
0000
1001
0000
0000
0000
,
0100
0000
0000
0000
1010
0000
0000
0100
0000
0000
0100
0000
1001
0000
0000
0000
,
0100
0000
0000
0000
0011
0000
0000
0100
0000
0000
0100
0000
1001
0000
0000
0000
,
0010
0000
0000
0000
0101
0000
0000
0010
0000
0000
0010
0000
1001
0000
0000
0000
,
0010
0000
0000
0000
1100
0000
0000
0010
0000
0000
0001
0010
0100
0000
0010
0100
,
1000
0000
0001
0000
0100
0000
1000
0000
0000
0000
0100
0000
0001
0000
1000
0100
,
0010
0000
0001
0000
1000
0000
0001
0100
0010
0000
1000
0000
0001
0000
0010
0000
,
0000
0000
0100
0000
1000
0000
0010
0000
0000
0000
0100
0001
0100
0000
0010
0000
,
1000
0100
0001
0100
0000
0010
0001
1000
,
0010
0000
0000
0000
1000
0000
0100
0000
0000
0000
0010
0000
0001
0000
1000
0010
,
0001
0000
0010
0000
1000
0000
0001
0010
1000
0000
0001
0000
0100
0000
1000
0000
,
0000
0000
0001
0000
0100
0000
1000
0000
0000
0000
0100
0010
0100
0000
0001
0000
,
0010
1000
0001
0100
0000
1000
0100
0010
0011
0000
0000
0001
0100
0000
0000
1010
,
0000
0000
1010
0000
0001
0000
0000
0000
0101
0000
0000
1000
0100
0000
0000
0110
,
0000
0000
0110
0000
1000
0000
0000
0000
1100
0000
0000
0001
0100
0000
0000
0110
,
0000
0000
0110
0000
0001
0000
0000
0000
0011
0000
0000
0010
0100
0000
0000
1100
,
0000
0000
1100
0000
0001
0100
0000
0100
0010
0000
0000
1000
0001
0000
0000
0011
,
0000
0000
0110
0000
1000
0000
0000
0000
1001
0000
0000
1000
0010
0000
0000
0101
,
0000
0000
0011
0000
0100
0000
0000
0000
1100
0000
0000
0100
0010
0000
0000
1100
,
0000
0000
0000
0000
0101
0000
0000
0000
0010
0000
0000
0000
0000
0000
0000
0000
1000
0000
0010
0000
0010
0000
0100
0000
0001
0100
0001
0000
1000
0000
0000
0000
,
0020
0000
1000
0000
0000
2030
0000
0000
3100
0000
0020
0000
0000
0031
0000
0000
,
0200
0000
0000
0302
0000
0000
0023
0000
0000
0230
0000
0000
0300
0000
1000
0000
,
0001
1000
0001
0000
0000
0200
0000
0320
0000
0000
2030
0000
0000
3200
0000
0000
,
0320
0000
0000
0032
0000
0000
0203
0000
0000
0320
0000
0000
1030
0001
1000
0000
,
0001
0010
0200
0000
0000
2300
0000
0000
3020
0000
0230
0000
0000
0302
0000
0000
,
1000
0000
0000
2003
0000
0000
0010
0000
0000
3020
0000
0000
0030
0000
1000
0000
,
0001
0001
0010
0010
0100
0100
1000
1000
,
1010
0000
1010
0000
0101
0000
0101
0000
0011
0000
0000
0110
0000
0000
1000
0001
,
1000
0000
0010
0000
1000
0100
0000
0100
0010
0000
0001
0000
1000
0010
0000
0010
,
0001
0000
0010
0100
0000
0001
1000
0000
0100
0010
0000
0001
1000
0000
0001
0000
,
1000
0010
0001
0000
0010
0100
0000
1000
0000
0100
0001
0000
1000
0100
0000
0001
,
0100
0000
1000
0100
0000
0100
0010
0000
0010
0001
0000
1000
0001
1000
0001
0000
,
1000
0001
0100
0000
0010
1000
0000
0001
0010
0000
0001
0000
0100
0010
0000
1000
,
0001
0000
0010
0001
0000
0001
0100
0000
0100
0010
0000
1000
0100
0000
0010
0000
,
0001
0010
1000
0000
0010
0001
0000
0100
0000
0010
1000
0000
0001
0100
0000
0010
,
1000
0000
0100
0010
0000
0010
0001
0000
0001
0100
0000
0100
0001
1000
0001
0000
,
2000
0000
0000
0000
,
0000
0000
0000
0000
,
3000
0000
0000
0000
;

//---------------dance-single - ----------------
#NOTEDATA:;
#CHARTNAME:;
#STEPSTYPE:dance-single;
#DESCRIPTION:;
#CHARTSTYLE:;
#DIFFICULTY:Easy;
#METER:5;
#RADARVALUES:0.303820,0.406383,0.027092,0.033865,0.000000,314.000000,310.000000,4.000000,5.000000,0.000000,0.000000,0.000000,0.000000,0.000000,0.303820,0.406383,0.027092,0.033865,0.000000,314.000000,310.000000,4.000000,5.000000,0.000000,0.000000,0.000000,0.000000,0.000000;
#CREDIT:;
#NOTES:
0000
0000
0000
0000
,
0000
0000
0000
0000
,
0000
0000
0000
0000
,
0000
0000
0000
0000
,
1000
0001
0000
0010
,
0001
1000
0000
0010
,
1000
0100
0000
1000
,
0001
0010
0100
1000
,
0001
0100
0000
0010
,
1000
0001
0000
0010
,
0001
0100
0000
0010
,
1000
0001
0010
0100
,
1000
0001
0000
0010
,
0100
0010
0000
0001
,
0100
0010
0000
1000
,
0100
1000
0001
0010
,
0001
1000
0000
0010
,
1000
0001
0000
0010
,
0001
0100
0000
0010
,
2000
0000
0000
3001
1000
0000
0100
0000
,
0000
1000
0000
0000
0010
0000
0000
1000
,
0000
0100
0010
0001
,
0000
0100
0000
0000
0010
0000
0000
0100
,
0000
0001
0000
1000
,
0000
0100
0000
0000
0010
0000
0000
0001
,
0000
1000
0001
0100
,
0000
0010
0000
0000
1000
0000
0000
0001
,
0000
1001
0001
0010
,
0000
0001
0000
0000
0100
0000
0000
0001
,
0000
0010
0100
1000
,
0000
0010
0000
0000
0100
0000
0000
0010
,
0000
1000
0000
0001
,
0000
0010
0000
0000
0100
0000
0000
1000
,
0000
0001
1000
0010
,
0000
0100
0000
0000
0001
0000
0000
1000
,
0000
1001
0001
1000
,
0100
0000
0010
0010
,
0010
0000
0001
0100
,
0010
0000
1000
1000
,
0001
0001
1000
0010
,
0100
0000
0001
0001
,
0001
0000
0010
0001
,
1000
0000
0010
0010
,
0100
0010
0110
0010
,
1000
0000
0100
0100
,
0100
0000
1000
0010
,
0100
0000
0001
0001
,
1000
1000
0001
0100
,
0010
0000
1000
1000
,
1000
0000
0100
1000
,
0001
0000
0000
0000
0200
0000
0000
0301
,
0001
0000
0010
0000
0000
0100
0000
0000
,
1000
0000
0000
0010
0000
0000
0100
0000
,
0100
0000
0010
0000
0000
0100
0000
0000
,
0001
0000
0000
0010
0000
0000
0100
0000
,
1000
0000
1000
0000
0000
0001
0000
0000
,
0100
0000
0000
0001
0000
0000
1000
0000
,
1000
0000
0001
0000
0000
1000
0000
0000
,
0100
0000
0000
0010
0000
0000
0001
0000
,
1000
0000
0010
0000
0000
0100
0000
0000
,
0001
0000
0000
0010
0000
0000
0100
0000
,
0100
0000
0010
0000
0000
0100
0000
0000
,
1000
0000
0000
0010
0000
0000
0100
0000
,
0001
0000
0001
0000
0000
1000
0000
0000
,
0100
0000
0000
1000
0000
0000
0001
0000
,
0001
0000
1000
0000
0000
0001
0000
0000
,
0010
0000
0000
0100
0000
0000
1000
0000
,
0001
1000
0000
0100
,
0010
0001
0010
0100
,
0000
1000
0000
0001
,
0100
0010
0100
0001
,
0000
1000
0000
0001
,
0010
0100
0010
0100
,
0000
1000
0000
0001
,
0200
0000
0000
0301
0001
0000
1000
0000
,
0000
0100
1000
0000
0001
0000
0010
0000
,
0000
0001
0010
0000
0100
0000
1000
0000
,
0000
0100
1000
0000
0001
0000
0100
0000
,
0000
0001
0100
0000
0100
0000
0010
0000
,
0000
1000
0010
0000
0100
0000
0001
0000
,
0000
0100
0001
0000
0010
0000
0001
0000
,
0000
0010
0001
0000
2000
0000
0000
3001
,
1000
0100
1000
0010
,
0100
0100
0001
0001
,
0010
0100
0010
0001
,
0100
0010
1000
0000
,
0001
0100
0001
0010
,
0100
0100
1000
1000
,
0010
1000
0100
0010
,
0001
1000
0001
1000
0001
0000
1001
0000
,
1000
0001
0100
0001
,
0010
0010
0100
0100
,
0010
0001
0100
0001
,
1000
0010
0100
0000
,
0001
0000
0000
0001
0000
0000
1000
0000
,
0000
1000
0000
0000
0001
0000
1000
0000
,
0001
0010
0100
1000
,
0001
0100
0010
1000
,
0002
0000
0000
0000
,
0000
0000
0000
0000
,
0003
0000
0000
0000
;
