#VERSION:0.83;
#TITLE:LEI;
#SUBTITLE:;
#ARTIST:Akitaka Tohyama;
#TITLETRANSLIT:;
#SUBTITLETRANSLIT:;
#ARTISTTRANSLIT:;
#GENRE:;
#ORIGIN:;
#CREDIT:;
#BANNER:LEI.png;
#BACKGROUND:LEI-bg.png;
#PREVIEWVID:;
#JACKET:LEI-jacket.png;
#CDIMAGE:;
#DISCIMAGE:;
#LYRICSPATH:;
#CDTITLE:;
#MUSIC:LEI.ogg;
#OFFSET:0.000000;
#SAMPLESTART:17.254999;
#SAMPLELENGTH:16.400000;
#SELECTABLE:YES;
#BPMS:0.000=125.000;
#STOPS:28.000=1.440;
#DELAYS:;
#WARPS:;
#TIMESIGNATURES:0.000=4=4;
#TICKCOUNTS:0.000=4;
#COMBOS:0.000=1;
#SPEEDS:0.000=1.000=0.000=0;
#SCROLLS:0.000=1.000;
#FAKES:;
#LABELS:0.000=Song Start;
#BGCHANGES:;
#KEYSOUNDS:;
#ATTACKS:
;

//---------------dance-single - ----------------
#NOTEDATA:;
#CHARTNAME:;
#STEPSTYPE:dance-single;
#DESCRIPTION:;
#CHARTSTYLE:;
#DIFFICULTY:Easy;
#METER:4;
#RADARVALUES:0.304911,0.320284,0.296157,0.265520,0.000000,209.000000,180.000000,29.000000,26.000000,0.000000,0.000000,0.000000,0.000000,0.000000,0.304911,0.320284,0.296157,0.265520,0.000000,209.000000,180.000000,29.000000,26.000000,0.000000,0.000000,0.000000,0.000000,0.000000;
#CREDIT:;
#NOTES:
1000
0100
0010
0001
,
1010
0000
0101
0000
,
0001
0010
0100
1000
,
0011
0000
1100
0020
,
1030
0010
0100
0001
,
1100
0001
1100
0001
,
1100
0010
0100
0001
,
0110
1000
0110
0001
,
1001
0100
0110
0001
,
0100
0010
1000
0001
,
0100
0010
1001
0100
,
0010
0100
0001
0100
,
0010
1000
1001
0100
,
0010
1000
0010
0100
,
0010
1000
1001
0100
,
0010
0001
0010
1000
,
0010
0100
1001
0010
,
1000
0001
0100
0010
,
1000
0010
0110
1000
,
0100
1000
0100
1000
,
0010
0100
1001
0001
,
1000
0010
0100
0001
,
1000
0001
1010
0001
,
1000
0010
2000
0000
,
0000
3001
0100
0010
,
1001
0120
2030
3002
,
2003
3020
0130
0001
,
0010
0001
1001
0020
,
0230
1300
0001
2000
,
3020
1030
1001
0100
,
0010
2000
3100
0010
,
0100
1000
0110
0002
,
0103
0010
1000
0001
,
2000
3010
1001
0100
,
0002
0023
0130
0001
,
1000
0010
1001
0200
,
0310
1000
0001
0100
,
0020
1030
0110
0001
,
2000
3200
0310
0200
,
2300
3001
1001
0010
,
0100
1000
0001
1000
,
0020
0130
1001
0100
,
0001
1000
0010
0001
,
0010
0100
1001
0010
,
0001
0010
2000
0000
,
0000
3001
0000
0000
,
0000
1000
0001
0200
,
0000
0302
0000
0000
,
0000
1003
0000
0000
;

//---------------dance-single - ----------------
#NOTEDATA:;
#CHARTNAME:;
#STEPSTYPE:dance-single;
#DESCRIPTION:;
#CHARTSTYLE:;
#DIFFICULTY:Medium;
#METER:6;
#RADARVALUES:0.488732,0.468107,0.214459,0.081699,0.000000,335.000000,314.000000,21.000000,8.000000,0.000000,0.000000,0.000000,0.000000,0.000000,0.488732,0.468107,0.214459,0.081699,0.000000,335.000000,314.000000,21.000000,8.000000,0.000000,0.000000,0.000000,0.000000,0.000000;
#CREDIT:;
#NOTES:
1000
0010
1000
0000
0001
0000
1000
0000
,
0020
0100
0000
0100
,
1000
0000
0030
0000
0000
0000
0000
0000
0000
0000
0000
0000
0000
0000
0000
0000
0000
0000
0000
0000
0000
0000
0000
0000
0001
0000
0000
0000
0000
0000
0000
0000
0000
0000
0000
0000
0000
0000
0000
0000
0000
0000
0000
0000
0000
0000
0000
0000
1000
0000
0000
0000
0000
0000
0000
0000
0000
0000
0000
0000
0000
0000
0000
0000
0000
0000
0000
0000
0000
0000
0000
0000
0000
0000
0000
0000
0000
0000
0000
0000
0000
0000
0000
0000
0000
0000
0000
0000
0000
0000
0000
0000
0000
0000
0000
0000
0001
0000
0000
0000
0000
0000
0000
0000
0000
0000
0000
0000
0000
0000
0000
0000
0000
0000
0000
0000
0000
0000
0000
0000
0000
0000
0000
0000
0000
0000
0000
0000
0000
0000
0000
0000
0000
0000
0000
0000
0000
0000
0000
0000
0000
0000
0000
0000
0100
0000
0000
0000
0000
0000
0000
0000
0000
0000
0000
0000
0000
0000
0000
0000
0000
0000
0000
0000
0000
0000
0000
0000
0000
0000
0000
0000
0000
0000
0000
0000
0000
0000
0000
0000
0000
0000
0000
0000
0000
0000
0000
0000
0000
0000
0000
0000
,
0002
0100
0000
2003
,
3010
0100
0010
0000
1000
0001
1000
0000
,
0020
1000
0100
1030
,
0001
1000
0001
0000
1000
0010
1000
0000
,
1002
0003
0000
0000
0000
0000
0000
0000
0000
0000
0000
0000
0000
0000
0000
0000
0000
0000
0000
0000
0000
0000
0000
0000
0000
0000
0000
0000
0000
0000
0000
0000
0000
0000
0000
0000
0000
0000
0000
0000
0000
0000
0000
0000
0000
0000
0000
0000
0010
0000
0000
0000
0000
0000
0000
0000
0000
0000
0000
0000
0000
0000
0000
0000
0000
0000
0000
0000
0000
0000
0000
0000
1000
0000
0000
0000
0000
0000
0000
0000
0000
0000
0000
0000
0000
0000
0000
0000
0000
0000
0000
0000
0000
0000
0000
0000
0010
0000
0000
0000
0000
0000
0000
0000
0000
0000
0000
0000
0000
0000
0000
0000
0000
0000
0000
0000
0000
0000
0000
0000
0000
0000
0000
0000
0000
0000
0000
0000
0000
0000
0000
0000
0000
0000
0000
0000
0000
0000
0000
0000
0000
0000
0000
0000
0100
0000
0000
0000
0000
0000
0000
0000
0000
0000
0000
0000
0000
0000
0000
0000
0000
0000
0000
0000
0000
0000
0000
0000
0000
0000
0000
0000
0000
0000
0000
0000
0000
0000
0000
0000
0000
0000
0000
0000
0000
0000
0000
0000
0000
0000
0000
0000
,
0101
0000
1000
0010
0110
0000
0001
0100
,
0010
0000
1000
0100
0010
0000
0001
1000
,
0001
0100
1000
0100
0110
0000
0001
1000
,
0010
0000
1000
0001
0100
0000
1000
0100
,
0010
0100
0001
0100
0011
0000
0001
0010
,
0100
0000
0010
0100
1000
0000
1000
0001
,
0100
0010
0100
0001
1001
0000
0001
0010
,
0100
0000
1000
0100
0010
0000
0001
1000
,
0010
1000
0100
0010
0110
0000
1000
0010
,
1000
0000
0001
0100
0001
0000
1000
0100
,
0010
0001
1000
0010
0110
0000
1000
0001
,
1000
0000
0100
0010
0100
0000
0001
0010
,
1000
0100
1000
0010
0110
0000
0001
1000
,
0010
0000
1000
0001
0100
0000
0001
0100
,
0010
1000
0001
0100
1100
0000
0001
1000
,
0001
0000
1000
0010
0200
0000
0000
0000
,
0000
0000
0301
1000
0001
0100
0010
0000
,
0110
0000
1000
0100
0010
0001
1000
0100
,
0010
0001
0100
0010
0100
1000
0100
0010
,
0100
0001
0101
0100
0010
0001
1000
0001
,
1000
0001
0100
0100
0010
0100
0010
0001
,
0100
0010
1010
1000
0010
0100
1000
0010
,
0100
0010
1000
0001
1000
0001
0100
0010
,
0100
0010
1001
0100
0010
0001
1000
0010
,
1000
0010
0100
0100
0010
1000
0001
1000
,
0100
0010
1001
0100
0001
1000
0001
0010
,
0100
1000
0001
0001
1000
0010
0100
0010
,
1000
0100
1010
0100
0001
1000
0001
0010
,
0100
1000
0001
0001
1000
1000
0010
0100
,
0010
0100
0110
0001
1000
0010
0010
0100
,
0001
0100
0001
0010
0100
1000
0001
0001
,
1000
1000
1010
0010
0100
0001
1000
0100
,
0010
0001
1000
0010
0100
0001
1000
0010
,
1000
0100
0110
1000
0001
0100
0100
0010
,
0010
1000
0001
0001
1000
0100
1000
0010
,
0100
0001
1001
0100
0010
1000
0001
0100
,
0001
0010
0110
0000
2000
0000
0100
0000
,
0010
3001
0001
1000
,
1000
0000
0001
1000
0010
0000
0100
0000
,
0001
2000
0100
0100
,
0010
3001
0000
0000
;

//---------------dance-single - ----------------
#NOTEDATA:;
#CHARTNAME:;
#STEPSTYPE:dance-single;
#DESCRIPTION:;
#CHARTSTYLE:;
#DIFFICULTY:Hard;
#METER:9;
#RADARVALUES:0.790725,0.763753,0.122548,0.122548,1.056975,542.000000,530.000000,12.000000,12.000000,0.000000,0.000000,0.000000,0.000000,0.000000,0.790725,0.763753,0.122548,0.122548,1.056975,542.000000,530.000000,12.000000,12.000000,0.000000,0.000000,0.000000,0.000000,0.000000;
#CREDIT:;
#NOTES:
// measure 0
1000
0000
0100
0000
0010
0100
0000
0000
1000
0000
0001
0100
0000
0000
0010
0000
,  // measure 1
1000
0000
0100
0010
0100
0000
0001
1000
0001
0000
1000
0100
0010
0000
1000
0001
,  // measure 2
0100
0000
0100
0000
1000
0001
0000
0000
0010
0000
1000
0001
0000
0000
1000
0000
,  // measure 3
0010
0000
1000
0100
0010
0000
1000
0010
0100
0000
1000
0001
0100
0000
1000
0001
,  // measure 4
1010
0000
0010
0000
1000
0100
0000
0010
0001
0100
1000
0100
0000
1000
0010
0000
,  // measure 5
1000
0100
0010
0100
1000
0000
0001
0010
0100
0000
1000
0100
0010
0000
1000
0001
,  // measure 6
0100
0000
0001
0000
1000
0100
0000
0001
0010
0100
1000
0010
0000
0001
0010
0000
,  // measure 7
1002
0003
0000
0000
0000
0000
0000
0000
0000
0000
0000
0000
0000
0000
0000
0000
0000
0000
0000
0000
0000
0000
0000
0000
0000
0000
0000
0000
0000
0000
0000
0000
0000
0000
0000
0000
0000
0000
0000
0000
0000
0000
0000
0000
0000
0000
0000
0000
1000
0000
0000
0000
0000
0000
0000
0000
0000
0000
0000
0000
0000
0000
0000
0000
0000
0000
0000
0000
0000
0000
0000
0000
0100
0000
0000
0000
0000
0000
0000
0000
0000
0000
0000
0000
0010
0000
0000
0000
0000
0000
0000
0000
0000
0000
0000
0000
0001
0000
0000
0000
0000
0000
0000
0000
0000
0000
0000
0000
0000
0000
0000
0000
0000
0000
0000
0000
0000
0000
0000
0000
0010
0000
0000
0000
0000
0000
0000
0000
0000
0000
0000
0000
0001
0000
0000
0000
0000
0000
0000
0000
0000
0000
0000
0000
1000
0000
0000
0000
0000
0000
0000
0000
0000
0000
0000
0000
0000
0000
0000
0000
0000
0000
0000
0000
0000
0000
0000
0000
0001
0000
0000
0000
0000
0000
0000
0000
0000
0000
0000
0000
0010
0000
0000
0000
0000
0000
0000
0000
0000
0000
0000
0000
,  // measure 8
0100
0000
0001
1000
0100
0000
0001
0000
1000
0100
0000
0010
0100
1000
0001
0000
,  // measure 9
1000
0010
0000
0001
0010
0000
0100
0010
0001
0000
0010
1000
0100
0000
0010
0000
,  // measure 10
1000
0100
0000
0010
0001
0000
1000
0000
1001
0000
0000
1000
0001
0100
0010
0000
,  // measure 11
1000
0010
0000
0001
0100
0000
1000
0100
0010
0000
0001
1000
0010
0000
1000
0000
,  // measure 12
0001
0100
0000
1000
0001
0000
0100
0000
1001
0000
0000
1000
0001
0100
0010
0000
,  // measure 13
1000
0100
0000
0001
0010
0000
1000
0010
0001
0000
0100
1000
0010
0000
0100
0000
,  // measure 14
0001
1000
0000
0001
1000
0000
0010
0000
1001
0000
0000
1000
0001
0100
0010
0000
,  // measure 15
1000
0010
0000
0010
1000
0000
0001
1000
0010
0000
1000
0001
0100
0000
0001
0000
,  // measure 16
1000
0100
0000
0010
0001
0000
1000
0000
0101
0000
0000
1000
0001
1000
0010
0000
,  // measure 17
1000
0100
0000
0001
0010
0000
0001
1000
0010
0000
1000
0001
0100
0000
0001
0000
,  // measure 18
1000
0001
0000
1000
0010
0000
0100
0000
1001
0000
0000
1000
0001
1000
0010
0000
,  // measure 19
1000
0001
0000
0100
0010
0000
1000
0001
0100
0000
0010
1000
0001
0000
1000
0000
,  // measure 20
0001
0100
0000
0010
1000
0000
0001
0000
1100
0000
0000
0001
0100
0010
1000
0000
,  // measure 21
0001
1000
0000
0100
0001
0000
1000
0010
0001
0000
0001
0010
1000
0000
0001
0000
,  // measure 22
1000
0100
0000
1000
0010
0000
0100
0000
1001
0000
0000
1000
0010
0100
0001
0000
,  // measure 23
1000
0001
0000
1000
0001
0000
1000
0000
0020
0000
0000
0000
0000
0000
0000
0000
,  // measure 24
0000
0000
0000
0000
1030
0000
0001
0100
0010
0000
1000
0001
1000
0000
0010
0000
,  // measure 25
1000
0100
0010
0001
1000
0001
1000
0010
0100
0001
1000
0100
0010
0001
1000
0010
,  // measure 26
0100
1000
0100
0010
0001
1000
0010
0100
1000
0000
0100
0010
0000
1000
0001
1000
,  // measure 27
0100
0010
0001
0010
0100
0001
1000
0000
0000
0001
0100
0000
0001
0100
0000
0001
,  // measure 28
0100
0000
0001
0100
0001
0000
1000
0001
0000
0001
0010
0000
1000
0000
0001
0100
,  // measure 29
1000
0001
0100
0010
1000
0001
0100
0000
0001
0010
0000
1000
0001
0010
0100
1000
,  // measure 30
0001
0100
0010
1000
0001
1000
0100
0010
0001
0000
0100
0010
0000
0100
0010
0100
,  // measure 31
1000
0001
0100
0010
1000
0000
0001
1000
0000
0001
1000
0000
0001
1000
0000
0100
,  // measure 32
1000
0000
1000
0100
0010
0000
0100
0010
0000
0000
1000
0000
0010
0000
1000
0001
,  // measure 33
0100
0010
1000
0100
0010
0100
1000
0001
1000
0010
0100
1000
0001
0000
0001
1000
,  // measure 34
0100
0010
1000
0001
1000
0100
0010
0001
1000
0000
0001
0010
0000
0001
0010
0100
,  // measure 35
1000
0010
0100
0001
1000
0000
0001
0100
0000
0001
1000
0000
0001
0010
0000
0001
,  // measure 36
1000
0000
0001
0010
0100
0000
1000
0100
0010
0100
0010
0000
0001
0000
1000
0100
,  // measure 37
0010
0001
0010
0100
1000
0001
0100
0000
0001
1000
0100
0010
0001
0000
1000
0100
,  // measure 38
0010
0001
1000
0001
0010
0100
0010
0100
0001
0000
1000
0001
0000
1000
0100
0010
,  // measure 39
0001
0100
0001
0100
0010
0000
1000
0001
0000
1000
0001
0000
1000
0100
0000
1000
,  // measure 40
0010
0000
0100
0000
0010
0000
1000
0010
0100
0010
0100
0000
0100
0000
0001
1000
,  // measure 41
0010
0100
1000
0100
0002
0000
1000
0000
0100
0000
1000
1000
0000
1000
1000
0000
,  // measure 42
0103
0010
0100
0000
0001
0010
0100
1000
0001
0000
1000
1000
0000
0001
0001
0000
,  // measure 43
1100
0000
0001
0000
1001
0000
1000
0100
0010
0000
0100
0100
0000
0100
0100
0000
,  // measure 44
0001
0010
0100
1000
0001
0000
1000
0000
0120
0000
0000
0000
1000
0000
0000
0000
,  // measure 45
0100
0000
0230
2300
3002
0203
0320
0032
,  // measure 46
2003
0000
3020
0000
0130
1000
0100
0000
0001
1000
0000
0001
0100
0000
1000
0100
,  // measure 47
0000
0000
0100
0001
1000
0000
0000
0000
1000
0000
0000
0000
1000
0000
0000
0000
,  // measure 48
1000
0001
0000
0000
;
