#VERSION:0.83;
#TITLE:INSERT COIN;
#SUBTITLE:;
#ARTIST:Qrabit;
#TITLETRANSLIT:;
#SUBTITLETRANSLIT:;
#ARTISTTRANSLIT:;
#GENRE:Electro House;
#ORIGIN:;
#CREDIT:;
#BANNER:[Round A] - INSERT COIN.png;
#BACKGROUND:[Round A] - INSERT COIN-bg.png;
#PREVIEWVID:;
#JACKET:[Round A] - INSERT COIN-jacket.png;
#CDIMAGE:;
#DISCIMAGE:;
#LYRICSPATH:;
#CDTITLE:cdtitle.png;
#MUSIC:[Round A] - INSERT COIN.ogg;
#OFFSET:-0.017000;
#SAMPLESTART:15.016425;
#SAMPLELENGTH:14.999997;
#SELECTABLE:YES;
#DISPLAYBPM:128.000000;
#BPMS:0.000=128.000,
160.000=120.000,
160.167=110.000,
160.333=100.000,
160.500=90.000,
160.667=80.000,
160.833=70.000,
161.000=60.000,
161.167=50.000,
161.333=40.300,
161.750=32.000,
162.000=40.000,
162.250=70.000,
162.500=100.000,
162.750=130.000,
163.000=160.000,
163.250=182.000,
163.500=180.000,
163.750=170.000,
164.000=155.000,
164.250=140.000,
164.500=128.000;
#STOPS:;
#DELAYS:;
#WARPS:;
#TIMESIGNATURES:0.000=4=4;
#TICKCOUNTS:0.000=4;
#COMBOS:0.000=1;
#SPEEDS:0.000=1.000=0.000=0;
#SCROLLS:0.000=1.000;
#FAKES:;
#LABELS:0.000=Song Start;
#BGCHANGES:;
#KEYSOUNDS:;
#ATTACKS:
;

//---------------dance-single - ----------------
#NOTEDATA:;
#CHARTNAME:;
#STEPSTYPE:dance-single;
#DESCRIPTION:;
#CHARTSTYLE:;
#DIFFICULTY:Challenge;
#METER:9;
#RADARVALUES:0.605891,0.708971,0.239568,0.727576,0.718703,478.000000,451.000000,27.000000,82.000000,20.000000,0.000000,2.000000,0.000000,0.000000,0.605891,0.708971,0.239568,0.727576,0.718703,478.000000,451.000000,27.000000,82.000000,20.000000,0.000000,2.000000,0.000000,0.000000;
#CREDIT:;
#DISPLAYBPM:128.000000;
#NOTES:
0000
0000
0000
0000
,
0000
0000
0000
0000
,
0000
0000
0000
0000
,
0000
0000
0000
0000
,
2000
0000
0000
0000
0000
0000
0000
0000
0000
3100
0000
0000
0000
0000
0000
0010
0000
0000
0000
0000
0000
0002
0000
0000
0000
0000
0000
0000
0000
0000
0000
0000
0000
0000
0000
0000
0003
0000
0000
0000
0000
0000
1000
0000
0010
0000
1000
0000
,
0020
0000
0000
1030
0000
0001
0010
0000
0200
0000
0000
0000
0310
0001
0010
0001
,
2000
0000
0000
0000
0000
0000
0000
0000
0000
3010
0000
0000
0000
0000
0000
0100
0000
0000
0000
0000
0000
0002
0000
0000
0000
0000
0000
0000
0000
0000
0000
0000
0000
0000
0000
0000
0003
0000
0000
0000
0000
0000
1000
0000
0100
0000
1000
0000
,
0200
0000
0000
0000
0000
0310
0000
0000
0002
0000
0000
0000
0000
1003
0000
0000
,
0002
0000
0000
0000
0000
0000
0000
0000
0000
0103
0000
0000
0000
0000
0000
0001
0000
0000
0010
0000
0000
0000
0000
0000
0200
0000
0000
0000
0000
0000
0000
0000
0000
0000
0000
0000
0310
0000
0000
0000
0000
0000
0001
0000
1000
0000
0001
0000
,
2000
0000
0000
3010
0001
0000
0010
0000
2000
0000
0000
0000
3001
0100
0010
1000
,
0200
0000
0000
0000
0000
0000
0000
0000
0000
0310
0000
0000
0100
0000
0000
0000
0000
0000
1000
0000
0000
0000
0000
0000
0002
0000
0000
0000
0000
0000
0000
0000
0000
0000
0000
0000
0103
0000
0000
0000
0000
0000
0010
0000
1000
0000
0010
0000
,
2000
0000
0000
0000
3001
0010
0000
0000
0012
0000
0000
0000
1003
0010
0000
0000
,
2000
0000
0000
0000
0000
0000
0000
0000
0000
3100
0000
0000
0000
0000
0000
1000
0000
0000
0010
0000
0000
0000
0000
0000
0200
0000
0000
0000
0000
0000
0000
0000
0000
0000
0000
0000
0310
0000
0000
0000
0000
0000
1000
0000
0001
0000
1000
0000
,
0002
0000
0000
0013
0000
1000
0010
0000
0002
0000
0000
0000
1003
0100
0010
0001
,
0200
0000
0000
0000
0000
0000
0000
0000
0000
0310
0000
0000
0100
0000
0000
0000
0000
0000
0001
0000
0000
0000
0000
0000
2000
0000
0000
0000
0000
0000
0000
0000
0000
0000
0000
0000
3100
0000
0000
0000
0000
0000
0010
0000
0001
0000
0010
0000
,
0002
0000
0000
0000
1003
0010
0000
0000
2010
0000
0000
0000
3001
0000
0001
0000
,
1000
0000
0100
1000
0100
1000
0001
1000
0001
0100
0001
0100
0001
0000
1000
0000
,
0001
0000
0010
0001
0010
0001
1000
0001
1000
0010
1000
0010
1000
0000
0001
0000
,
1000
0000
0010
1000
0010
1000
0001
1000
0100
1000
0100
1000
0100
0000
0010
0000
,
0001
0000
0010
0001
0010
0001
1000
0001
0100
0001
0100
0001
0100
0000
0010
0000
,
1000
0100
1000
0010
0100
0001
0010
0001
,
1000
0010
1000
0010
0100
0010
0100
0010
0100
0001
0100
0001
1000
0000
0001
0000
,
1000
0000
0001
0010
0100
0000
1000
0100
0010
0000
0001
0100
0010
0000
1000
0100
,
0020
0000
0030
00M0
0002
0000
0003
000M
0200
0000
0300
0M00
4004
0000
3003
0000
,
1001
0000
0000
1000
0010
0000
1000
0100
M0MM
0000
0100
0000
0001
0000
0010
0100
,
0010
0000
0001
0000
0201
0000
0000
0000
0310
1000
0000
0001
0000
0000
0010
0000
,
0210
0000
1300
0000
0001
0100
0001
0100
0020
0000
0000
0000
1030
0000
0001
1000
,
0100
1000
0010
0100
0002
0000
00M0
0000
0000
0000
00M3
0000
0022
0000
0033
0000
,
1001
0000
1000
0001
0010
0000
0001
0100
M0MM
0000
0100
0000
1000
0000
0010
0100
,
0010
0000
1000
0000
1200
0000
0000
0000
0310
0001
0000
1000
0000
0000
0010
0000
,
0210
0000
0301
0000
1000
0100
1000
0100
0020
0000
0000
0000
0031
0000
0100
0001
,
0010
0000
0000
0022
0000
0000
0033
0000
1001
0000
0000
2020
0000
0000
3030
0000
,
1001
0000
0001
0010
0100
0000
1000
0010
MM0M
0000
0010
0000
0001
0000
0100
1000
,
0100
0000
0001
0000
0021
0000
0000
0000
1030
0010
0000
0010
0001
0000
0100
0000
,
0120
0000
1030
0000
0001
1000
0100
0010
0002
0000
0103
0000
0010
0000
1000
0010
,
0100
0001
0010
0100
0020
0000
0M00
0000
0000
0000
0M30
0000
0110
0000
0001
0000
,
1001
0000
1000
0010
0100
0000
0001
0010
MM0M
0000
0010
0000
1000
0000
0100
0001
,
0100
0000
1000
0000
1020
0000
0000
0000
0031
0010
0000
0010
1000
0000
0100
0000
,
0120
0000
0031
0000
1000
0010
0100
0001
2000
0000
3100
0000
0010
0000
0100
1000
,
0010
0000
0000
2020
0000
0000
3030
0000
1001
0000
0000
0022
0000
0000
0033
0000
,
2002
0000
0000
0000
0000
0000
0000
3003
0220
0000
0000
0000
0000
0000
0000
0000
,
0000
0000
0330
0000
0000
0000
1000
0000
0100
0010
0000
0002
0000
0000
0000
0000
,
0000
0000
0003
0000
0000
0000
0001
0000
0100
0010
0000
2000
0000
0000
0000
0000
,
0000
0000
3000
0000
0000
0000
0010
0000
1000
0100
0000
0020
0000
0000
0000
0000
,
0000
0000
0030
0000
0000
0000
0100
0000
0010
0001
0000
0100
0000
0000
1000
0000
,
0100
0000
0001
0000
0000
0000
0001
0000
0010
0100
0000
2000
0000
3020
0230
0300
,
0020
0000
0000
0000
0030
0000
1000
0000
0010
0100
0000
0002
0000
0023
0230
0300
,
0020
0000
0000
0000
0030
0000
0010
0000
0001
0100
0000
0020
0000
2030
3002
0003
,
0020
0000
0000
0000
0030
0000
0100
0000
1000
0100
1000
0100
0010
0001
0010
0001
,
1000
0010
0100
0001
1000
0000
0100
0000
0010
0001
0000
0001
0200
0000
0001
0000
,
0301
0100
0010
1000
0001
0000
0010
0000
0100
1000
0000
1000
0020
0000
0031
0000
,
0010
0000
1000
0000
0100
0000
1000
0000
0010
0100
0000
0100
0002
0000
1003
0000
,
0001
0010
0001
0010
0000
0000
0022
0000
0M33
0000
2020
0000
0030
0000
0001
0000
,
3001
0000
1000
0000
0001
0000
0100
0000
0010
1000
0000
1000
0200
0000
1000
0000
,
1300
0100
0010
0001
1000
0000
0010
0000
0100
0001
0000
0001
0020
0000
1030
0000
,
0010
0000
0001
0000
0100
0000
0001
0000
0010
0100
0000
0100
2000
0000
3001
0000
,
1000
0010
0100
0001
0000
0000
1000
0000
0001
0010
0001
0010
0100
1000
0100
1000
,
0001
0100
0010
2000
0002
0000
0000
0000
0000
0000
0000
0000
0000
0000
0000
0000
,
0000
3000
0000
0000
,
0000
0000
0000
0003
0000
0000
0000
0000
0000
0000
0000
0000
0000
0000
0000
0000
;

//---------------dance-single - ----------------
#NOTEDATA:;
#CHARTNAME:;
#STEPSTYPE:dance-single;
#DESCRIPTION:;
#CHARTSTYLE:;
#DIFFICULTY:Hard;
#METER:8;
#RADARVALUES:0.458855,0.472647,0.204076,0.771940,0.372661,362.000000,339.000000,23.000000,87.000000,0.000000,0.000000,2.000000,0.000000,0.000000,0.458855,0.472647,0.204076,0.771940,0.372661,362.000000,339.000000,23.000000,87.000000,0.000000,0.000000,2.000000,0.000000,0.000000;
#CREDIT:;
#DISPLAYBPM:128.000000;
#NOTES:
0000
0000
0000
0000
,
0000
0000
0000
0000
,
0000
0000
0000
0000
,
0000
0000
0000
0000
,
2000
0000
0000
3010
0000
1000
0000
0002
0000
0000
0000
0000
0003
0000
0010
0000
,
0200
0000
0000
0310
0000
0000
0001
0000
0200
0000
0000
0000
0310
0000
1000
0000
,
0002
0000
0000
0013
0000
0001
0000
2000
0000
0000
0000
0000
0000
0000
3001
0000
,
0020
0000
0000
0000
0000
0031
0000
0000
0200
0000
0000
0000
0000
0310
0000
0000
,
2001
0000
0000
3010
1000
0000
0100
0000
0020
0000
0000
0000
0130
0000
1000
0000
,
0020
0000
0000
0031
0010
0000
1000
0000
0200
0000
0000
0000
0310
0000
0010
0000
,
0002
0000
0000
1003
0010
0000
0100
0000
0020
0000
0000
0000
1030
0000
0001
0000
,
0012
1003
2010
3001
,
1002
0000
0000
0013
0001
0000
0100
0000
0020
0000
0000
0000
0130
0000
0001
0000
,
0020
0000
0000
1030
0010
0000
0001
0000
0200
0000
0000
0000
0310
0000
0010
0000
,
2000
0000
0000
3001
0010
0000
0100
0000
0020
0000
0000
0000
0031
0000
1000
0000
,
2010
0000
3001
0000
0012
0000
1003
1000
,
0001
0000
0000
0100
0000
0000
0010
0000
0000
1000
0000
1000
0000
0000
0001
0000
,
1000
0000
0000
0100
0000
0000
0010
0000
0000
0001
0000
0001
0000
0000
1000
0000
,
0010
0000
0000
1000
0000
0000
0100
0000
0000
0010
0000
0010
0000
0000
0100
0000
,
0010
0000
0000
0001
0000
0000
0100
0000
0000
0010
0000
0010
0000
0000
1000
0000
,
0001
0010
0001
0010
0100
1000
0100
1000
,
0010
1000
0100
0010
0001
0100
0010
1000
,
0001
0000
0000
0001
0010
0000
0000
0010
0100
0000
0000
0100
1000
0000
0000
1000
,
0002
0003
2000
3000
0002
0003
0440
0330
,
2001
0000
0000
0000
3100
0000
1000
0010
0000
0000
0010
0000
1000
0000
0001
1000
,
0001
0000
0010
0000
0200
0000
0000
0000
0310
0001
0000
1000
0000
0000
0001
0000
,
0200
0000
0000
0000
0310
0000
1000
0000
0200
0000
0000
0000
0310
0000
0001
1000
,
0002
0003
0202
0000
0000
0303
2020
3030
,
1002
0000
0000
0000
0103
0000
0001
0010
0000
0000
0010
0000
0001
0000
1000
0001
,
1000
0000
0010
0000
0200
0000
0000
0000
0310
1000
0000
0001
0000
0000
1000
0000
,
0200
0000
0000
0000
0310
0000
0001
0000
0200
0000
0000
0000
0310
0000
1000
0001
,
1000
0000
0000
2020
0000
0000
3030
0000
0001
0000
0000
0022
0000
0000
0033
0000
,
1001
0000
0001
0000
0100
0000
0010
1000
0000
0000
1000
0000
0100
0000
0010
0001
,
0010
0000
0001
0000
0200
0000
0000
0000
1300
0100
0000
0001
0000
0000
0010
0000
,
2000
0000
3010
0000
0001
0000
0100
0000
0020
0000
0000
0000
1030
0000
0001
1000
,
0200
0300
2200
0000
0000
3300
0022
0033
,
1001
0000
1000
0000
0100
0000
0010
0001
0000
0000
0001
0000
0100
0000
0010
1000
,
0010
0000
1000
0000
0200
0000
0000
0000
0301
0100
0000
1000
0000
0000
0010
0000
,
0002
0000
0013
0000
1000
0000
0100
0000
0020
0000
0000
0000
0031
0000
1000
0001
,
0010
0000
0000
0022
0000
0000
0033
0000
1000
0000
0000
2020
0000
0000
3030
0000
,
2002
0000
0000
0000
0000
0000
0000
3003
0220
0000
0000
0000
0000
0000
0000
0000
,
0000
0000
0330
0000
0000
0000
1000
0000
0010
1000
0000
2000
0000
0000
0000
0000
,
0000
0000
3000
0000
0000
0000
0001
0000
0010
0001
0000
0002
0000
0000
0000
0000
,
0000
0000
0003
0000
0000
0000
1000
0000
0010
0100
0000
0200
0000
0000
0000
0000
,
0000
0000
0300
0000
0000
0000
0001
0000
0010
0100
0000
0100
0000
0000
0010
0000
,
0100
0000
1000
0000
0000
0000
0001
0000
0100
0001
0000
0002
0000
0000
1000
0000
,
2000
0000
3003
0000
0000
0000
1000
0000
0100
1000
0000
2000
0000
0000
0001
0000
,
0002
0000
3003
0000
0000
0000
0001
0000
0100
0010
0000
0020
0000
0000
1000
0000
,
2000
3030
0000
1000
0010
0100
0001
0010
,
1000
0000
0010
0000
0001
0000
0100
0000
0010
1000
0000
0200
0000
0000
0310
0000
,
0002
0000
1000
0000
1003
0000
0100
0000
0010
0001
0000
0200
0000
0000
0310
0000
,
1000
0000
0001
0000
0010
0000
1000
0000
0010
0001
0000
2000
0000
0000
3010
0000
,
0200
0000
0310
0100
0000
0000
0220
0000
0330
0000
2002
0000
3003
0000
0001
0000
,
0100
0000
0010
0000
1000
0000
0100
0000
0010
0001
0000
0200
0000
0000
0310
0000
,
2000
0000
0001
0000
3001
0000
0100
0000
0010
1000
0000
0200
0000
0000
0310
0000
,
0001
0000
1000
0000
0010
0000
0001
0000
0010
1000
0000
0002
0000
0000
0013
0000
,
0100
0010
0100
0010
0000
0000
0001
0000
0100
0000
0010
0000
1000
0000
0100
0000
,
0001
0200
2000
0000
0000
0000
0000
0000
,
0000
0300
0000
0000
,
0000
0000
0000
3000
0000
0000
0000
0000
0000
0000
0000
0000
0000
0000
0000
0000
;

//---------------dance-single - ----------------
#NOTEDATA:;
#CHARTNAME:;
#STEPSTYPE:dance-single;
#DESCRIPTION:;
#CHARTSTYLE:;
#DIFFICULTY:Medium;
#METER:5;
#RADARVALUES:0.339704,0.393873,0.230695,0.603356,0.017746,268.000000,242.000000,26.000000,68.000000,0.000000,0.000000,1.000000,0.000000,0.000000,0.339704,0.393873,0.230695,0.603356,0.017746,268.000000,242.000000,26.000000,68.000000,0.000000,0.000000,1.000000,0.000000,0.000000;
#CREDIT:;
#DISPLAYBPM:128.000000;
#NOTES:
0000
0000
0000
0000
,
0000
0000
0000
0000
,
0000
0000
0000
0000
,
0000
0000
0000
0000
,
1000
0100
0020
0130
,
0010
0001
0200
0310
,
1000
0001
2000
3100
,
0002
0013
2000
3001
,
2001
0000
3010
1000
0200
0000
0310
0000
,
0002
0000
0013
0001
0200
0000
0310
0010
,
2000
0000
3100
0010
0002
0000
1003
0000
,
2010
3001
0012
1003
,
1002
0000
0013
0001
0200
0000
0310
0000
,
2000
0000
3010
1000
0200
0000
0310
0010
,
0002
0000
0103
0010
2000
0000
3001
0000
,
0012
0000
1003
0000
2010
0000
3001
1000
,
0100
0000
0100
0000
0100
0010
0001
0000
,
0100
0000
0100
0000
0100
0010
1000
0000
,
0001
0000
0001
0000
0001
0010
0100
0000
,
1000
0000
1000
0000
1000
0010
0100
0000
,
0001
0100
0001
0000
0100
1000
0100
0000
,
1000
0010
1000
0000
0010
0001
0010
0000
,
1100
0011
0101
1010
,
0002
0003
2000
3000
0002
0003
4000
3000
,
2001
0000
3001
0100
0001
0000
1000
0000
,
0010
1000
0200
0000
0310
0100
0010
0000
,
1002
0000
0103
0000
0002
0000
1003
0100
,
0100
2200
3300
0011
,
1002
0000
1003
0100
1000
0000
0001
0000
,
0010
0001
0200
0000
0310
0100
0010
0000
,
2001
0000
3100
0000
2000
0000
3010
0100
,
0001
0000
0000
0002
0000
0000
0000
0000
1003
0000
0000
2000
0000
0000
0000
0000
,
3001
0000
0101
0000
0010
1000
0100
0000
,
0010
0000
0012
0000
0103
0010
1000
0000
,
0100
0000
0110
0000
2000
0000
3001
0001
,
0100
0202
0303
1010
,
1000
0000
1100
0000
0010
0001
0100
0000
,
0010
0000
2010
0000
3100
0010
0001
0000
,
0100
0000
0110
0000
0002
0000
1003
1000
,
0001
0000
0000
0002
0000
0000
0000
0000
1003
0000
0000
2000
0000
0000
0000
0000
,
3200
0000
0000
0000
0000
0000
0000
0300
0200
0000
0000
0000
0000
0000
0000
0000
,
0300
1000
0010
0200
,
0300
0010
1000
0200
,
0300
0010
0001
0200
,
0300
0010
1000
0100
,
0010
0001
0100
0020
,
0130
0100
0001
0020
,
0130
0100
1000
0020
,
1030
0002
0023
2030
,
3200
0000
0301
0100
0010
0000
2000
0000
,
3001
0000
1000
0100
0010
0000
0002
0000
,
1003
0000
0010
1000
0100
0000
0020
0000
,
0130
0000
0000
0110
0000
2001
0000
0000
,
3001
0000
1000
0010
0100
0000
0020
0000
,
1030
0000
0001
0010
0100
0000
0020
0000
,
0031
0000
0100
0010
1000
0000
0002
0000
,
2000
0000
0000
3003
0000
0000
1000
0000
0200
0000
0000
0000
0302
0000
0000
0000
,
0023
2000
0000
0000
,
0000
0030
0000
0000
,
0000
0000
0000
3000
0000
0000
0000
0000
0000
0000
0000
0000
0000
0000
0000
0000
;

//---------------dance-single - ----------------
#NOTEDATA:;
#CHARTNAME:;
#STEPSTYPE:dance-single;
#DESCRIPTION:;
#CHARTSTYLE:;
#DIFFICULTY:Easy;
#METER:3;
#RADARVALUES:0.218019,0.262582,0.133093,0.532373,0.000000,172.000000,157.000000,15.000000,60.000000,0.000000,0.000000,0.000000,0.000000,0.000000,0.218019,0.262582,0.133093,0.532373,0.000000,172.000000,157.000000,15.000000,60.000000,0.000000,0.000000,0.000000,0.000000,0.000000;
#CREDIT:;
#DISPLAYBPM:128.000000;
#NOTES:
// measure 0
0000
0000
0000
0000
,  // measure 1
0000
0000
0000
0000
,  // measure 2
0000
0000
0000
0000
,  // measure 3
0000
0000
0000
0000
,  // measure 4
1000
1000
0200
0300
,  // measure 5
0010
0010
0002
0003
,  // measure 6
1000
1000
0020
0030
,  // measure 7
0200
0300
0002
0003
,  // measure 8
0010
0001
0200
0300
,  // measure 9
0010
1000
0200
0300
,  // measure 10
0010
0100
2000
3000
,  // measure 11
2020
3030
0202
0303
,  // measure 12
0010
1000
0200
0300
,  // measure 13
0010
0001
0200
0300
,  // measure 14
0010
0100
0002
0003
,  // measure 15
0022
0033
2200
3300
,  // measure 16
1000
1000
1000
0000
,  // measure 17
0001
0001
0001
0000
,  // measure 18
0100
0100
0100
0000
,  // measure 19
0010
0010
0010
0000
,  // measure 20
1000
0000
0100
0000
,  // measure 21
0010
0000
0001
0000
,  // measure 22
1000
0100
0010
0001
,  // measure 23
0200
0000
0000
0300
,  // measure 24
2002
3003
0001
0000
,  // measure 25
0100
0100
0010
0010
,  // measure 26
2000
3000
0010
1000
,  // measure 27
0100
2200
3300
0011
,  // measure 28
2002
3003
1000
0000
,  // measure 29
0010
0010
0100
0100
,  // measure 30
0002
0003
0010
0001
,  // measure 31
0202
0303
2020
3030
,  // measure 32
1000
1000
0010
1000
,  // measure 33
0200
0300
0020
0030
,  // measure 34
0100
0010
0001
1000
,  // measure 35
0010
2020
3030
1001
,  // measure 36
0001
0001
0010
0001
,  // measure 37
0200
0300
0020
0030
,  // measure 38
0100
0010
1000
0001
,  // measure 39
0022
0033
2200
3300
,  // measure 40
0002
0000
0000
0000
,  // measure 41
0003
1000
1000
0020
,  // measure 42
0030
1000
1000
0002
,  // measure 43
0003
0010
0010
0200
,  // measure 44
0300
1000
0001
1000
,  // measure 45
0000
0001
0001
0020
,  // measure 46
0030
0001
0001
2000
,  // measure 47
3000
0010
0010
0200
,  // measure 48
0300
0001
0100
0010
,  // measure 49
1000
0001
0010
0200
,  // measure 50
1300
1000
0010
0200
,  // measure 51
0301
0001
0010
0002
,  // measure 52
1003
0000
2002
0000
,  // measure 53
3003
1000
0010
0200
,  // measure 54
0301
0001
0010
0200
,  // measure 55
1300
1000
0010
2000
,  // measure 56
0002
0000
0000
3003
0000
0000
0000
0000
1000
0000
0000
0000
0100
0000
0000
0000
,  // measure 57
0020
0002
0000
0000
,  // measure 58
0000
0030
0000
0000
,  // measure 59
0000
0000
0000
0003
0000
0000
0000
0000
0000
0000
0000
0000
0000
0000
0000
0000
;

//---------------dance-single - ----------------
#NOTEDATA:;
#CHARTNAME:;
#STEPSTYPE:dance-single;
#DESCRIPTION:;
#CHARTSTYLE:;
#DIFFICULTY:Beginner;
#METER:1;
#RADARVALUES:0.121685,0.183807,0.000000,0.159712,0.000000,96.000000,96.000000,0.000000,18.000000,0.000000,0.000000,0.000000,0.000000,0.000000,0.121685,0.183807,0.000000,0.159712,0.000000,96.000000,96.000000,0.000000,18.000000,0.000000,0.000000,0.000000,0.000000,0.000000;
#CREDIT:;
#DISPLAYBPM:128.000000;
#NOTES:
// measure 0
0000
0000
0000
0000
,  // measure 1
0000
0000
0000
0000
,  // measure 2
0000
0000
0000
0000
,  // measure 3
0000
0000
0000
0000
,  // measure 4
1000
0000
0000
0000
,  // measure 5
0010
0000
0000
0000
,  // measure 6
0100
0000
0000
0000
,  // measure 7
0001
0000
0000
0000
,  // measure 8
1000
0000
1000
0000
,  // measure 9
0100
0000
0100
0000
,  // measure 10
0010
0000
0010
0000
,  // measure 11
0100
0000
1000
0000
,  // measure 12
0001
0000
0001
0000
,  // measure 13
0100
0000
0100
0000
,  // measure 14
0010
0000
0010
0000
,  // measure 15
0100
0000
0001
0000
,  // measure 16
1000
0000
0000
0000
,  // measure 17
0001
0000
0000
0000
,  // measure 18
1000
0000
0000
0000
,  // measure 19
0001
0000
0000
0000
,  // measure 20
1000
0000
0001
0000
,  // measure 21
1000
0000
0001
0000
,  // measure 22
1000
0001
1000
0001
,  // measure 23
2000
0000
3000
0000
,  // measure 24
0100
0000
0100
0000
,  // measure 25
0010
0000
0001
0000
,  // measure 26
1000
0000
1000
0000
,  // measure 27
0000
0020
0030
0100
,  // measure 28
0100
0000
0100
0000
,  // measure 29
0010
0000
1000
0000
,  // measure 30
0001
0000
0001
0000
,  // measure 31
0020
0030
0200
0300
,  // measure 32
0010
0000
0001
0000
,  // measure 33
1000
0000
0010
0000
,  // measure 34
0100
0000
0001
0000
,  // measure 35
0000
2000
3000
0010
,  // measure 36
0010
0000
1000
0000
,  // measure 37
0001
0000
0010
0000
,  // measure 38
0100
0000
1000
0000
,  // measure 39
0020
0030
0200
0300
,  // measure 40
0002
0000
0000
0000
0000
0000
0000
0003
0000
0000
0000
0000
0000
0000
0000
0000
,  // measure 41
0000
0000
1000
2000
,  // measure 42
3000
0000
0010
0020
,  // measure 43
0030
0000
0100
0200
,  // measure 44
0300
0000
0001
0000
,  // measure 45
1000
0000
0001
0002
,  // measure 46
0003
0000
0010
0020
,  // measure 47
0030
0000
0100
0200
,  // measure 48
0300
1000
0000
0001
,  // measure 49
0000
1000
0000
0010
,  // measure 50
0000
0010
0000
0100
,  // measure 51
0000
0100
0000
0002
,  // measure 52
0003
0000
2000
0000
,  // measure 53
3000
0001
0000
0010
,  // measure 54
0000
0010
0000
0100
,  // measure 55
0000
0100
0000
2000
,  // measure 56
0000
3000
0000
0000
,  // measure 57
0000
0020
0000
0000
,  // measure 58
0000
0000
0000
0000
,  // measure 59
0000
0000
0000
0030
0000
0000
0000
0000
0000
0000
0000
0000
0000
0000
0000
0000
;
