#TITLE:Fascination MaxX;
#SUBTITLE:(Cally & Juice's Maxximum Overload Mix);
#ARTIST:100-200-400;
#TITLETRANSLIT:;
#SUBTITLETRANSLIT:;
#ARTISTTRANSLIT:;
#GENRE:;
#CREDIT:;
#BANNER:snacks-bn.png;
#BACKGROUND:snacks-bg.png;
#LYRICSPATH:;
#CDTITLE:loodeecdtitle.png;
#MUSIC:Fascination MaxX (Cally & Juice's Remix).ogg;
#OFFSET:0.006;
#SAMPLESTART:73.555;
#SAMPLELENGTH:12.800;
#SELECTABLE:YES;
#BPMS:0.000=150.000;
#STOPS:;
#BGCHANGES:;
#KEYSOUNDS:;

//---------------dance-single - Loodee----------------
#NOTES:
     dance-single:
     Loodee:
     Hard:
     10:
     0.617,0.750,0.304,0.032,0.493:
0000
0000
0000
0000
,
0000
0000
0000
0000
,
0000
0000
0000
0000
,
0000
0000
0000
0000
,
0000
0000
0000
0000
,
0000
0000
0000
0000
,
0000
0000
0000
0000
,
0000
0000
0000
0000
,
0000
1000
0100
0010
00M0
1000
0100
0010
,
0000
0001
1000
0010
00M0
0001
1000
0010
,
0000
0100
0001
1000
M000
0100
0001
1000
,
0000
0100
0010
0001
000M
0100
0010
0001
,
1000
0010
0110
0100
0000
0100
0001
1000
,
0100
0010
0011
0001
0000
0001
1000
0010
,
0100
0001
1001
1000
0000
1000
0010
0100
,
0001
0010
0110
0100
0000
0100
1000
0010
,
0101
0000
0000
0000
0000
0000
0000
0000
0000
0000
0001
0000
1000
0001
0000
0010
,
0000
0000
0000
0000
0000
0000
0110
0000
0000
0000
0400
0300
0000
0000
0100
0000
,
1100
0000
0000
0000
0000
0000
0000
0000
0000
0000
0100
0000
0010
0001
0000
0100
,
0000
0000
0000
0000
1010
0000
0000
0000
0010
0100
0000
0000
0010
1000
0000
0000
,
0011
0000
0000
0000
0000
0000
0010
0000
0001
0000
0001
0000
1000
0010
0000
1000
,
0000
0000
0000
0000
0000
0000
0100
0000
0010
0001
0040
0030
0000
0000
0001
0000
,
1001
0000
0000
0000
0000
0000
0000
0000
0000
0000
1000
0000
0010
0100
0000
0001
,
0000
0000
0000
0000
0100
0000
0100
0010
1000
0001
0000
0000
0001
0010
0000
0000
,
1100
0000
0000
0000
1000
0000
0001
0000
1000
0000
0001
0000
0010
0100
0010
0001
,
0000
0000
0000
0100
0001
0000
1000
0010
0100
0000
0004
0003
0100
0000
0001
0000
,
0010
0000
0100
1000
0100
0000
1000
0001
0100
0000
0100
0000
0010
1000
0001
1000
,
0000
0000
0000
0100
0010
0000
0001
0000
0100
0010
0000
0000
1000
0001
0000
0000
,
0010
0100
0010
0100
1000
0000
0001
0000
0100
0010
1000
0010
0100
0000
0001
0000
,
1000
0000
0001
0100
0001
0000
1000
0100
1000
0000
0001
0010
0100
0000
1000
0001
,
0100
0000
0040
0030
1000
0000
0040
0030
0100
0000
0004
0003
0010
0000
0400
0300
,
0010
0001
0000
0000
1000
0001
0000
0000
1000
0010
0000
0000
0100
0001
1000
0001
,
0020
0000
0000
0000
,
0000
0000
0000
0000
0000
0000
0000
0030
,
0100
0000
0000
0000
0100
0000
1000
0100
0000
0010
0000
0000
0010
0000
0001
0000
,
1000
0010
1000
0010
0100
0010
0100
0010
1000
0001
1000
0001
0010
0001
0010
0001
,
1000
0000
0010
0000
1000
0000
0010
1000
0000
0001
0000
0000
0001
0000
0010
0000
,
1100
0000
1100
0000
0110
0000
0110
0000
0001
0000
0001
1000
0000
1000
0001
0000
,
0100
0000
0000
0000
0100
0000
0010
1000
0000
0001
0000
0000
0001
0000
0010
0000
,
0001
1000
0001
1000
0010
0100
0010
0100
0001
0010
0001
0010
0100
1000
0100
1000
,
0010
0010
0010
0010
,
1000
0001
0100
0001
1000
0001
0100
0001
1000
0100
0010
0001
1000
0100
0010
0001
,
1000
0000
0010
0000
1000
0000
0010
1000
0000
0010
0000
0000
1000
0000
0010
1000
,
0000
0010
0000
0000
1000
0000
0000
0000
1000
0000
0001
0000
0100
0000
0001
0000
,
0010
0000
0000
0000
0010
0000
0001
0010
0000
0001
0000
0000
0010
0000
0001
0010
,
0000
0001
0000
0000
0010
0000
0000
0000
0001
0000
1000
0010
0000
0010
0100
0000
,
0001
0000
1000
0000
0001
0000
1000
0001
0000
1000
0000
0000
0001
0000
1000
0001
,
0000
1000
0000
0000
0001
0000
0000
0000
0010
0000
0100
0000
1000
0000
0001
0000
,
0100
0000
0000
0000
0100
0000
0001
0100
0000
0001
0000
0000
0100
0000
0001
0100
,
0001
1000
0001
1000
0001
0010
0001
0010
0100
1000
0010
0100
0001
0000
1000
0000
,
0001
0100
0000
0000
0001
0000
0100
0001
0000
0100
0000
0000
0001
0000
0100
0001
,
0000
0100
0000
0000
0001
0000
0000
0000
1000
0000
0010
0000
1000
0000
0001
0000
,
0010
0000
0000
0000
0001
0000
0010
0001
0000
0010
0000
0000
0001
0000
0010
0001
,
0000
0010
0000
0000
0001
0000
0000
0000
0001
0000
1000
0000
0001
0100
0010
0000
,
1000
0000
0010
0000
1000
0000
0010
1000
0000
0010
0000
0000
1000
0000
0010
1000
,
0000
0010
0000
0000
1000
0000
0010
1000
0000
0010
0000
0000
1000
0000
0010
0000
,
1000
0100
0010
0001
0010
0100
1000
0100
,
0010
0001
0010
0001
1000
0001
1000
0001
1000
0010
1000
0010
0100
0010
1000
0001
,
0200
0000
0000
0000
,
0000
0000
0000
0300
,
0101
0000
0000
0011
0000
0011
0000
0001
,
1000
0000
1010
0000
0101
0000
1010
0010
,
1001
0000
0000
1100
0000
1100
0000
0100
,
0010
0000
0110
0000
0011
0000
1001
1000
,
1010
0000
0000
0110
0000
0110
0000
0100
,
0001
0000
0011
0000
1010
0000
1001
0001
,
0011
0000
0000
1100
0000
1100
0000
0100
,
1000
0000
0000
0000
0010
0000
0010
0000
0000
0010
0000
0000
0100
0000
0000
0000
,
0001
1000
0010
0010
0100
0001
1000
0100
,
0010
0001
0100
0100
0001
0010
0100
1000
,
0010
0000
0100
0000
0001
0000
0001
0000
1000
0100
1000
0000
0010
0000
0100
0000
,
0001
0000
0010
0000
0100
0000
0100
0000
0010
0000
0010
0000
0100
1000
0010
0000
,
0110
0100
0001
0001
1000
0100
0010
0001
,
0100
0010
1000
1000
0001
1000
0100
0010
,
0100
1000
0001
0001
1000
0010
0000
1000
,
0010
0000
0000
0000
0010
0100
0010
0100
0001
0000
1000
0001
1000
0000
0000
0000
,
2002
0000
0000
0000
,
0000
0000
0000
0000
,
3003
0000
0000
0000
;

//---------------dance-single - Loodee----------------
#NOTES:
     dance-single:
     Loodee:
     Medium:
     8:
     0.531,0.594,0.168,0.112,0.196:
0000
0000
0000
0000
,
0000
0000
0000
0000
,
0000
0000
0000
0000
,
0000
0000
0000
0000
,
0000
0000
0000
0000
,
0000
0000
0000
0000
,
0000
0000
0000
0000
,
0000
0000
0000
0000
,
1000
0001
0100
0010
0000
1000
0100
0010
,
0000
0100
1000
0010
0000
1000
0100
0010
,
0000
0001
1000
0010
0000
0100
0010
1000
,
0000
0100
0010
0001
0000
0010
0100
1000
,
0010
0100
0001
1000
0000
0100
0010
0001
,
0100
0010
0100
0001
0000
0100
0010
0100
,
0001
1000
0100
0010
0000
0100
1000
0010
,
1000
0001
1000
0010
0000
0100
0010
0001
,
0010
0000
0000
0000
0000
0000
0000
0000
0000
0000
0100
0000
0010
0100
0000
0001
,
0000
0000
0000
1000
0000
0200
0000
0310
,
0011
0000
0000
0000
0000
0000
0000
0000
0000
0000
0001
0000
1000
0001
0000
0100
,
0000
0000
0000
0000
0010
0000
0000
0000
1000
0001
1000
0000
0100
0000
0000
0000
,
0110
0000
0000
0000
0000
0000
0010
0000
0001
0000
0010
0000
0100
1000
0000
0100
,
0000
0000
0000
1000
0001
2000
0000
3010
,
0110
0000
0000
0000
0000
0000
0000
0000
0000
0000
0100
0000
0001
1000
0000
0100
,
0000
0000
0000
0000
0010
0000
0001
0010
0001
0000
0000
0000
1000
0000
0000
0000
,
1010
0000
0000
0000
0010
0000
0100
0000
0010
0000
1000
0000
0001
1000
0001
1000
,
0000
0000
0100
0010
0011
0000
1100
0000
,
1000
0000
0000
0000
0001
0000
0100
0000
0010
0000
1000
0000
0001
0100
0001
0100
,
0000
0000
0010
1000
1010
0000
0101
0000
,
0001
1000
0001
1000
0001
0000
0010
0000
0100
0000
0000
0000
0100
0000
1000
0000
,
0001
0000
0100
0010
0100
0000
0001
0000
1000
0000
0001
0000
0100
0000
0001
0000
,
0010
0200
0300
0020
0030
2000
3000
0020
,
0030
0000
0002
0000
0003
0000
2000
0000
3000
0000
0020
0000
0130
0001
0000
0001
,
2000
0000
0000
0000
,
0000
0000
0000
0000
0000
0000
0000
3000
,
0001
0000
0000
0000
0001
0000
0000
0100
0000
0001
0000
0000
0100
0000
0001
0000
,
1000
0100
0010
0100
0001
0100
0010
0001
,
0100
0000
0010
0000
0100
0000
0000
0001
0000
1000
0000
0000
0001
0000
0000
0000
,
0100
0000
0100
0000
0001
0000
0001
0000
0010
0000
0000
0010
0000
0000
0100
0000
,
1000
0000
0000
0000
1000
0000
0000
0010
0000
1000
0000
0000
0001
0000
0000
0000
,
0010
0100
0010
0100
0001
0100
1000
0010
,
0100
0000
0000
0000
0001
0000
0000
0000
1000
0000
0000
0000
0001
0000
0000
1000
,
0000
0010
0000
0000
1000
0000
0000
0001
0000
0100
0000
0000
0010
0000
0000
0000
,
1001
1000
0001
0010
0100
0010
0001
1000
,
0010
0000
0100
0000
0010
0000
1000
0000
0001
0010
0001
0010
0001
0000
1000
0000
,
0010
0100
0001
1000
0100
1000
0001
0010
,
0100
0000
1000
0000
0010
0000
1000
0000
0001
0000
0000
0100
0000
0000
0010
0000
,
1010
1000
0100
1000
0010
1000
0001
0100
,
0001
0000
0010
0000
0001
0000
0010
0000
0100
1000
0100
1000
0001
0000
0100
0000
,
0010
0100
0001
1000
0100
1000
0010
1000
,
0001
0100
0001
0100
0001
0000
0010
0000
0100
0000
1000
0100
0010
0000
0100
0000
,
1000
0001
0100
0001
1000
0010
0100
0001
,
0010
0000
0001
0000
0100
0000
0001
0000
1000
0100
1000
0100
0010
0000
0100
0000
,
1000
0010
0100
0001
0010
0001
0100
0010
,
1000
0000
0001
0000
1000
0000
0010
0000
0100
0000
0100
0000
0001
1000
0100
0000
,
0010
0001
0010
0001
1000
0010
0100
0001
,
0101
0100
0010
1000
0001
1000
0100
0010
,
0001
0001
1000
1000
0001
0001
1000
1000
,
1010
0110
0101
0110
,
2002
0000
0000
0000
,
0000
0000
0000
0000
0000
0000
0000
3003
,
1100
0000
0000
0001
0100
0001
0000
0010
,
0100
0000
1000
0000
1000
0000
0001
0100
,
0101
0000
0000
0001
1000
0100
0000
1000
,
0010
0000
0100
0000
0100
0000
0001
1000
,
1001
0000
0000
1000
0100
0010
0000
0100
,
1000
0000
0001
0000
0001
0000
0100
0010
,
0110
0000
0000
0100
0001
1000
0000
0100
,
0010
0000
0000
0000
0001
0000
0001
0000
0000
0001
0000
0000
1000
0000
0000
0000
,
0010
0000
0100
0000
0001
0000
0001
0000
0000
1000
0000
0000
0100
0000
0010
0000
,
0001
0000
1000
0000
0010
0000
0010
0000
0000
0100
0000
0000
0001
0000
0010
0000
,
0100
0000
1000
0000
0100
0000
0100
0000
0000
1000
0000
0000
0010
0000
0100
0000
,
0001
0000
0010
0100
0001
0100
1000
0000
,
1000
0000
0010
0000
0100
0000
0100
0000
0000
0001
0000
0000
0010
0000
0100
0000
,
1000
0000
0100
0000
0010
0000
0010
0000
0000
0001
0000
0000
0100
0000
0001
0000
,
1000
0010
0100
0010
1000
0001
0000
1000
,
0001
0000
0000
0000
0010
0100
0010
0100
1000
0000
0001
0000
1000
0000
0000
0000
,
2002
0000
0000
0000
,
0000
0000
0000
0000
,
3003
0000
0000
0000
;

//---------------dance-single - ----------------
#NOTES:
     dance-single:
     :
     Easy:
     6:
     0.432,0.469,0.160,0.096,0.024:
0000
0000
0000
0000
,
0000
0000
0000
0000
,
0000
0000
0000
0000
,
0000
0000
0000
0000
,
0000
0000
0000
0000
,
0000
0000
0000
0000
,
0000
0000
0000
0000
,
0000
0000
0000
0000
,
0000
0001
1000
0001
0000
1000
0001
0100
,
0000
0001
0010
0001
0000
1000
0010
1000
,
0000
0001
0100
0001
0000
1000
0100
0010
,
0000
0100
1000
0100
0000
0010
0001
0010
,
0000
0001
1000
0010
0000
0100
0001
1000
,
0000
0100
0010
0100
0000
1000
0001
0100
,
0000
0010
1000
0001
0000
0100
0010
1000
,
0000
0001
0010
0100
0000
0010
0100
1000
,
0010
0000
0000
0000
0000
0000
0000
0000
0000
0000
0100
0000
0001
0000
0000
0001
,
0000
0000
0000
1000
0000
0100
0000
0100
,
1000
0000
0000
0000
0000
0000
0000
0000
0000
0000
0010
0000
0100
0000
0000
0100
,
0000
0000
0001
0000
0010
0100
1000
0100
,
0010
0000
0000
0000
0000
0000
0001
0000
1000
0000
0001
0000
1000
0000
0000
1000
,
0000
0000
0000
0010
0100
0001
0000
0001
,
1000
0000
0000
0000
0000
0000
0000
0000
0000
0000
0100
0000
0010
0000
0000
0010
,
0000
0000
0001
1000
0010
0100
0000
0100
,
0001
0000
0000
0000
1000
0000
0001
0000
1000
0000
0001
0000
0010
0000
0000
0010
,
0000
0000
0100
1000
0100
0000
1100
0000
,
1000
0000
0001
0000
0100
0000
0001
0000
1000
0000
0100
0000
0010
0000
0000
0010
,
0000
0000
0001
0100
0010
0000
0110
0000
,
1000
0001
1000
0000
0100
0010
0001
0000
,
1000
0010
0100
0001
0100
0010
1000
0100
,
0010
0002
0003
2000
3000
0020
0030
0200
,
0300
0002
0003
0020
0030
0200
0300
0000
,
2002
0000
0000
0000
,
0000
0000
3003
0000
,
0001
0000
0000
0000
,
1000
1000
0010
0010
0100
0001
1000
0001
,
0010
0000
0000
0000
,
1100
0000
0101
0000
1001
0000
0000
1000
,
0100
0000
0000
0000
,
0010
0010
0001
0001
1000
0010
1000
0001
,
0100
0100
0001
0001
,
1000
0001
1000
0001
1000
0001
1000
0100
,
0010
0001
1000
0000
0001
1000
0001
0000
,
0010
0100
1000
0000
0001
0100
0010
1000
,
0100
0010
0100
0000
1000
0001
0100
0000
,
0010
1000
0001
0000
0011
0000
0000
0000
,
0001
1000
0010
0000
0100
0001
1000
0000
,
0100
0010
0001
0000
0010
0100
1000
0010
,
0100
0001
0100
0000
0010
1000
0100
0000
,
1000
0010
0100
0001
0100
0000
1010
0000
,
1001
0000
0001
0000
0010
0100
1000
0000
,
0010
0100
0001
0000
0100
0001
1000
0001
,
0010
0100
1000
0000
0100
0010
0001
0000
,
1000
0010
1000
0000
0001
0100
0001
1000
,
0001
0010
0001
0000
0010
0100
0010
0000
,
0100
1000
0100
0000
1000
0001
1000
0000
,
0010
0010
0100
0100
0001
1000
0001
1000
,
0200
0010
0001
0310
,
1001
0000
0000
0000
,
0000
0000
0000
0000
,
1010
0000
0000
0010
0000
0010
0000
0100
,
0001
0010
0010
0100
,
1100
0000
0000
1000
0000
1000
0000
0001
,
0100
0010
0010
1000
,
1001
0000
0000
0001
0000
0001
0000
0010
,
0100
0010
0010
0001
,
0101
0000
0000
0100
0000
0100
0000
0010
,
1000
0000
0001
0001
0000
0000
0010
0000
,
1100
0000
1000
0001
1000
0010
0100
0000
,
0110
0000
0010
1000
0001
1000
0001
0000
,
0011
0000
0010
0100
1000
0100
1000
0000
,
1100
0000
0100
1000
0001
0100
0001
1000
,
0100
0000
0010
0001
0010
0001
1000
0000
,
1010
0000
0010
0100
0001
0100
0010
0000
,
0100
0100
0001
0001
1000
0001
0000
1000
,
0001
0000
0010
0100
1000
0100
0010
0000
,
2002
0000
0000
0000
,
0000
0000
0000
0000
,
3003
0000
0000
0000
;

//---------------dance-single - Loodee----------------
#NOTES:
     dance-single:
     Loodee:
     Challenge:
     11:
     0.813,1.000,0.713,0.064,0.885:
0000
0000
0000
0000
,
0000
0000
0000
0000
,
0000
0000
0000
0000
,
0000
0000
0000
0000
,
0000
0000
0000
0000
,
0000
0000
0000
0000
,
0000
0000
0000
0000
,
0000
0000
0000
0000
,
1000
0001
0100
0001
0100
0001
1000
0100
0000
0010
0001
0010
0001
1000
0010
0000
,
0100
0010
1000
0010
0100
0001
1000
0001
0000
0010
0100
1000
0100
0000
1000
0000
,
0001
0100
0010
1000
0001
0010
0001
1000
0000
0010
0100
0010
1000
0000
0001
0000
,
1000
0100
0010
0100
0010
0001
1000
0010
0000
0100
0010
1000
0001
0000
1000
0000
,
0100
0010
0011
0001
0000
0001
1001
1000
,
0001
0000
0010
0000
0110
0000
0100
0000
0000
1000
0100
0000
1100
0000
1000
0000
,
0001
0100
1010
1000
0000
1000
1001
0001
,
0010
0100
0110
0010
0001
1000
0010
0100
,
0110
0000
0000
0000
0000
0000
0000
0000
0000
0000
0110
0000
0010
1000
0000
1001
,
0000
0000
0000
0000
0000
0000
0000
0000
0000
0001
0000
0000
0000
0000
0000
1000
0100
1000
0100
0000
0000
1000
0001
1000
,
0001
0000
0000
0000
0100
0000
0000
0000
0000
0000
1001
0000
1000
0100
0000
0110
,
0000
0000
0000
0000
0000
0000
0000
0000
0000
0000
0000
0000
0010
0000
0000
0000
0000
0000
0000
0000
0000
0000
0000
0000
0001
0000
0000
1000
0000
0000
0010
0000
1000
0000
0010
0000
1000
0000
0000
0001
0000
0000
0010
0000
0100
0000
0010
0000
,
0100
0000
0000
0000
0000
0000
1100
0000
1001
0000
0011
0000
0001
0100
0000
1010
,
0000
0000
0000
0000
0000
0000
0000
0000
0000
0000
0000
0000
0000
0000
0000
0000
0000
0000
0010
0000
0000
0000
0000
0000
1000
0000
0000
0001
0000
0000
0010
0000
0001
0000
0010
0000
0001
0000
0000
0000
0000
0000
1000
0000
0001
0000
1000
0000
,
0001
0000
0000
0000
0000
0000
0000
0000
0000
0000
0101
0000
0100
0010
0000
1001
,
0000
0000
0000
0000
0000
0000
0000
0000
0000
0000
0000
0000
0001
0000
0000
0000
0000
0000
0001
0000
0000
1000
0000
0000
0100
0000
0000
0010
0000
0000
0100
0000
1000
0000
0100
0000
1000
0000
0000
0001
0000
0000
0100
0000
0001
0000
0100
0000
,
0001
0000
0000
0000
1000
0000
1000
0000
0100
0000
0100
0000
1000
0010
0100
0001
,
0000
0000
0000
0000
0000
0000
0000
0000
0000
0010
0000
0000
0001
0000
0000
0000
0000
0000
0100
0000
0000
0001
0000
0000
0010
0000
0000
0000
0000
0000
0100
0000
1000
0000
0100
0000
1000
0000
0000
0000
0000
0000
0001
0000
1000
0000
0001
0000
,
1000
0000
1000
0010
0100
0000
0100
0001
0010
0000
0010
0000
0001
0100
0010
1000
,
0000
0000
0000
0000
0000
0000
0000
0000
0000
0100
0000
0000
1000
0000
0000
0000
0000
0000
0010
0000
0000
0000
0000
0000
0100
0000
0000
0001
0000
0000
1000
0000
0001
0000
1000
0000
0001
0000
0000
0010
0000
0000
0100
0000
1000
0000
0100
0000
,
1000
0001
1000
0001
0100
0000
0100
0000
0010
1000
0001
1000
0010
0000
0010
0000
,
0100
0000
0010
1000
0100
0000
0100
0010
0001
0000
0001
1000
0001
0000
0001
1000
,
0010
0000
0000
0100
0001
0100
0001
0000
0000
1000
0001
1000
0001
0000
0000
1000
0010
1000
0010
0000
0000
1000
0100
1000
,
0100
0000
0000
0010
0000
0000
0001
0000
1000
0000
0001
0000
1000
0000
0000
0010
0000
0000
1000
0000
0001
0000
1000
0000
0001
0000
0000
0010
0000
0000
0100
0000
1000
0000
0100
0000
1000
0000
0000
0100
0000
0000
0010
0000
0000
0001
0000
0000
,
2002
0000
0000
0000
,
0000
0000
0000
0000
0000
0000
0000
0000
0000
0000
0000
0000
0000
0000
0000
3003
,
1000
0000
0000
0000
1000
0000
0001
1000
0000
0001
0000
0000
0001
0000
0010
0100
,
1000
0100
1000
0100
0010
0100
0010
0100
0001
0100
0001
0100
0001
0100
0001
0100
,
1000
0000
0001
0000
0100
0000
0010
0100
0000
0010
0000
0000
0010
0000
0100
0001
,
0010
0000
0110
0000
1100
0000
0110
0000
0011
0000
0001
1000
0000
1000
0010
0000
,
0110
0000
0000
0000
0100
0000
0001
0100
0000
0001
0000
0000
1000
0000
0010
0100
,
0001
0100
0001
0100
0010
0100
0010
0100
1000
0100
1000
0100
1000
0100
1000
0100
,
0010
0000
0100
0000
0001
0000
1000
0001
0000
1000
0000
0000
1000
0000
0100
0010
,
0001
0100
0010
1000
0001
0010
0100
1000
0001
0100
0010
1000
0001
0010
0100
1000
,
0001
0100
0000
0000
0101
0000
0100
0001
0000
0100
0000
0000
0101
0000
0001
0100
,
0000
0001
0000
0000
0101
0000
0000
0100
0000
0001
0100
0001
0100
0000
0000
0001
,
0100
0001
0000
0000
0101
0000
0100
0001
0000
0100
0000
0000
0101
0000
0001
0100
,
0000
0001
0000
0000
0101
0000
0000
0001
1000
0000
1000
0010
0100
0010
1000
0000
,
0100
1000
0000
0000
1100
0000
1000
0100
0000
1000
0000
0000
1100
0000
0100
1000
,
0000
0100
0000
0000
1100
0000
0000
1000
0000
0100
1000
0100
1000
0000
0000
0100
,
1000
0100
0000
0000
1100
0000
1000
0100
0000
1000
0000
0000
1100
0000
0100
1000
,
0001
0100
0001
0100
0010
1000
0010
1000
0001
0010
0001
0010
1000
0000
0010
0000
,
0001
0010
0000
0000
0011
0000
0010
0001
0000
0010
0000
0000
0011
0000
0001
0010
,
0000
0001
0000
0000
0011
0000
0000
0010
0000
0001
0010
0001
0010
0000
0000
0001
,
0010
0001
0000
0000
0011
0000
0010
0001
0000
0010
0000
0000
0011
0000
0001
0010
,
0000
0001
0000
0000
0011
0000
0010
0001
0000
0001
1000
0010
0100
0001
1000
0010
,
1000
0010
0000
0000
1010
0000
1000
0010
0000
1000
0000
0000
1010
0000
0010
1000
,
0000
0010
0000
0000
1010
0000
1000
0010
0000
1000
0000
0000
1010
0000
0010
1000
,
0001
0011
0110
1100
1001
0101
0110
1010
,
1000
0100
0010
0001
1000
0100
0010
0001
1000
0100
1000
0010
0100
0001
0010
0001
,
0022
0000
0000
0000
,
0033
0000
1000
0001
0000
0001
0000
1000
,
1010
0000
0000
0010
0101
0010
1000
0001
,
1000
0000
0010
0000
0110
0000
0100
0001
,
1101
0000
0000
1000
0011
1000
0001
0100
,
0001
0000
1000
0000
1001
0000
0001
0010
,
0111
0000
0000
0001
1010
0001
1000
0100
,
0010
0000
0100
0000
1100
0000
1000
0010
,
1011
0000
0000
1000
0110
1000
0001
0010
,
0100
0000
0000
0000
0010
0000
0010
0000
0000
0001
0000
0000
1000
0000
0000
0000
,
1000
0000
0010
0000
0110
0000
0110
0000
0000
0101
0000
0000
1001
0000
0001
0000
,
1000
0000
0100
0000
0011
0000
0011
0000
0000
1001
0000
0000
1010
0000
1000
0000
,
0001
0000
0100
0000
1010
0000
1010
0000
0000
1100
0000
0000
1001
0000
0001
0000
,
0010
0000
0100
0000
1100
0000
0101
0000
1100
0000
0101
0000
0001
0010
0100
0000
,
0010
0000
0001
0000
0011
0000
0011
0000
0000
1001
0000
0000
1010
0000
0010
0000
,
0100
0000
0001
0000
1001
0000
1001
0000
0000
1010
0000
0000
0011
0000
0010
0000
,
0100
1000
0010
0010
1000
0001
0000
1000
,
0001
0000
0000
0000
1000
0100
1000
0100
0010
0000
0010
0001
0100
0000
0000
0000
,
2222
0000
0000
0000
,
0000
0000
0000
0000
0000
0000
0000
3333
;
