#VERSION:0.82;
#TITLE:Emmene-moi au Futur;
#SUBTITLE:;
#ARTIST:YELLE;
#TITLETRANSLIT:;
#SUBTITLETRANSLIT:;
#ARTISTTRANSLIT:;
#GENRE:;
#ORIGIN:;
#CREDIT:;
#BANNER:bn.png;
#BACKGROUND:bg.png;
#PREVIEWVID:;
#JACKET:jkt.png;
#CDIMAGE:;
#DISCIMAGE:;
#LYRICSPATH:;
#CDTITLE:;
#MUSIC:[Round A] - Emmene-moi au Futur.ogg;
#OFFSET:0.000000;
#SAMPLESTART:116.357147;
#SAMPLELENGTH:13.928574;
#SELECTABLE:YES;
#BPMS:0.000=140.000;
#STOPS:;
#DELAYS:;
#WARPS:;
#TIMESIGNATURES:0.000=4=4;
#TICKCOUNTS:0.000=4;
#COMBOS:0.000=1;
#SPEEDS:0.000=1.000=0.000=0;
#SCROLLS:0.000=1.000;
#FAKES:;
#LABELS:0.000=Song Start;
#BGCHANGES:;
#KEYSOUNDS:;
#ATTACKS:
;

//---------------dance-single - ----------------
#NOTEDATA:;
#CHARTNAME:;
#STEPSTYPE:dance-single;
#DESCRIPTION:;
#CHARTSTYLE:;
#DIFFICULTY:Hard;
#METER:7;
#RADARVALUES:0.527203,0.522665,0.443127,0.636996,0.000000,377.000000,64.000000,92.000000,0.000000,0.000000,0.000000,0.000000,0.000000,0.527203,0.522665,0.443127,0.636996,0.000000,377.000000,64.000000,92.000000,0.000000,0.000000,0.000000,0.000000,0.000000;
#CREDIT:;
#NOTES:
0000
0000
0000
0000
,
0000
0000
0000
0000
,
0000
0000
0000
0000
,
0000
0000
0000
0000
,
2001
0000
0000
0001
0000
0001
0000
3001
,
0000
1000
0100
0000
0011
0000
1100
0000
,
0102
0000
0000
1000
0000
1000
0000
1003
,
0000
0010
0100
0001
1000
0000
1001
0100
,
1000
0100
1000
0001
0100
0001
1000
0020
,
0000
0130
0010
0100
2002
0000
3003
0001
,
0100
0001
1000
0100
1000
0001
0000
1001
,
0000
0010
1000
0100
0220
0000
0330
0010
,
0100
0010
0001
1000
0100
1000
0001
0100
,
0000
0010
0100
0001
2002
0000
3003
0010
,
0100
0001
0100
0010
1000
0001
0010
1100
,
0000
1000
0001
0100
0220
0000
0330
0100
,
0001
0100
0001
1000
0200
0000
1300
0200
,
0000
0310
0100
1000
0001
0000
1001
0001
,
0100
0010
0100
0001
0010
0020
0000
0230
,
0000
1300
0001
0100
0010
0000
0110
0010
,
1000
0001
0100
0001
2000
0000
3100
1000
,
0000
1000
0001
0100
0010
0000
0101
0010
,
1000
0001
1000
0100
0010
0020
0000
0032
,
0000
1003
0100
0010
2002
0000
3003
0010
,
1000
0000
0001
0200
0000
0010
0000
0002
,
0000
0303
1010
0101
,
2000
0100
0000
0001
0000
0010
0000
0002
,
0000
0000
0000
0000
3003
0000
0000
0001
,
0100
0000
1000
0100
0000
0002
0000
2000
,
0000
3003
0011
1100
,
0002
0100
0000
1000
0000
0100
0000
0020
,
0000
0000
0030
0010
0013
0001
1000
0010
,
0100
0000
0001
0100
0000
1010
0000
0102
,
0000
1003
1100
0011
,
0100
2000
0000
0010
0000
3001
0000
2002
,
0000
0000
3003
0010
0100
0001
1000
0100
,
0021
0000
0100
0100
0030
1100
0000
0202
,
0000
0000
0003
0310
1000
0001
1000
0100
,
0011
0100
0000
1100
0000
1001
0000
0220
,
0000
0000
0030
0310
0100
0001
1000
0100
,
0022
0000
0033
2200
0000
3300
2002
0000
,
3003
0001
0100
0010
0100
0001
1000
0000
,
2020
0000
3030
0202
0000
0303
2002
0000
,
3003
0001
0010
0100
1000
0100
0010
0000
,
0022
0000
0033
0202
0000
0303
0220
0000
,
0330
0010
0100
0001
1000
0100
0010
0000
,
0220
0000
0330
2200
0000
3300
2020
0000
,
0000
0000
0000
3030
,
0002
0000
0000
0000
0000
0000
0000
2003
,
0000
0000
0000
0000
,
3020
0000
0000
0000
0000
0000
0000
0230
,
0000
0000
0302
0000
,
2003
0000
0100
0000
0001
0000
0100
3200
,
0000
0001
0010
0001
,
0320
0000
0001
0000
0100
0000
0001
0032
,
0000
0000
0100
0000
1000
1000
1003
0000
,
1000
0100
0001
1000
0001
0100
0000
0110
,
0000
0010
0001
1000
0010
0000
0000
0000
,
0100
1000
0100
0001
2000
0000
3001
0010
,
0000
0100
1001
0000
1000
0010
0100
0000
,
0001
0100
1000
0100
0001
0000
1001
1000
,
0000
0021
0000
0130
2000
0000
3001
0000
,
0100
1000
0100
0001
1000
0100
0010
0011
,
0000
0100
1000
0001
0202
0000
0303
0000
,
0020
0000
2030
0000
,
3002
0000
0023
0000
,
0230
0000
2300
0000
,
0001
0001
0001
3001
,
1001
0000
0100
1000
0000
0101
0000
1100
,
0000
1000
0001
0100
0010
0000
0101
0000
,
0010
1000
0000
1000
0001
0100
0000
0220
,
0000
0000
0330
0100
0001
1000
0100
0010
,
0001
0000
1000
0010
0000
0101
0000
2100
,
0000
0000
3001
0100
1000
0100
0001
1000
,
0001
1000
0000
1000
0001
0011
0000
1020
,
0000
0000
1030
0010
0001
0100
1000
0100
,
0001
0000
1000
0010
0000
0110
0000
2002
,
0000
0000
3003
0001
0100
0010
1000
0100
,
0010
0000
0100
0000
0000
1100
0000
0201
,
0000
0000
0000
0310
1000
0001
1000
0100
,
0010
0000
0001
0010
0000
0110
0000
2002
,
0000
0000
3003
0001
0100
0010
0100
0001
,
2000
0000
0000
0000
0000
0001
0000
0002
,
0000
0000
3003
0100
1000
0100
0001
0010
;

//---------------dance-single - ----------------
#NOTEDATA:;
#CHARTNAME:;
#STEPSTYPE:dance-single;
#DESCRIPTION:;
#CHARTSTYLE:;
#DIFFICULTY:Medium;
#METER:5;
#RADARVALUES:0.387736,0.348444,0.429280,0.470823,0.000000,262.000000,62.000000,68.000000,0.000000,0.000000,0.000000,0.000000,0.000000,0.387736,0.348444,0.429280,0.470823,0.000000,262.000000,62.000000,68.000000,0.000000,0.000000,0.000000,0.000000,0.000000;
#CREDIT:;
#NOTES:
0000
0000
0000
0000
,
0000
0000
0000
0000
,
0000
0000
0000
0000
,
0000
0000
0000
0000
,
2000
0000
0000
0001
0000
0001
0000
3001
,
0000
1000
0001
0000
2002
0000
3003
0000
,
0020
0000
0000
0100
0000
0100
0000
0130
,
0000
0010
0100
0000
0220
0000
0330
0000
,
2100
0000
0000
0001
0000
0001
0000
3100
,
0000
1000
0001
0000
2002
0000
3003
0000
,
0102
0000
0000
0010
0000
0010
0000
0013
,
0000
0010
0100
0000
0220
0000
0330
0000
,
0021
0000
0000
0100
0000
1000
0000
0130
,
0000
1000
0001
0000
2002
0000
3003
0000
,
1020
0000
0000
0100
0000
0001
0000
0130
,
0000
0001
0100
0000
0220
0000
0330
0000
,
0020
0000
0000
1000
0000
0100
0000
1030
,
0000
1000
0001
0000
2002
0000
3003
0000
,
0021
0000
0000
0100
0000
1000
0000
0130
,
0000
0100
1000
0000
2200
0000
3300
0000
,
0201
0000
0000
0010
0000
1000
0000
0310
,
0000
1000
0010
0000
0220
0000
0330
0000
,
0102
0000
0000
1000
0000
0010
0000
0103
,
0000
0001
1000
0000
0220
0000
0330
0000
,
0001
0000
0101
0000
0000
0001
1000
0100
,
0000
0000
0110
0000
0010
0000
0012
0003
,
1000
0000
1100
0000
0000
1000
0001
0100
,
0000
0110
0010
1001
,
0100
0000
1100
0000
0000
1000
0001
0100
,
0000
0100
0010
0000
0100
0000
1001
0000
,
0001
0000
0011
0000
0000
0100
1000
0001
,
0000
0001
0100
0000
0110
0000
1001
0000
,
0101
0000
0010
1000
0000
0100
0000
2200
,
0000
3300
0010
0001
,
1000
0010
0000
0100
0000
0010
0000
2002
,
0000
3003
0001
0100
,
0010
0000
1000
0100
0000
0010
0000
0022
,
0000
0033
0100
1000
,
0001
0100
0000
0010
0000
0100
0000
2002
,
0000
0000
0000
3003
,
0011
0000
0000
1001
0000
0000
0202
0000
,
0000
0000
0000
0303
,
1010
0000
0000
1001
0000
0000
2200
0000
,
0000
0000
0000
3300
,
0011
0000
0000
1100
0000
0000
2002
0000
,
0000
0000
0000
3003
,
0101
0000
0000
1010
0000
0000
2002
0000
,
0000
0000
0000
3003
,
0020
0000
0000
0000
0000
0000
0000
0230
,
0000
0000
0000
0000
,
0302
0000
0000
0000
0000
0000
0000
2003
,
0000
0000
3200
0000
,
0320
0000
0000
0000
0000
0000
0000
0230
,
0000
0000
0000
0000
,
2300
0000
0000
0000
0000
0000
0000
3002
,
0000
0000
0203
0000
,
0310
0000
0010
0000
0100
0000
0010
0100
,
0000
0100
0010
0000
0110
0000
0010
0000
,
1000
0000
0001
0000
1000
0000
0001
1000
,
0000
1000
0001
0000
1001
0000
0100
0000
,
0010
0000
0001
0000
1000
0000
0100
0010
,
0000
0001
1000
0000
0010
0000
0110
0000
,
0100
0000
0001
0000
1000
0000
0100
0010
,
0000
0001
1000
0000
1001
0000
0110
0000
,
0020
0000
0230
0000
,
0302
0000
2003
0000
,
3200
0000
0320
0000
,
0032
1000
1000
1003
,
1001
0000
1000
0000
0000
0010
1000
0100
,
0000
0010
0100
0000
0110
0000
1001
0000
,
0001
0000
0100
0000
0000
0001
1000
0100
,
0000
0010
0100
0000
1100
0000
0101
0000
,
0010
0000
1000
0000
0000
0100
1000
0001
,
0000
0100
0010
0000
1010
0000
0101
0000
,
0001
0000
1000
0000
0000
0100
1000
0010
,
0000
0100
0001
0000
1001
0000
0110
0000
,
0010
0000
0001
1000
0000
0010
0000
0201
,
0000
0310
1000
0100
,
0010
0000
0001
0000
0000
1000
0000
1100
,
0000
0010
0100
1000
0001
0000
0101
0000
,
0100
0000
0010
1000
0000
0010
0000
0200
,
0000
0001
0310
0100
,
0002
0000
0000
0000
0000
1000
0000
2000
,
0000
0000
0000
0000
0000
0000
0000
3003
;

//---------------dance-single - ----------------
#NOTEDATA:;
#CHARTNAME:;
#STEPSTYPE:dance-single;
#DESCRIPTION:;
#CHARTSTYLE:;
#DIFFICULTY:Easy;
#METER:3;
#RADARVALUES:0.227498,0.232642,0.083086,0.283878,0.000000,177.000000,12.000000,41.000000,0.000000,0.000000,0.000000,0.000000,0.000000,0.227498,0.232642,0.083086,0.283878,0.000000,177.000000,12.000000,41.000000,0.000000,0.000000,0.000000,0.000000,0.000000;
#CREDIT:;
#NOTES:
// measure 0
0000
0000
0000
0000
,  // measure 1
0000
0000
0000
0000
,  // measure 2
0000
0000
0000
0000
,  // measure 3
0000
0000
0000
0000
,  // measure 4
1000
0000
1000
0000
,  // measure 5
0001
0000
0001
0000
,  // measure 6
0100
0000
0100
0000
,  // measure 7
0010
0000
0010
0000
,  // measure 8
0110
0000
0100
0000
,  // measure 9
0001
1000
0100
0000
,  // measure 10
0010
0000
0100
0000
,  // measure 11
1000
0001
0100
0000
,  // measure 12
0010
0000
1000
0000
,  // measure 13
0001
0010
0100
0000
,  // measure 14
0010
0000
0001
0000
,  // measure 15
1000
0001
0100
0000
,  // measure 16
0110
0000
0010
0000
,  // measure 17
0100
0001
1000
0100
,  // measure 18
0010
0000
0100
0000
,  // measure 19
1000
0010
0100
0001
,  // measure 20
0010
0000
0001
0000
,  // measure 21
1000
0100
1000
0001
,  // measure 22
0100
0000
0010
0000
,  // measure 23
0100
0001
0010
0100
,  // measure 24
2100
0000
0001
0000
,  // measure 25
3001
0000
0100
0010
,  // measure 26
2000
0000
0010
0000
,  // measure 27
0002
0000
3003
0000
,  // measure 28
0021
0000
0100
0000
,  // measure 29
0031
1000
0010
0100
,  // measure 30
0002
0000
0010
0000
,  // measure 31
2000
0000
3003
0000
,  // measure 32
2010
0000
0001
0000
,  // measure 33
3100
1000
0001
0100
,  // measure 34
0020
0000
1000
0000
,  // measure 35
0200
0000
0330
0000
,  // measure 36
0200
0001
0000
0301
,  // measure 37
1000
0100
0010
0001
,  // measure 38
2000
0000
0010
0000
,  // measure 39
0002
0000
0000
3003
,  // measure 40
0001
0000
0000
1000
0000
0000
2002
0000
,  // measure 41
0000
0000
0000
3003
,  // measure 42
0010
0000
0000
0100
0000
0000
0220
0000
,  // measure 43
0000
0000
0000
0330
,  // measure 44
1000
0000
0000
0001
0000
0000
2002
0000
,  // measure 45
0000
0000
0000
3003
,  // measure 46
0010
0000
0000
0100
0000
0000
0220
0000
,  // measure 47
0000
0000
0000
0330
,  // measure 48
0200
0000
0000
0000
0000
0000
0000
2000
,  // measure 49
0300
0000
0000
0000
,  // measure 50
3002
0000
0000
0000
0000
0000
0000
0200
,  // measure 51
0003
0000
0320
0000
,  // measure 52
2030
0000
0000
0000
0000
0000
0000
0002
,  // measure 53
3000
0000
0000
0000
,  // measure 54
0023
0000
0000
0000
0000
0000
0000
0200
,  // measure 55
0030
0000
2300
0000
,  // measure 56
3001
0000
0001
0000
,  // measure 57
1000
0010
0001
0000
,  // measure 58
1000
0000
1000
0000
,  // measure 59
0001
0010
1000
0000
,  // measure 60
0001
0000
0001
0000
,  // measure 61
0001
0100
1000
0000
,  // measure 62
0001
0000
0001
0000
,  // measure 63
1000
0100
0001
0000
,  // measure 64
2000
0000
3002
0000
,  // measure 65
2003
0000
3002
0000
,  // measure 66
0203
0000
0010
0000
,  // measure 67
0010
0000
0310
0000
,  // measure 68
0110
0000
0010
0000
,  // measure 69
0100
0001
1000
0100
,  // measure 70
0020
0000
0001
0000
,  // measure 71
0130
0000
1000
0001
,  // measure 72
0101
0000
0010
0000
,  // measure 73
1000
0001
0010
0100
,  // measure 74
2000
0000
0100
0000
,  // measure 75
3001
0000
0100
0010
,  // measure 76
1010
0020
0000
0100
,  // measure 77
0000
0100
0000
0130
,  // measure 78
0001
2000
0000
0001
,  // measure 79
0000
0001
0000
3001
,  // measure 80
0020
0100
0000
0100
,  // measure 81
0000
0130
1000
0001
,  // measure 82
0200
0000
0000
0000
,  // measure 83
0000
0000
0000
0000
,  // measure 84
0300
0000
0000
0000
;
