#TITLE:Donkey Donk;
#SUBTITLE:;
#ARTIST:Ryu☆;
#TITLETRANSLIT:;
#SUBTITLETRANSLIT:;
#ARTISTTRANSLIT:Ryu*;
#GENRE:;
#CREDIT:;
#BANNER:;
#BACKGROUND:;
#LYRICSPATH:;
#CDTITLE:;
#MUSIC:[Round A] - Donkey Donk.mp3;
#OFFSET:0.506000;
#SAMPLESTART:100.545967;
#SAMPLELENGTH:12.000000;
#SELECTABLE:YES;
#BPMS:0.000000=155.000000
;
#STOPS:
;
#BGCHANGES:;
#KEYSOUNDS:;
#ATTACKS:;

//---------------dance-single - ----------------
#NOTES:
     dance-single:
     :
     Challenge:
     12:
     0.835894,1.007575,0.298454,0.455534,0.867871,745.000000,707.000000,38.000000,58.000000,0.000000,0.000000,0.835894,1.007575,0.298454,0.455534,0.867871,745.000000,707.000000,38.000000,58.000000,0.000000,0.000000:
0000
0000
0000
0000
,
0000
0000
0000
0000
0000
0000
0000
0000
1000
0100
0000
1000
0001
0100
0001
0100
,
0010
1000
0100
0100
0010
0001
0100
0100
,
0010
1000
0100
0010
0000
0001
0100
0100
,
0010
1000
0100
0100
0010
0001
0100
0100
,
1010
1010
0101
0101
,
1001
0001
0100
0100
0010
1000
0001
0010
,
0100
1000
0100
0010
0011
0000
1001
0000
,
1000
0100
0001
0001
0100
1000
0001
0001
,
1001
1001
2000
3000
,
1001
0000
0000
0000
0001
0010
0001
0010
0000
0000
0001
0000
0000
1000
0000
0010
,
0100
0000
0000
0001
0000
0100
0010
0000
1000
0000
0000
0001
0000
1000
0010
0100
,
0001
0000
0000
0000
1000
0100
0010
0001
0000
0000
1000
0000
0100
0010
0000
0010
,
0001
0000
0000
0001
0000
1000
0010
0000
0100
0000
0000
0001
0000
0100
0010
1000
,
0002
0000
0003
0000
1000
0001
0100
0010
0000
0000
1000
0000
0000
0001
0000
0100
,
0010
0000
0000
1000
0000
0010
0100
0000
0001
0000
1000
0000
0100
0010
0001
0010
,
0000
0000
0000
0000
0001
0100
0010
1000
0000
0000
0001
0000
1000
0010
0000
0010
,
0100
0001
0100
0100
0020
0000
1030
0001
,
0100
0001
1000
1000
0010
0100
0001
0001
,
0010
0001
0010
0010
1100
0000
0011
0000
,
0001
0100
0010
0010
1000
0100
0010
0010
,
0001
0100
0010
0010
1000
0000
0010
0000
,
1000
0100
0001
0001
0100
1000
0010
0010
,
0001
0010
1000
1000
0000
0010
0100
0001
,
1000
0010
0100
0100
0001
0100
0010
0010
,
1010
0000
1001
0000
0001
0100
0010
1000
,
0200
0300
0020
0030
,
0001
0010
0100
1000
0100
0010
0001
0100
0010
1000
0001
0010
0100
1000
0100
0010
,
0001
0100
0010
1000
0001
0010
0100
1000
0100
0010
0001
0100
0010
1000
0001
0010
,
0100
1000
0100
0010
0001
0100
0010
1000
0001
0010
0100
1000
0001
1000
0001
0000
,
1000
0100
0010
0001
0010
0100
1000
0001
0100
0010
1000
0001
0010
0100
1000
0100
,
0010
0001
0100
0010
1000
0001
0010
0001
1000
0100
0010
0001
0010
0100
1000
0001
,
0100
0010
1000
0100
0010
0001
0010
0100
1000
0001
0100
0010
1000
0100
0010
0100
,
1000
0010
0100
0001
0200
0000
0320
0030
,
1010
0000
0000
0000
0010
0100
0000
0001
0000
0100
0010
1000
0020
0000
0230
0000
,
0302
0203
2300
3200
0302
0023
2030
3020
,
0032
0000
0003
0000
0100
0010
0000
1000
0000
0010
0100
0001
0200
0000
0320
0000
,
0000
1030
0100
0010
0002
0003
0200
0300
,
1010
0000
0000
0000
1000
0001
0000
0100
0000
0010
1000
0100
1000
0000
0001
0000
,
0200
0310
2000
3100
0020
0031
0200
0310
,
2000
0000
0000
0000
3001
0100
0000
0100
0000
0010
1000
0001
0100
0000
0010
0000
,
1000
0010
0010
0100
0001
0100
0010
1000
,
0200
0000
0000
0000
0310
0001
0000
1000
0000
0010
0100
0001
0200
0000
0320
0000
,
2030
3100
0002
0103
2000
3010
0200
0301
,
1000
0000
0000
0000
0001
0010
0000
0001
0000
1000
0100
0010
0001
0000
0100
0000
,
0020
1030
0010
0100
0020
1030
0020
1030
,
1001
0000
0000
0000
0001
0100
0000
0010
0000
1000
0100
1000
0001
0000
0010
0000
,
0200
1300
0002
0103
0020
1030
0200
0310
,
0001
0000
0000
0000
1000
0001
0000
0100
0000
0010
1000
0001
0100
0000
0010
0000
,
1010
1001
0101
1001
,
0001
0000
0010
0000
0100
1000
0100
0000
0010
0001
0000
0001
0010
0000
0001
1000
,
0001
0000
0100
0010
1000
0100
0010
0001
0100
0001
1000
0001
0100
0000
0010
1000
,
0100
0010
0001
0010
0100
1000
0001
0100
0010
1000
0000
1000
0010
0000
0100
0001
,
0100
0010
1000
0100
0010
0001
0010
0100
1000
0001
0000
0001
1000
0000
0100
0010
,
0001
0010
0100
1000
0001
0100
0010
1000
0100
0010
0000
0001
0010
0001
1000
0010
,
1000
0001
0100
0010
1000
0100
0010
0001
0100
0010
0000
1000
0010
0000
0100
0001
,
0100
0010
1000
0100
0010
0001
0100
0010
1000
0010
0000
0010
1000
0000
0001
1000
,
0001
0010
0100
1000
0100
0010
0001
0100
0010
1000
0100
0010
0001
0100
0010
1000
,
0001
0100
0010
1000
0001
0010
0100
1000
0100
0010
0001
0100
0010
1000
0100
0010
,
0001
0100
0001
0100
0010
1000
0010
1000
0001
0010
0001
0010
0100
1000
0100
1000
,
0001
0100
0010
1000
0001
1000
0100
0010
0200
0000
0000
0000
0000
0000
0000
0000
,
1300
0001
0100
0010
1000
0100
0010
0001
,
0200
0000
0000
0000
0310
1000
0000
0010
0000
0100
0001
0100
0010
0000
0110
0000
,
1000
0000
0001
0000
0100
0010
0100
0010
1000
0000
0100
0000
1100
0000
1000
0000
,
1002
0000
0000
0000
0103
0010
0000
1000
0000
0010
0100
0001
2000
0000
3100
0000
,
0020
0031
0200
0310
2000
3010
0200
0301
,
2000
0000
0000
0000
3001
0100
0000
0010
0000
1000
0100
1000
0001
0000
1000
0000
,
0010
0100
0001
0100
0101
0010
1010
1000
,
0002
0000
0000
0000
1003
0010
0000
0100
0000
0001
0100
0010
1000
0000
0101
0000
,
0011
0000
0101
0000
0010
1000
0001
0100
,
0020
0000
0000
0000
1030
0001
0000
0100
0000
0010
1000
0100
1000
0000
0011
0000
,
0002
0103
0020
1030
1010
1000
1001
0001
,
0201
0000
0000
0000
0310
1000
0000
0100
0000
0010
0001
0100
0020
0000
1030
0000
,
0020
0130
0001
1000
1001
0000
1001
0000
,
2000
0000
0000
0000
3010
0100
0000
0001
0000
1000
0100
0010
0001
0000
0010
0000
,
0100
1000
0100
0010
0011
0001
1001
1000
,
1010
0000
0000
0000
0010
0100
0000
0001
0000
0100
0010
1000
0100
0000
0010
0000
,
0001
0100
0010
1000
;

//---------------dance-single - ----------------
#NOTES:
     dance-single:
     :
     Hard:
     9:
     0.637299,0.641184,0.157081,0.157081,0.400556,568.000000,548.000000,20.000000,20.000000,0.000000,0.000000,0.637299,0.641184,0.157081,0.157081,0.400556,568.000000,548.000000,20.000000,20.000000,0.000000,0.000000:
0000
0000
0000
0000
,
0000
0000
0000
0000
,
0100
1000
0100
0100
0010
0001
0100
0100
,
0010
1000
0100
0010
0000
0001
0100
0100
,
0010
1000
0100
0100
0010
0001
0100
0100
,
0010
0010
0100
0100
,
1001
0001
0100
0100
0010
1000
0001
0010
,
0100
1000
0100
0010
0001
0000
1000
0000
,
1000
0100
0001
0001
0100
1000
0001
0001
,
1001
0001
2000
3000
,
1001
0000
0000
0000
0001
0010
0001
0010
0000
0000
0001
0000
0000
1000
0000
0010
,
0100
0000
0000
0001
0000
0100
0010
0000
1000
0000
0000
0001
0000
1000
0010
0100
,
0001
0000
0000
0000
1000
0100
0010
0001
0000
0000
1000
0000
0100
0010
0000
0010
,
0001
0000
0000
0001
0000
1000
0010
0000
0100
0000
0000
0001
0000
0100
0010
1000
,
0002
0000
0003
0000
1000
0001
0100
0010
0000
0000
1000
0000
0000
0001
0000
0100
,
0010
0000
0000
1000
0000
0010
0100
0000
0001
0000
1000
0000
0100
0010
0001
0010
,
0000
0000
0000
0000
0001
0100
0010
1000
0000
0000
0001
0000
1000
0010
0000
0010
,
0100
0001
0100
0100
0020
0000
1030
0001
,
0100
0001
1000
1000
0010
0100
0001
0001
,
0010
0001
0010
0010
1100
0000
0011
0000
,
0001
0100
0010
0010
1000
0100
0010
0010
,
0001
0100
0010
0010
1000
0000
0010
0000
,
1000
0100
0001
0001
0100
1000
0010
0010
,
0001
0010
1000
1000
0000
0010
0100
0001
,
1000
0010
0100
0100
0001
0100
0010
0010
,
1010
0000
1001
0000
0001
0100
0010
1000
,
0200
0300
0020
0030
,
0002
0000
0203
0310
,
2000
0000
3002
0000
,
0203
0000
0320
1030
,
0001
0010
0001
0000
1000
0010
0000
0100
0001
0100
0001
0000
1000
0100
0000
0010
,
0001
0100
0010
1000
0100
0010
0001
0010
,
0100
0010
0001
0010
0100
1000
0001
1000
,
0001
0010
0100
1000
0010
0000
1000
0000
,
1010
0000
0000
0000
0010
0100
0000
0001
0000
0100
0010
1000
0010
0000
0100
0000
,
0001
0100
1000
0100
0001
0010
1000
0010
,
0001
0000
0000
0000
0100
0010
0000
1000
0000
0010
1000
0001
0100
0000
0020
0000
,
0000
0031
0100
0010
1000
0000
0001
0000
,
1010
0000
0000
0000
1000
0001
0000
0100
0000
0010
1000
0100
1000
0000
0001
0000
,
0100
0010
1000
0100
0010
0001
0100
0010
,
2000
0000
0000
0000
3001
0100
0000
0100
0000
0010
1000
0001
0100
0000
0010
0000
,
1000
0010
0010
0100
0001
0100
0010
1000
,
0200
0000
0000
0000
0310
0001
0000
1000
0000
0010
0100
0001
0100
0000
0010
0000
,
1000
0100
0001
0100
1000
0010
0001
0010
,
1000
0000
0000
0000
0001
0010
0000
0001
0000
1000
0100
0010
0001
0000
0100
0000
,
0010
1000
0010
0100
0010
1000
0010
1000
,
1001
0000
0000
0000
0001
0100
0000
0010
0000
1000
0100
1000
0001
0000
0010
0000
,
0100
1000
0001
0100
0010
1000
0100
0010
,
0001
0000
0000
0000
1000
0001
0000
0100
0000
0010
1000
0001
0100
0000
0010
0000
,
1010
1001
0101
1001
,
1010
0010
0100
0001
,
0010
0001
0010
0001
0010
0000
0001
0000
,
0100
0010
0100
0010
0100
0000
0010
0000
,
1000
0000
0001
0000
0100
0010
0100
0010
,
1000
0001
0010
0001
,
0100
0010
0100
0000
0001
0000
0010
0000
,
0011
0000
0001
0000
0100
0010
0100
0000
,
1000
0000
0001
0000
0100
0010
1000
0000
,
0001
0010
0001
0010
0001
1000
0001
1000
,
0010
0100
0010
0100
0001
0010
0001
0010
,
0001
1000
0001
1000
0200
0000
0000
0000
,
1300
0001
0100
0010
1000
0100
0010
0001
,
0200
0000
0000
0000
0310
1000
0000
0010
0000
0100
0001
0100
0010
0000
1000
0000
,
0001
0000
1000
0000
0100
0010
0100
0010
0100
0000
1000
0000
0001
0000
1000
0000
,
0002
0000
0000
0000
0103
0010
0000
1000
0000
0010
0100
0001
0100
0000
0010
0000
,
1000
0100
0010
0001
0010
0100
0010
0001
,
0100
0000
0000
0000
1000
0100
0000
0010
0000
0001
0100
0010
1000
0000
0010
0000
,
0100
0001
0100
0001
0100
0010
1000
0001
,
2000
0000
0000
0000
3001
0010
0000
0100
0000
1000
0100
0010
0001
0000
0100
0000
,
0001
0000
0101
0000
0010
1000
0001
0100
,
0020
0000
0000
0000
1030
0001
0000
0100
0000
0010
1000
0100
1000
0000
0010
0000
,
1000
0100
0010
0100
0010
1000
0010
0100
,
0001
0000
0000
0000
0100
0010
0000
1000
0000
0010
0100
0001
0010
0000
0100
0000
,
1000
0100
0010
0001
1001
0000
1001
0000
,
2000
0000
0000
0000
3010
0100
0000
0001
0000
1000
0100
0010
0001
0000
0010
0000
,
0100
1000
0100
0010
0001
0000
1000
0000
,
1010
0000
0000
0000
0010
0100
0000
0001
0000
0100
0010
1000
0100
0000
0010
0000
,
0001
0100
0010
1000
;

//---------------dance-single - ----------------
#NOTES:
     dance-single:
     :
     Medium:
     5:
     0.366896,0.427456,0.369140,0.196351,0.000000,327.000000,280.000000,47.000000,25.000000,0.000000,0.000000,0.366896,0.427456,0.369140,0.196351,0.000000,327.000000,280.000000,47.000000,25.000000,0.000000,0.000000:
0000
0000
0000
0000
,
1000
0000
0000
0000
,
0001
0100
0010
1000
,
0002
0000
0100
0000
0100
0000
0100
0003
,
0010
1000
0010
0100
,
0002
0010
0010
0013
,
0010
1000
0010
0100
,
0001
0010
0001
0100
,
0010
1000
0010
0100
,
0001
0001
0001
0001
,
1001
0010
0100
0001
,
0010
0100
1000
0001
,
0100
0001
1000
1001
,
0010
1001
0100
0010
,
0001
1001
0010
0110
,
0001
0011
0100
1100
,
1000
0001
0100
0010
,
1000
0000
0001
0000
,
1001
0010
0100
0001
,
0010
0100
1000
0001
,
0100
0010
1000
0001
,
0010
0001
1001
1001
,
1001
0010
0100
0010
,
1000
0001
2000
3010
,
0100
0001
0010
0001
,
0100
0100
0100
0100
,
0110
0000
0010
0000
,
2000
0000
3002
0000
,
0203
0000
0320
0000
,
2030
0000
3002
0013
,
0200
0000
2300
0000
,
3002
0000
0103
0010
,
2000
0000
3002
0000
,
0103
0010
1000
0000
,
1001
0001
0100
0010
,
1001
0010
0100
0001
,
0011
0001
0100
0010
,
1000
0001
0100
0100
,
1001
0010
0100
0001
,
0020
0031
0200
0320
,
1030
0001
0100
0010
,
1000
0000
1001
1001
,
0110
0001
0010
0001
,
0100
0010
2000
3001
,
0100
0010
1000
0100
,
0001
0100
1001
1001
,
0110
0001
0010
0100
,
1000
0001
0100
0010
,
1010
0010
0100
0001
,
0011
0001
1001
1001
,
0110
0001
1000
0100
,
0001
0100
1000
0010
,
0001
0010
1000
0100
,
0001
0100
1000
0010
,
0110
0010
1000
0001
,
0010
0010
0200
2300
,
3001
0100
0010
1000
,
1001
0010
0010
0010
,
1001
0010
0100
0001
,
1001
0010
0100
0000
,
0110
0110
0110
0110
,
2002
0000
0000
3003
,
0001
1000
0010
0000
,
0100
0001
0010
0010
,
0001
0000
0001
0100
,
0010
1000
0010
1000
,
1001
0010
0100
0001
,
0010
0100
1000
0001
,
1001
0010
0100
0010
,
1001
0000
0000
0000
,
1001
0010
0100
0010
,
2000
3200
0320
0031
,
1001
0010
0100
0001
,
0010
0100
1001
1001
,
0110
0001
0010
0100
,
1000
0001
0100
0100
,
0110
0001
1000
0001
,
1001
1001
0010
0010
;

//---------------dance-single - ----------------
#NOTES:
     dance-single:
     :
     Beginner:
     1:
     0.114445,0.213041,0.109957,0.000000,0.000000,102.000000,88.000000,14.000000,0.000000,0.000000,0.000000,0.114445,0.213041,0.109957,0.000000,0.000000,102.000000,88.000000,14.000000,0.000000,0.000000,0.000000:
0000
0000
0000
0000
,
0000
0000
0000
0000
,
1000
0000
0000
0000
,
0010
0000
0000
0000
,
0100
0000
0000
0000
,
0001
0000
0000
0000
,
1001
0000
0000
0000
,
0010
0000
0000
0000
,
0100
0000
0000
0000
,
0000
0000
0000
0000
,
1001
0000
0000
0000
,
0000
0000
0000
0000
,
1000
0000
0000
0000
,
0000
0000
0000
0000
,
1001
0000
0000
0000
,
0010
0000
0000
0000
,
0100
0000
0000
0000
,
0001
0000
0000
0000
,
1001
0000
0000
0000
,
0010
0000
0000
0000
,
0100
0000
0000
0000
,
0001
0000
0000
0000
,
1001
0000
0000
0000
,
0010
0000
0000
0000
,
0100
0000
0000
0000
,
0010
0000
0000
0000
,
0110
0000
0000
0000
,
0010
0000
0000
0000
,
0100
0000
0010
0000
,
1000
0000
0000
0000
,
0001
0000
1000
0000
,
0010
0000
0000
0000
,
0100
0000
0001
0000
,
1000
0000
0000
0000
,
1001
0000
0000
0000
,
0010
0000
1000
0000
,
0001
0000
0000
0000
,
0100
0000
0010
0000
,
1001
0000
0000
0000
,
0010
0000
0000
0000
,
0100
0000
0000
0000
,
0010
0000
0000
0000
,
1001
0000
0000
0000
,
0010
0000
1000
0000
,
0001
0000
0000
0000
,
0100
0000
0010
0000
,
1001
0000
0000
0000
,
0010
0000
0000
0000
,
1000
0000
0000
0000
,
0001
0000
0000
0000
,
0100
0000
0000
0000
,
0010
0000
0000
0000
,
1000
0000
0000
0000
,
0010
0000
0000
0000
,
1001
0000
0000
0000
,
0100
0000
0000
0000
,
0010
0000
0000
0000
,
1000
0000
0000
0000
,
1001
0000
0000
0000
,
1001
0000
0000
0000
,
0001
0001
0001
0001
,
0001
0000
0000
0000
,
0010
0000
0000
0000
,
0100
0000
0000
0000
,
1000
0000
0000
0000
,
0010
0000
0100
0000
,
0100
0000
0000
0000
,
0010
0000
1000
0000
,
0001
0000
0100
0000
,
0010
0000
0010
0000
,
1001
0000
0000
0000
,
0100
0000
0000
0000
,
1000
0000
0000
0000
,
0001
0000
0000
0000
,
0100
0000
0000
0000
,
0010
0000
0000
0000
,
1000
0000
0000
0000
,
0001
0000
1000
0000
;

//---------------dance-single - ----------------
#NOTES:
     dance-single:
     :
     Easy:
     4:
     0.273769,0.426082,0.227767,0.086394,0.000000,244.000000,215.000000,29.000000,11.000000,0.000000,0.000000,0.273769,0.426082,0.227767,0.086394,0.000000,244.000000,215.000000,29.000000,11.000000,0.000000,0.000000:
// measure 0
0000
0000
0000
0000
,  // measure 1
0000
0000
0000
0000
,  // measure 2
1001
0000
0001
0100
,  // measure 3
0010
0000
0010
0010
,  // measure 4
0010
0000
1000
0001
,  // measure 5
0100
0100
0100
0100
,  // measure 6
1001
0000
0010
1000
,  // measure 7
0001
0001
0000
0000
,  // measure 8
0100
0010
1000
0001
,  // measure 9
1001
0000
0001
0000
,  // measure 10
1001
0000
0010
0000
,  // measure 11
1000
0000
0001
0000
,  // measure 12
1000
0000
0000
0010
,  // measure 13
0000
0010
0010
0010
,  // measure 14
1001
0000
0100
0000
,  // measure 15
0010
0000
1000
0000
,  // measure 16
0001
0000
0100
0000
,  // measure 17
0010
1000
0001
1000
,  // measure 18
1001
0000
0000
0000
,  // measure 19
0020
0000
0230
0000
,  // measure 20
0302
0000
0023
0000
,  // measure 21
0230
0000
2300
0000
,  // measure 22
3001
0000
0100
0000
,  // measure 23
0010
0000
2000
0000
,  // measure 24
3002
0000
0203
0000
,  // measure 25
0320
0000
2030
3000
,  // measure 26
1001
0000
0010
0000
,  // measure 27
0100
0000
0001
0000
,  // measure 28
0100
0000
0010
0000
,  // measure 29
1000
0000
0001
0000
,  // measure 30
0100
0000
0010
0000
,  // measure 31
1000
0000
0001
0001
,  // measure 32
1000
1000
0010
0010
,  // measure 33
0100
0100
0100
0100
,  // measure 34
1001
0000
0001
0100
,  // measure 35
1000
0100
0001
0001
,  // measure 36
0100
0000
0010
1000
,  // measure 37
0010
0100
0001
0000
,  // measure 38
1001
0000
0010
1000
,  // measure 39
0010
0000
0100
0001
,  // measure 40
0100
0000
0010
1000
,  // measure 41
0010
0000
0010
0000
,  // measure 42
1001
0000
0100
0001
,  // measure 43
0010
0001
0100
0010
,  // measure 44
1000
0000
0010
1000
,  // measure 45
0001
0100
0010
0010
,  // measure 46
1001
0000
1000
0001
,  // measure 47
0100
0010
1000
0100
,  // measure 48
0010
0000
0001
0100
,  // measure 49
0010
1000
0001
1000
,  // measure 50
1001
0000
0001
0000
,  // measure 51
0001
0000
1000
1000
,  // measure 52
0010
0000
0100
0000
,  // measure 53
0001
0001
0001
0001
,  // measure 54
1001
0010
0010
0000
,  // measure 55
0100
0100
0100
0000
,  // measure 56
0010
0010
0010
0000
,  // measure 57
1001
0000
0001
0000
,  // measure 58
1001
0000
0000
0000
,  // measure 59
0110
0000
1001
0000
,  // measure 60
0110
0110
0110
0110
,  // measure 61
1001
0000
0000
0000
,  // measure 62
1001
0000
0000
0000
,  // measure 63
0010
1000
0001
0001
,  // measure 64
1001
0000
0010
0100
,  // measure 65
0001
0010
0001
0100
,  // measure 66
0010
1000
0010
0100
,  // measure 67
0001
1000
0001
0001
,  // measure 68
1001
0000
0010
1000
,  // measure 69
0010
0010
0010
0010
,  // measure 70
1001
0000
0100
0001
,  // measure 71
0010
0001
0100
0010
,  // measure 72
0110
0000
1000
0010
,  // measure 73
0100
0001
0010
0001
,  // measure 74
1001
0000
1000
0010
,  // measure 75
0100
0100
0010
0010
,  // measure 76
1001
0000
1000
0001
,  // measure 77
1000
0001
1000
0000
;
