#TITLE:Blue Hunnids;
#SUBTITLE:;
#ARTIST:Kool John feat. P-Lo;
#TITLETRANSLIT:;
#SUBTITLETRANSLIT:;
#ARTISTTRANSLIT:;
#GENRE:;
#CREDIT:;
#BANNER:[Round A] - Blue Hunnids.png;
#BACKGROUND:[Round A] - Blue Hunnids-bg.png;
#LYRICSPATH:;
#CDTITLE:;
#MUSIC:[Round A] - Blue Hunnids.ogg;
#OFFSET:-0.013000;
#SAMPLESTART:13.346000;
#SAMPLELENGTH:13.281000;
#SELECTABLE:YES;
#DISPLAYBPM:144.000000;
#BPMS:0.000000=144.000000
;
#STOPS:280.000000=2.500000,
306.000000=2.500000
;
#BGCHANGES:;
#KEYSOUNDS:;
#ATTACKS:;

//---------------dance-single - ----------------
#NOTES:
     dance-single:
     :
     Hard:
     8:
     0.463626,0.576294,0.361355,0.040908,0.146588,476.000000,423.000000,53.000000,6.000000,0.000000,0.000000,0.463626,0.576294,0.361355,0.040908,0.146588,476.000000,423.000000,53.000000,6.000000,0.000000,0.000000:
// measure 0
1001
0000
0000
0000
0100
0000
0100
1000
,  // measure 1
0100
0010
0001
1000
0100
0000
0100
0000
,  // measure 2
0110
0000
0000
0000
0001
0000
0001
0010
,  // measure 3
0001
1000
0100
0010
0001
0000
0001
0000
,  // measure 4
1001
0000
0000
0000
0010
0000
0010
0001
,  // measure 5
0010
0000
1000
0001
0010
0000
0010
0000
,  // measure 6
0110
0000
1000
1000
0001
0000
0010
0000
,  // measure 7
1000
0100
1000
1000
,  // measure 8
1100
0000
0001
0000
0010
0000
1000
0100
,  // measure 9
0001
0010
1000
0001
0100
0000
0010
0000
,  // measure 10
0011
0000
1000
0000
0100
0000
0001
0010
,  // measure 11
1000
0100
0001
1000
0010
0000
0100
0000
,  // measure 12
1010
0000
0100
0000
0001
0000
0010
1000
,  // measure 13
0010
0000
0001
0100
0001
0000
1000
0000
,  // measure 14
0101
0000
0010
0000
1000
0000
0001
0010
,  // measure 15
1000
0100
1000
0001
0100
0000
0010
0000
,  // measure 16
0000
0000
1000
1000
0010
0000
0001
0000
,  // measure 17
1000
0001
0100
0000
0010
0100
0001
0000
,  // measure 18
1001
0000
0010
0000
0110
0000
1000
0001
,  // measure 19
0100
0001
0010
1000
0100
0000
1000
0000
,  // measure 20
0110
0000
0010
0000
1000
0100
0001
0000
,  // measure 21
0001
0010
1000
0100
0001
0000
1000
0000
,  // measure 22
1001
0000
0010
0001
0010
0000
1100
0000
,  // measure 23
0001
1000
0100
0010
0001
0000
0100
0000
,  // measure 24
1000
0100
0010
0001
1000
0000
0011
0000
,  // measure 25
0001
0010
0100
1000
0001
0000
1100
0000
,  // measure 26
0100
0010
0100
0000
0110
0000
0000
0000
,  // measure 27
0001
0000
0000
0000
1000
0000
0000
0000
0001
0000
0000
0000
0000
0000
0000
0000
1001
0000
0000
0000
0000
0000
0000
0000
0000
0000
0000
0000
0100
0000
0000
0001
,  // measure 28
0000
0000
0010
0000
0000
1000
0000
0000
0100
0000
0000
0000
0000
0000
0000
0000
0001
0000
0000
0000
0100
0000
0000
0000
1000
0000
0000
0000
0010
0000
0000
1000
,  // measure 29
0000
0000
0001
0000
0000
0010
0000
0000
0100
0000
0000
0000
0000
0000
0000
0000
0011
0000
0000
0000
0000
0000
0000
0000
0000
0000
0000
0000
0000
0000
0000
0000
,  // measure 30
1000
0100
1000
0000
0001
0010
0001
0000
,  // measure 31
1000
0000
0001
0000
0000
1000
0010
0000
,  // measure 32
0100
0000
0000
0000
0000
0000
0000
0000
0001
0000
0000
0000
0000
0000
0000
0000
0010
0000
0000
0100
0000
0000
0001
0000
0000
1000
0000
0000
0100
0000
0000
0001
,  // measure 33
0000
0000
0010
0000
0000
1000
0000
0000
0100
0000
0000
0000
0000
0000
0000
0000
1010
0000
0000
0000
0000
0000
0000
0000
0000
0000
0000
0000
0000
0000
0000
0000
,  // measure 34
0101
0000
0000
0000
1000
0000
0000
0000
0010
0000
0000
0000
0000
0000
0000
0000
1010
0000
0000
0000
0000
0000
0000
0000
0100
0000
0000
0010
0000
0000
0001
0000
,  // measure 35
0000
1000
0000
0000
0010
0000
0000
0100
0000
0000
0001
0000
0000
1000
0000
0000
0001
0000
0000
0000
0010
0000
0000
0000
0100
0000
0000
0000
0000
0000
0000
0000
,  // measure 36
1001
0000
0010
0000
0100
0001
0010
1000
,  // measure 37
0100
0010
1000
0000
0001
0000
0000
0000
,  // measure 38
0010
0000
0000
0000
0100
0000
0000
0000
0001
0000
0000
0000
0000
0000
0000
0000
1000
0000
0000
0000
0000
0000
0000
0000
0010
0000
0000
0001
0000
0000
0100
0000
,  // measure 39
0000
1000
0000
0000
0010
0000
0000
0100
0000
0000
0001
0000
0000
0010
0000
0000
1000
0000
0000
0000
0000
0000
0000
0000
0000
0000
0000
0000
0000
0000
0000
0000
,  // measure 40
1001
0000
0000
0000
0100
0000
0100
1000
,  // measure 41
0100
0010
0001
1000
0100
0000
0100
0000
,  // measure 42
0110
0000
0000
0000
1000
0000
1000
0010
,  // measure 43
1000
0001
0100
0010
1000
0000
1000
0000
,  // measure 44
1001
0000
0000
0000
0010
0000
0010
1000
,  // measure 45
0010
0000
0001
1000
0010
0000
0010
0000
,  // measure 46
0110
0000
0001
0001
1000
0000
0010
0000
,  // measure 47
0001
0100
0001
0001
,  // measure 48
0110
0000
1000
0000
0001
0000
0001
0010
,  // measure 49
0001
1000
0100
0010
0001
0000
0001
0000
,  // measure 50
1001
0000
0100
0000
0010
0000
0010
1000
,  // measure 51
0010
0100
0001
1000
0010
0000
0010
0000
,  // measure 52
0110
0000
0001
0000
1000
0000
1000
0010
,  // measure 53
1000
0000
0100
0010
1000
0000
1010
0000
,  // measure 54
1001
0000
0100
0010
0000
0000
1001
0000
,  // measure 55
0101
0011
1100
1010
,  // measure 56
0010
1100
0000
0001
,  // measure 57
0010
1000
0100
0011
,  // measure 58
1100
0000
0000
0010
0001
0010
0001
0000
,  // measure 59
0001
0100
1000
0000
0101
0000
1010
0000
,  // measure 60
0001
0000
0000
0000
1000
0001
0010
0000
,  // measure 61
0100
0000
1000
0100
0010
0000
0001
0000
,  // measure 62
1000
0010
0010
0010
0100
0001
1000
0000
,  // measure 63
0010
0000
0100
1000
0010
0000
0001
0000
,  // measure 64
2002
0000
0000
0000
0000
0000
0000
3003
0110
0000
1000
0000
0010
0000
0100
0000
,  // measure 65
0001
0000
1000
0100
0001
0010
0100
0001
,  // measure 66
1010
0000
0000
0000
0000
0000
0000
0000
0100
0000
0000
0010
0000
0000
1000
0000
0000
0001
0000
0000
0100
0000
0000
1000
0000
0000
0010
0000
0000
0001
0000
0000
,  // measure 67
0010
0000
0000
0100
0000
0000
1000
0000
0000
0001
0000
0000
0100
0000
0000
1000
0000
0000
0010
0000
0000
0100
0000
0000
0001
0000
0000
0000
0000
0000
0000
0000
,  // measure 68
1100
0000
0110
1000
,  // measure 69
0100
0000
0000
0000
0010
0000
0000
0000
0001
0000
0000
0000
0100
0010
0000
0000
,  // measure 70
1001
0100
0001
0000
1000
0000
0100
0000
,  // measure 71
0010
0100
1000
0010
0001
1000
0100
0000
,  // measure 72
0010
0000
0000
0000
1000
0100
0010
0000
,  // measure 73
0110
0000
0000
0000
0000
0000
0000
0000
0001
0000
0000
0010
0000
0000
0100
0000
0000
1000
0000
0000
0010
0000
0000
0001
0000
0000
0100
0000
0000
1000
0000
0000
,  // measure 74
0001
0100
0010
0000
1000
0000
0001
0000
,  // measure 75
0100
0001
0010
1000
0001
0100
1000
0000
,  // measure 76
0100
0000
0110
0001
,  // measure 77
1000
0000
0100
0001
,  // measure 78
0000
1000
0100
0000
0011
0000
0000
0000
,  // measure 79
2200
0000
0000
0000
0000
3300
0202
0000
,  // measure 80
0303
0010
1000
0000
0110
0000
0000
0000
;

//---------------dance-single - ----------------
#NOTES:
     dance-single:
     :
     Medium:
     7:
     0.409082,0.411638,0.320447,0.027272,0.044317,420.000000,373.000000,47.000000,4.000000,0.000000,0.000000,0.409082,0.411638,0.320447,0.027272,0.044317,420.000000,373.000000,47.000000,4.000000,0.000000,0.000000:
1001
0000
0000
0000
0010
0000
0010
0001
,
0010
0000
1000
0100
0010
0000
0010
0000
,
0110
0000
0000
0000
1000
0000
1000
0100
,
1000
0000
0010
0001
1000
0000
1000
0000
,
1001
0000
0000
0000
0100
0000
0100
1000
,
0100
0000
0001
1000
0100
0000
0100
0000
,
0110
0000
0001
0001
1000
0000
0100
0000
,
0001
0010
0001
0001
,
0011
0000
1000
0000
0100
0000
0001
0010
,
1000
0000
0001
1000
0010
0000
0100
0000
,
1100
0000
0001
0000
0010
0000
1000
0100
,
0001
0000
1000
0001
0100
0000
0010
0000
,
0101
0000
0010
0000
1000
0000
0100
0001
,
0100
0000
1000
0010
1000
0000
0001
0000
,
1010
0000
0100
0000
0001
0000
1000
0100
,
0001
0000
0001
1000
0010
0000
0100
0000
,
0000
0000
0001
0001
0100
0000
1000
0000
,
0001
1000
0010
0000
0100
0010
1000
0000
,
1001
0100
0110
0001
,
0010
0100
0010
0001
,
0110
0000
0100
0000
0001
0010
1000
0000
,
1000
0010
1000
0100
,
1001
0000
0100
1000
0100
0000
0011
0000
,
1000
0010
0001
0100
,
0001
0010
0100
1000
0001
0000
1100
0000
,
1000
0100
0010
0001
1000
0000
0011
0000
,
0010
0100
0010
0000
0110
0000
0000
0000
,
1000
0001
1000
0000
1001
0000
0000
1000
,
0100
0000
0100
0000
1000
0100
0010
0000
,
0001
1000
0100
0000
1100
0000
0000
0000
,
0001
0010
0001
0000
1000
0100
1000
0000
,
0001
0000
1000
0000
0000
0001
0100
0000
,
0010
0000
0000
0000
1000
0000
0000
0000
0100
0000
0000
1000
0000
0000
0010
0000
,
0000
0100
0000
0000
0010
0000
0000
0000
0101
0000
0000
0000
0000
0000
0000
0000
,
1010
0000
0001
0000
0100
0000
0000
0000
0101
0000
0000
0000
0010
0000
0000
1000
,
0000
0000
0100
0000
0000
0001
0000
0000
1000
0000
0100
0000
0010
0000
0000
0000
,
1001
0000
0100
0000
0010
0001
0100
0000
,
0010
1000
0001
0000
1000
0000
0000
0000
,
0100
0000
0010
0000
1000
0000
0000
0000
0001
0000
0000
0000
0100
0000
0000
0001
,
0000
0000
0100
0000
0000
1000
0000
0000
0001
0000
0000
0000
0000
0000
0000
0000
,
1001
0000
0000
0000
0010
0000
0010
0001
,
0010
0000
1000
0100
0010
0000
0010
0000
,
0110
0000
0000
0000
0001
0000
0001
0100
,
0001
0000
0010
1000
0001
0000
0001
0000
,
1001
0000
0000
0000
0100
0000
0100
0001
,
0100
0000
1000
0001
0100
0000
0100
0000
,
0110
0000
1000
1000
0001
0000
0100
0000
,
1000
0010
1000
1000
,
0110
0000
0001
0000
1000
0000
1000
0100
,
1000
0000
0010
0001
1000
0000
1000
0000
,
1001
0000
0010
0000
0100
0000
0100
0010
,
0100
0000
1000
0001
0100
0000
0100
0000
,
0110
0000
1000
0000
0001
0000
0001
0100
,
0001
0000
0010
0100
0001
0000
0101
0000
,
1001
0000
0010
0100
0000
0000
1001
0000
,
1000
0100
0001
0010
,
0100
0011
0000
1000
,
0100
0001
0010
1100
,
0011
0000
0000
0100
1000
0100
1000
0000
,
1000
0010
0001
0000
1010
0000
0101
0000
,
1000
0000
0000
0000
0001
1000
0100
0000
,
0010
0000
0001
0010
0100
0000
1000
0000
,
0001
0100
0100
0100
0010
1000
0001
0000
,
0100
0000
0010
0001
0100
0000
1000
0000
,
2002
0000
0000
0000
0000
0000
0000
3003
0110
0000
0000
0000
0100
0000
0010
0000
,
1000
0000
0001
0010
1000
0000
0010
1000
,
0101
0000
0000
0000
0010
0000
0000
0001
0000
0000
0010
0000
0000
0100
0000
0000
,
1000
0000
0000
0001
0000
0000
0010
0000
0000
0100
0000
0000
1000
0000
0000
0000
,
0011
0000
0110
0001
,
0010
0000
0000
0000
0100
0000
0000
0000
1000
0000
0000
0000
0010
0100
0000
0000
,
1001
1000
0001
0010
,
0100
0010
0001
0000
1000
0001
0010
0000
,
0100
0000
0000
0000
0001
0010
0100
0000
,
0110
0000
0000
0000
1000
0000
0000
0010
0000
0000
0100
0000
0000
0010
0000
0000
,
1000
0010
0100
0000
0001
0000
1000
0000
,
0010
1000
0100
0000
1000
0010
0001
0000
,
0010
0000
0110
1000
,
0001
0000
0010
1000
,
0000
0001
0010
0000
1100
0000
0000
0000
,
0002
0000
0000
0000
0000
0003
2000
0000
,
3000
0100
0001
0000
0110
0000
0000
0000
;

//---------------dance-single - ----------------
#NOTES:
     dance-single:
     :
     Easy:
     5:
     0.388628,0.411638,0.252267,0.020454,0.000000,399.000000,362.000000,37.000000,3.000000,0.000000,0.000000,0.388628,0.411638,0.252267,0.020454,0.000000,399.000000,362.000000,37.000000,3.000000,0.000000,0.000000:
1001
0000
0000
0000
0001
0000
0001
0100
,
0001
0000
1000
0010
0001
0000
0001
0000
,
0110
0000
0000
0000
1000
0000
1000
0010
,
1000
0000
0001
0100
1000
0000
1000
0000
,
1001
0000
0000
0000
0010
0000
0010
1000
,
0010
0000
0100
1000
0010
0000
0010
0000
,
0110
0100
1000
0010
,
0100
0001
0100
0100
,
1001
0000
1000
0000
0010
0000
0100
0001
,
1000
0000
0100
1000
0001
0000
0010
0000
,
0110
0000
0100
0000
0001
0000
1000
0010
,
0100
0000
1000
0100
0010
0000
0001
0000
,
1001
0000
0001
0000
1000
0000
0010
0100
,
0010
0000
1000
0001
1000
0000
0100
0000
,
0110
0000
0010
0000
0100
0000
1000
0010
,
0100
0000
0100
1000
0001
0000
0010
0000
,
0000
0100
0010
1000
,
0100
1000
0001
0000
0010
0001
1000
0000
,
1000
0010
0001
0100
,
0001
0010
0001
0100
,
1001
0000
0010
0000
0100
0001
1000
0000
,
1000
0001
1000
0010
,
1001
0000
0010
1000
0010
0000
0110
0000
,
1000
0001
0100
0010
,
0100
0001
0100
1001
,
1000
0010
1000
1001
,
0001
0010
1000
0000
0110
0000
0000
0000
,
1000
0100
1000
0000
0110
0000
0000
1000
,
0010
0000
0010
0000
1000
0010
0001
0000
,
0100
1000
0010
0000
1001
0000
0000
0000
,
0100
0001
0100
0000
1000
0010
1000
0000
,
0100
0000
1000
0000
0000
0100
0010
0000
,
0001
0000
1000
0000
0010
0000
1000
0001
,
0000
0010
0001
0000
0110
0000
0000
0000
,
1001
0100
0010
0000
0110
0000
0001
0000
,
1000
0010
0000
0100
1000
0010
0001
0000
,
1100
0000
0010
0000
0001
0100
0010
0000
,
0001
1000
0100
0000
1000
0000
0000
0000
,
0010
0001
1000
0000
0100
0000
0010
0000
,
0100
0010
0000
1000
0100
0000
0000
0000
,
1001
0000
0000
0000
0001
0000
0001
0100
,
0001
0000
1000
0010
0001
0000
0001
0000
,
0110
0000
0000
0000
0100
0000
0100
0010
,
0100
0000
0001
1000
0100
0000
0100
0000
,
1001
0000
0000
0000
0010
0000
0010
0100
,
0010
0000
1000
0100
0010
0000
0010
0000
,
0110
1000
0100
0010
,
1000
0001
1000
1000
,
1001
0000
0100
0000
1000
0000
1000
0010
,
1000
0000
0001
0100
1000
0000
1000
0000
,
0110
0000
0001
0000
0010
0000
0010
0001
,
0010
0000
1000
0100
0010
0000
0010
0000
,
1001
0000
1000
0000
0100
0000
0100
0010
,
0100
0000
0001
0010
0100
0000
0010
0000
,
1001
0000
0001
0010
0000
0000
0110
0000
,
1000
0010
0100
0001
,
0010
1001
0000
1000
,
0010
0100
0001
0010
,
0100
0000
0000
0010
1000
0010
1000
0000
,
1000
0001
0100
0000
0001
0000
0010
0000
,
1000
0000
0000
0000
0100
1000
0010
0000
,
0001
0000
0100
0001
0010
0000
1000
0000
,
0100
0000
0010
0000
0001
1000
0100
0000
,
0010
0000
0001
0100
0010
0000
1000
0000
,
2000
0000
0000
0000
3001
0000
0010
0001
,
1000
0000
0100
0001
1000
0000
0001
1000
,
0110
0000
0001
0000
0100
0001
0000
0010
,
1000
0000
0100
0001
0000
0010
1000
0000
,
0110
0000
1001
0100
,
0001
0010
1000
0001
,
1001
1000
0100
0001
,
0010
0001
0100
0000
1000
0100
0001
0000
,
0010
0000
0000
0000
0100
0001
0010
0000
,
1001
0000
0100
0000
0001
0010
0000
0001
,
1000
0010
0100
1000
,
0001
1000
0010
0000
1000
0001
0100
0000
,
0001
0000
0110
1000
,
0100
0000
0001
1000
,
0000
0100
0001
0000
1000
0000
0000
0000
,
0200
0000
0000
0000
0000
0300
2000
0000
,
3000
0010
0100
0000
1001
0000
0000
0000
;

//---------------dance-single - ----------------
#NOTES:
     dance-single:
     :
     Beginner:
     3:
     0.251293,0.246983,0.006818,0.000000,0.000000,258.000000,257.000000,1.000000,0.000000,0.000000,0.000000,0.251293,0.246983,0.006818,0.000000,0.000000,258.000000,257.000000,1.000000,0.000000,0.000000,0.000000:
1000
0000
1000
0000
,
1000
0001
1000
0000
,
0100
0000
0001
0000
,
0100
1000
0010
0001
,
1000
0000
0100
0000
,
0100
0010
0100
0000
,
0100
0010
0001
0100
,
0010
1000
0010
0000
,
1000
0001
0100
0010
,
1000
0010
1000
0100
,
0000
0010
1000
0001
,
0100
0001
0100
1000
,
0000
1000
0001
0100
,
0000
0001
1000
0010
,
0100
0000
0010
0001
,
0100
0010
1000
0100
,
0000
0010
0100
0001
,
0010
1000
0100
1000
,
0001
0100
1000
0010
,
1000
0100
1000
0010
,
1000
0100
0010
1000
,
0001
1000
0001
0100
,
1000
0100
0000
0100
,
0001
1000
0010
0100
,
0010
1000
0010
1000
,
0001
0100
0001
1000
,
0000
0100
0000
0000
,
0001
0010
0100
0000
,
0100
0000
0001
1000
,
0010
0100
1000
0000
,
0010
1000
0001
0100
,
0010
0001
0000
0100
,
1000
0001
0100
0001
,
1000
0000
0100
0000
,
1000
0100
0000
1000
,
0001
0100
0010
1000
,
0010
0100
1000
0100
,
1000
0010
0001
0000
,
0100
1000
0010
0100
,
0010
0100
0010
0000
,
1000
0000
1000
0000
,
1000
0001
1000
0000
,
0100
0000
0010
0000
,
0100
1000
0010
0000
,
1000
0000
0100
0000
,
0100
0001
0100
0000
,
0100
0001
0010
0100
,
0001
1000
0001
0000
,
1000
0010
0001
0000
,
0100
1000
0010
0001
,
0100
1000
0100
0000
,
1000
0001
0100
0000
,
1000
0001
0010
0000
,
0100
1000
0100
0000
,
1000
0000
0100
0000
,
0001
0100
0010
1000
,
0100
1000
0000
0001
,
0100
0010
1000
0100
,
0010
0000
0100
0000
,
0001
1000
0000
0100
,
0001
0000
0010
0100
,
1000
0010
1000
0001
,
0010
0100
1000
0010
,
0100
1000
0100
0001
,
1000
0000
0000
0100
,
1000
0010
1000
0000
,
0100
1000
0010
1000
,
0100
0010
1000
0100
,
0000
0000
1000
0010
,
1000
0100
0001
1000
,
0000
0001
0010
1000
,
0100
1000
0001
1000
,
0100
0000
0010
1000
,
0000
0010
1000
0100
,
1000
0100
0010
0001
,
1000
0100
0001
1000
,
0000
0000
0000
0001
,
0010
0000
1000
0001
,
0000
1000
0001
0000
,
0010
0000
0000
1000
,
0000
0100
1001
0000
;
