#TITLE:ACID VISION;
#SUBTITLE:-Allotropy Artcore Mix-;
#ARTIST:L.E.D. remixed by TOMOSUKE;
#TITLETRANSLIT:;
#SUBTITLETRANSLIT:;
#ARTISTTRANSLIT:;
#CREDIT:;
#BANNER:;
#BACKGROUND:;
#LYRICSPATH:;
#CDTITLE:;
#MUSIC:[Round A] - ACID VISION -Allotropy Artcore Mix-.ogg;
#OFFSET:-0.012;
#SAMPLESTART:32.979;
#SAMPLELENGTH:12.000;
#SELECTABLE:YES;
#BPMS:0.000=182.000,237.000=91.000,253.000=182.000,346.000=91.000;
#STOPS:172.000=2.300
,259.500=0.340
,266.750=0.320
,273.750=0.340
;
#BGCHANGES:;

//---------------dance-single - ----------------
#NOTES:
     dance-single:
     :
     Hard:
     9:
     0.715,0.777,0.329,0.232,0.150: // measure 1
0000
0000
0000
0000
,  // measure 2
0000
0000
0000
0000
,  // measure 3
0000
0000
0000
0000
,  // measure 4
1001
0000
0000
1100
0000
0000
0100
0010
,  // measure 5
0001
0100
1000
0100
0010
1000
0001
0000
,  // measure 6
0001
1000
0000
0001
0000
1000
0001
1000
,  // measure 7
0010
0100
0001
0010
0001
1000
1000
0001
,  // measure 8
1000
0100
0000
1000
0000
0001
0200
0300
,  // measure 9
0001
0100
0010
0100
0001
0100
1000
0100
,  // measure 10
0001
1000
0000
0001
0000
1000
0100
0000
,  // measure 11
0010
0100
1000
0100
0010
0001
1000
0000
,  // measure 12
0001
0100
0010
1000
0000
0001
1000
0000
,  // measure 13
0001
0010
0100
1000
0000
0001
1000
0000
,  // measure 14
1000
0100
0010
0001
0000
1000
0001
0000
,  // measure 15
1000
0010
0100
0001
0000
1000
0001
0000
,  // measure 16
0001
0010
0100
1000
0000
0001
1000
0000
,  // measure 17
0001
0100
0010
1000
0000
0001
1000
0000
,  // measure 18
1000
0100
0010
0001
0000
1000
0001
0000
,  // measure 19
1000
0010
0100
0001
0000
1000
0001
0000
,  // measure 20
0101
0000
1100
0000
1000
1001
0000
0000
,  // measure 21
0011
0000
1001
0000
0001
1001
0000
0000
,  // measure 22
1000
1000
0100
0001
0001
0100
1000
0000
,  // measure 23
1000
1000
0010
0001
0001
0010
0100
0000
,  // measure 24
0001
0100
1000
0100
0001
0010
0100
1000
,  // measure 25
0001
1000
0100
0010
0001
1000
0010
0100
,  // measure 26
0001
0001
0100
0100
0010
0010
1000
1000
,  // measure 27
0001
1000
0001
1000
0001
1000
0001
1000
0002
0000
0000
0000
2000
0000
0003
0000
,  // measure 28
3001
0100
0010
1000
0000
0001
1000
0001
,  // measure 29
0010
0100
1000
0001
1000
0100
0010
0000
,  // measure 30
0001
0100
0010
1000
0100
0010
0001
0000
,  // measure 31
1000
0000
0001
0000
1000
0000
0000
0000
1001
0000
0000
1000
0001
0000
1000
0000
,  // measure 32
0001
0100
0010
0100
1000
0100
0000
0001
,  // measure 33
1000
0000
0001
0000
1000
0000
0000
0000
1001
0000
0000
1000
0001
0000
1000
0000
,  // measure 34
0100
0001
0100
0010
0001
1000
0001
0100
,  // measure 35
0000
0001
1000
0010
0000
1010
1000
0001
,  // measure 36
0101
0000
0000
0000
1001
0000
1001
0000
0000
0000
1100
0000
1000
0100
1000
0000
,  // measure 37
0002
0000
2000
0000
3003
0000
1001
0000
0000
0000
0010
0000
0100
0010
0100
0010
,  // measure 38
1000
0000
0000
0000
1001
0000
1001
0000
0000
0000
0011
0000
0001
0010
0001
0000
,  // measure 39
2000
0002
3003
1001
0000
0110
0110
0000
,  // measure 40
1000
0100
0010
0001
0100
0010
0100
0000
,  // measure 41
0001
0000
0010
0000
0100
0000
1000
0000
0010
0000
0100
0000
0010
0100
0010
0100
,  // measure 42
0001
0010
0100
1000
0010
0100
0010
0000
,  // measure 43
1000
0000
0100
0000
0010
0000
0001
0000
0100
0000
0010
0000
0100
0010
0100
0010
,  // measure 44
0000
0000
0010
1000
0001
1000
0000
0100
,  // measure 45
0010
0100
0000
1000
0100
0001
1000
0010
,  // measure 46
0001
1000
0010
0100
0001
1000
0000
0001
,  // measure 47
1000
0000
0000
0001
0100
0010
1000
0010
,  // measure 48
0100
0001
0010
0100
1000
0001
0000
0001
,  // measure 49
1000
1000
0000
0001
0100
1000
0001
0010
,  // measure 50
1000
0001
0010
0100
1000
0001
0000
1000
,  // measure 51
0100
0000
0001
0100
1000
0010
0100
0001
,  // measure 52
1000
0001
1000
0010
0100
0001
0010
0001
,  // measure 53
1000
0010
1000
0001
0100
1000
0001
0010
,  // measure 54
0100
0001
0010
0100
1000
0001
0000
1000
,  // measure 55
0001
0100
1000
0001
0010
1000
0001
0000
,  // measure 56
0000
1000
0100
0010
0001
1000
0100
1000
,  // measure 57
0001
0100
0001
1000
0100
0001
1000
0010
,  // measure 58
0100
1000
0010
0100
0001
1000
0000
0001
,  // measure 59
0010
0001
0100
0010
1000
0100
0010
0000
,  // measure 60
0001
0000
0000
0000
1001
0000
1000
0000
0000
0100
0000
0000
0020
0000
0030
0000
,  // measure 61
0000
0001
0000
0000
0000
0000
0001
0000
0000
0100
0000
0000
0010
0000
0010
0000
,  // measure 62
0000
0020
0000
0030
0000
0000
1000
0000
0000
0100
0000
0000
0020
0000
0030
0000
,  // measure 63
0000
0000
0001
0000
0000
0000
0000
0000
0000
0000
0000
0000
0001
0000
0000
0000
0000
0000
0100
0000
0000
0000
0010
0100
0010
0000
0000
0000
1000
0000
0000
0000
,  // measure 64
2002
3003
2002
3003
1001
0000
0000
0000
0110
0000
0000
0000
0100
0000
0010
0000
,  // measure 65
0100
0000
0110
0000
1001
0000
1000
0001
,  // measure 66
1001
0000
0110
0000
0010
0100
0010
0000
,  // measure 67
0110
0000
0000
0000
1001
0000
0000
0000
0001
0000
1000
0001
1001
0000
0000
0000
,  // measure 68
0110
0000
0100
0010
0100
0000
0001
0000
,  // measure 69
1001
0000
0000
0000
0100
0010
0100
0010
1001
0000
0000
0000
1100
0000
1000
0000
,  // measure 70
0001
0000
0100
0000
0001
0100
0001
0100
0001
0000
0000
0000
1001
0000
0000
0000
,  // measure 71
1001
0000
1000
0001
1000
0000
1000
0000
0001
0000
0100
0000
0010
0000
1000
0000
,  // measure 72
0100
0010
0000
0010
0001
0100
1000
0001
,  // measure 73
0010
1000
0002
0000
1003
0100
0010
0001
,  // measure 74
0100
0000
0010
0000
0000
0000
0010
0000
1000
0000
0200
0300
0001
0000
2000
3000
,  // measure 75
0010
0001
2000
0000
3001
0100
0010
0100
,  // measure 76
1000
0100
0000
0001
1000
0100
0010
0100
,  // measure 77
1000
0010
0200
0000
1300
0100
0010
0100
,  // measure 78
0001
0000
1000
0000
0000
0000
1000
0000
0001
0000
0200
0300
0010
0000
0200
0300
,  // measure 79
1000
0100
0020
0000
1030
0100
0010
0010
,  // measure 80
0100
1000
0000
1000
0001
0100
0010
0010
,  // measure 81
0100
0001
2000
0000
3001
0010
0100
0100
,  // measure 82
0010
0000
0001
0000
0000
0000
0001
0000
1000
0000
0020
0030
0100
0000
0200
0300
,  // measure 83
0010
1000
0002
0000
1003
0100
0001
0001
,  // measure 84
0100
0000
1000
0000
0001
1000
0001
1000
0001
0000
0100
0000
1000
0000
1000
0000
,  // measure 85
0100
0001
2000
0000
3001
0010
1000
1000
,  // measure 86
0010
0000
0001
0000
1000
0001
1000
0001
1000
0000
0200
0300
0001
0000
0002
0003
,  // measure 87
0100
0000
1000
0000
0200
0000
0000
0000
0310
0000
0100
0000
1001
0000
0100
0010
,  // measure 88
0100
0010
0100
0000
1001
0000
0000
1000
0001
0000
1000
0000
0110
0000
0010
0100
,  // measure 89
0010
0100
0010
0000
1001
0000
0000
1000
0001
0000
0000
0010
0000
0000
0100
0000
,  // measure 90
2000
0000
0000
0000
,  // measure 91
0000
3000
0000
0000
;

//---------------dance-single - ----------------
#NOTES:
     dance-single:
     :
     Medium:
     6:
     0.575,0.608,0.277,0.307,0.037: // measure 1
0000
0000
0000
0000
,  // measure 2
0000
0000
0000
0000
,  // measure 3
0000
0000
0000
0000
,  // measure 4
1001
0000
0000
1001
0000
0000
0000
0000
,  // measure 5
1000
0100
0010
0001
0000
0001
1000
0000
,  // measure 6
0010
0100
0000
0010
0000
0000
0100
0000
,  // measure 7
0001
0100
0010
1000
0000
0001
1000
0000
,  // measure 8
1000
0001
0000
0100
0000
0000
0001
0000
,  // measure 9
1000
0100
1000
0001
0000
0001
0100
0000
,  // measure 10
0001
1000
0000
0001
0000
0000
1000
0000
,  // measure 11
0001
0100
0100
0010
0000
1000
0001
0000
,  // measure 12
1001
0000
1000
0100
0000
0010
0001
0000
,  // measure 13
0000
1000
0001
0100
0000
0010
0000
0000
,  // measure 14
1001
0000
0001
0100
0000
0010
1000
0000
,  // measure 15
0000
0001
1000
0100
0000
0010
0000
0000
,  // measure 16
1001
0000
1000
0010
0000
0100
0001
0000
,  // measure 17
0000
1000
0001
0010
0000
0100
0000
0000
,  // measure 18
1001
0000
0001
0010
0000
0100
1000
0000
,  // measure 19
0000
0001
1000
0010
0000
0100
0020
0000
,  // measure 20
1030
0000
0100
0000
0000
0110
0000
0000
,  // measure 21
1001
0000
0101
0000
0000
2002
0000
3003
,  // measure 22
1000
0100
0001
0000
0001
0100
0000
0000
,  // measure 23
0001
0100
1000
0000
1000
0100
0000
0000
,  // measure 24
0010
0100
0010
0100
0010
0100
0010
0100
,  // measure 25
1000
0001
1000
0001
1000
0001
0000
0000
,  // measure 26
1000
0100
1000
0100
0010
0001
0010
0001
,  // measure 27
1000
0001
1000
0001
2000
0000
0002
3003
,  // measure 28
1000
0100
0001
0100
0000
1000
0000
0001
,  // measure 29
0000
0010
0000
0001
0000
0100
0010
0000
,  // measure 30
1000
0000
1001
0000
0001
0010
0000
0100
,  // measure 31
0000
0100
0000
1000
0000
0001
1000
0001
,  // measure 32
1000
0000
0100
0000
0010
0001
0000
2001
,  // measure 33
0000
3100
0000
1002
0000
0103
0000
0000
,  // measure 34
0100
0000
0001
0000
0010
0000
1000
0010
,  // measure 35
0000
0001
0100
0010
0000
0220
0000
0330
,  // measure 36
1001
0000
1000
0100
0000
0100
0010
0000
,  // measure 37
0020
0002
0033
1001
0000
1010
1010
0000
,  // measure 38
1001
0000
0001
0100
0000
0100
0010
0000
,  // measure 39
0020
2000
3030
1001
0000
0011
0011
0000
,  // measure 40
0001
0100
0010
1000
0000
1000
0001
0000
,  // measure 41
0002
0020
0033
0110
0000
1001
1001
0000
,  // measure 42
1000
0100
0010
0001
0000
0001
1000
0000
,  // measure 43
2000
0020
3030
0110
0000
1001
1001
0000
,  // measure 44
0000
0000
1000
0010
0100
0001
0000
0000
,  // measure 45
0001
0001
0000
0000
0100
0000
0001
0000
,  // measure 46
1000
1000
0010
1000
0001
0020
0000
0030
,  // measure 47
0000
0000
0000
0001
0100
0001
1000
0000
,  // measure 48
0001
0001
1000
0010
0100
0001
0000
0000
,  // measure 49
0001
0001
0000
0000
0001
0000
0100
0000
,  // measure 50
0001
0001
0010
0001
1000
0020
0000
0030
,  // measure 51
0000
0000
0000
1000
0001
1000
0010
0000
,  // measure 52
1000
1000
0001
0010
0100
1000
0010
0100
,  // measure 53
0001
0010
0100
1000
0001
0000
0100
0000
,  // measure 54
0010
0010
1000
0010
0100
0001
0000
0000
,  // measure 55
0100
0001
1000
0010
1000
0001
1000
0000
,  // measure 56
0001
0001
1000
0010
0100
0001
0010
0100
,  // measure 57
1000
0010
0100
0001
1000
0000
0001
0000
,  // measure 58
1000
1000
0010
1000
0001
0020
0000
0030
,  // measure 59
0001
0100
1000
0001
0010
1000
0001
0000
,  // measure 60
2000
0000
0000
0000
3000
0000
0001
0000
0000
0001
0000
0000
0020
0000
0030
0000
,  // measure 61
0000
0001
0000
0000
0000
0000
0001
0000
0000
0001
0000
0000
1000
0000
1000
0000
,  // measure 62
0000
0020
0000
0030
0000
0000
1000
0000
0000
1000
0000
0000
0020
0000
0030
0000
,  // measure 63
0000
1000
0000
0000
0000
0000
0001
0000
0000
0001
0000
0000
1000
0000
0001
0000
,  // measure 64
0100
0100
0001
0000
1000
0000
0001
1000
,  // measure 65
0001
0000
1000
0000
0001
0000
1000
0100
,  // measure 66
1000
0000
0001
0000
1000
0001
1000
0000
,  // measure 67
0001
0000
1000
0000
0001
0100
0001
0000
,  // measure 68
1000
0000
0001
0100
1000
0100
0001
0000
,  // measure 69
1000
0000
0001
0100
0001
0000
1000
0000
,  // measure 70
0001
0010
1000
0010
0001
0000
1001
0000
,  // measure 71
1000
0001
1000
0001
1000
0000
0100
0000
,  // measure 72
1000
0001
1000
0001
1000
0000
0001
0000
,  // measure 73
0010
0100
0020
0000
0130
0000
1000
0000
,  // measure 74
0001
0000
1000
0000
0001
0000
1000
0000
0001
0000
0200
0300
0010
0000
0200
0300
,  // measure 75
0010
0210
0301
1000
,  // measure 76
0001
0100
0010
0100
0001
0000
1000
0000
,  // measure 77
1000
0001
2000
0000
3001
0000
1000
0000
,  // measure 78
0001
0000
0010
0000
0100
0000
0010
0000
0001
0000
2000
3000
0001
0000
2000
3000
,  // measure 79
0001
1002
1003
0100
,  // measure 80
0001
0100
1000
0100
0010
0000
0001
0000
,  // measure 81
0100
1000
0200
0000
0301
0000
1000
0000
,  // measure 82
0001
0000
0010
0000
1000
0000
0010
0000
0100
0000
2000
3000
0001
0000
2000
3000
,  // measure 83
0001
1002
1003
0010
,  // measure 84
0001
0010
1000
0100
0010
0000
0001
0000
,  // measure 85
1000
0001
2000
0000
3001
0000
1000
0000
,  // measure 86
0001
0000
0010
0000
1000
0000
0010
0000
0001
0000
0200
0300
0010
0000
2000
3000
,  // measure 87
0001
0000
0000
0000
2001
0000
0000
3000
0001
0000
0001
0000
1001
0000
0000
0000
,  // measure 88
1000
0001
1000
0000
1001
0000
0000
0000
1000
0000
1000
0000
1001
0000
0000
0000
,  // measure 89
1000
0001
1000
0000
1001
0000
0000
0000
1000
0000
0000
0010
0000
0000
0100
0000
,  // measure 90
0002
0000
0000
0000
,  // measure 91
0000
0003
0000
0000
;

//---------------dance-single - ----------------
#NOTES:
     dance-single:
     :
     Beginner:
     2:
     0.210,0.333,0.060,0.000,0.000:
0000
0000
0000
0000
,
0000
0000
0000
0000
,
0000
0000
0000
0000
,
1001
0000
0000
0000
,
1000
0000
1000
0000
,
0001
0000
0000
0000
,
0001
0000
0001
0000
,
0100
0000
0000
0000
,
0001
0000
0001
0000
,
0010
0000
0000
0000
,
0001
0000
0001
0000
,
1000
0000
0000
0000
,
0000
0000
0001
0001
,
0001
0000
0000
0000
,
0000
0000
1000
1000
,
1000
0000
0000
0000
,
0000
0000
0100
0100
,
0100
0000
0000
0000
,
0000
0000
0010
0010
,
0010
0000
0010
0000
,
0001
0000
0001
0000
,
1000
1000
1000
0000
,
0001
0001
0001
0000
,
0100
0000
0100
0000
,
1000
0000
1000
0000
,
0100
0100
0100
0000
,
0010
0010
0010
0010
,
0010
0000
1000
0000
,
0001
0000
0100
0000
,
1000
0000
0100
0000
,
0001
0000
1000
0000
,
0001
0000
0010
0000
,
1000
0000
0010
0000
,
0001
0000
0100
0000
,
0010
0000
1000
0000
,
1001
0000
0000
1000
,
1000
0000
0000
0001
,
1001
0000
0000
0001
,
0001
0000
0000
1000
,
1001
0001
0001
0000
,
1000
1000
1000
0000
,
1001
0001
0001
0000
,
1000
1000
1000
0000
,
0000
1000
0000
0000
,
0000
0000
1000
1000
,
1000
0001
0000
0000
,
0000
0000
0001
0001
,
0001
1000
0000
0000
,
0000
0000
1000
1000
,
1000
0001
0000
0000
,
0000
0000
0000
0000
,
0000
0100
0000
0000
,
0000
0100
0100
0100
,
0100
0010
0000
0000
,
0010
0000
0010
0110
,
0000
0010
0000
0000
,
0000
0000
0010
0010
,
0010
0100
0000
0000
,
0100
0000
0100
0110
,
0000
1000
0000
0000
,
0000
0000
0000
0000
,
0000
0001
0000
0000
,
0000
0000
0000
0000
,
0000
1000
0000
0100
,
0000
0001
0000
0010
,
0000
0010
0000
0001
,
0000
0100
0100
0000
,
1000
0000
0010
0000
,
1000
1000
0000
0001
,
0000
0010
0000
0100
,
0100
0000
1000
1000
,
1000
0000
0100
0100
,
0100
0000
0010
0010
,
0010
0000
0001
0001
,
0001
0000
0001
0001
,
0001
0000
0100
0100
,
0100
0000
0010
0010
,
0010
0000
1000
1000
,
1000
0000
1000
1000
,
1000
0000
0100
0100
,
0100
0000
0010
0010
,
0010
0000
0001
0001
,
0001
0000
0001
0001
,
0001
0000
0010
0010
,
0010
0000
0100
0100
,
0100
0000
1000
1000
,
1000
1001
0001
0100
,
1000
0100
0001
0010
,
1000
0010
0001
0000
,
1000
0000
0000
0000
;

//---------------dance-double - ----------------
#NOTES:
     dance-double:
     :
     Easy:
     5:
     0.330,0.338,0.067,0.120,0.004:
00000000
00000000
00000000
00000000
,
00000000
00000000
00000000
00000000
,
00000000
00000000
00000000
00000000
,
10010000
00000000
00000000
00000000
,
10000000
01000000
00010000
00000000
,
00011000
00000000
00000000
00000000
,
00010000
00001000
00000100
00000000
,
00001001
00000000
00000000
00000000
,
00000001
00000100
00001000
00000000
,
00011000
00000000
00000000
00000000
,
00001000
00010000
01000000
00000000
,
10000000
00000000
10000000
10000000
,
01000000
00010000
00001000
00000000
,
00011000
00000000
00010000
00010000
,
00001000
00000100
00000001
00000000
,
00001001
00000000
00000001
00000001
,
00000100
00001000
00010000
00000000
,
00011000
00000000
00001000
00001000
,
00010000
01000000
10000000
00000000
,
10000000
00000000
01000000
00000000
00000000
00010000
00000000
00000000
,
00000010
00000000
00001000
00000000
00000000
00000001
00000000
00000000
,
00001000
00000001
00000100
00000010
,
00001000
00000001
00000100
00000000
,
00000001
00000100
00001000
00010000
,
00100000
10000000
00010000
00000000
,
10000000
01000000
00010000
00001000
,
00000010
00000001
00002000
00003000
,
00000001
00000100
00001000
00000000
,
00010000
01000000
10000000
00000000
,
10000000
00100000
00010000
00000000
,
00001000
00000010
00000001
00000000
,
00000001
00000010
00000100
00010000
,
00001000
00010000
01000000
00010000
,
00001000
00000100
00001000
00010000
,
01000000
00100000
00010000
10000000
,
00010000
00000000
00000000
00010000
00000000
00000000
00010000
00000000
,
00200000
00000000
00300000
01000000
00000000
00000000
00010000
00000000
,
00001000
00000000
00000000
00001000
00000000
00000000
00010000
00000000
,
00000020
00000000
00000030
00000100
00000000
00000000
00000001
00000000
,
00001000
00000001
00001000
00000001
,
00000010
00000100
00010000
01000000
,
10000000
00010000
10000000
00010000
,
00100000
01000000
00010000
00001000
,
00000000
00010000
00001000
00000100
,
00000001
00000000
00000001
00000100
,
00001000
00100000
00010000
10000000
,
00010000
00000000
10000000
00100000
,
00010000
00001000
00010000
00000100
,
00001000
00000000
00000001
00000100
,
00001000
00100000
00010000
10000000
,
00010000
00000000
10000000
00100000
,
00010000
00001000
00010000
00000100
,
00001000
00000000
00000001
00000100
,
00000010
00010000
00001000
01000000
,
00010000
00000000
00000000
00100000
00000000
00000000
01000000
00000000
,
00000000
10000000
01000000
00010000
,
00001000
00000100
00000001
00001000
,
00000001
00000010
00000100
00010000
,
00001000
00000000
00000000
00100000
00000000
00000000
00010000
00000000
,
00000000
20020000
00000000
00000000
,
00000000
00000000
00000000
00000000
,
30030000
00002002
00000000
00000000
,
00000000
00000000
00000000
00000000
,
00003003
00001000
00000001
00001000
,
00000001
00000100
00001000
00010000
,
10000000
00010000
10000000
00010000
,
10000000
01000000
00010000
10000000
,
00010000
10000000
00010000
10000000
,
01000000
00010000
00001000
00000001
,
00001000
00000001
00000100
00010000
,
00001000
00000000
00010000
00001000
,
01000000
00010000
00100000
01000000
,
10000000
00020000
10030000
01000000
,
00100000
00010000
10000000
00010000
,
01000000
00002000
00013000
00000100
,
00000010
00000001
00001000
00000001
,
00000010
00000200
00010300
00001000
,
01000000
00010000
10000000
00100000
,
01000000
00002000
00013000
00000100
,
00000010
00000001
00001000
00000001
,
00000100
00000020
00010030
00001000
,
01000000
00010000
01000000
10000000
,
01000000
00002000
00013000
00000100
,
00000010
00000100
00001000
00000010
,
00000100
00000002
00000013
00001000
,
00000010
00000100
00010000
00001000
,
00100000
00020000
10030000
01000000
,
00010000
00001000
00000001
00000100
,
00001000
00000000
00000000
00000000
00010000
00000000
00000000
00000000
01000000
00000000
00000000
00001000
00000000
00000000
00010000
00000000
,
00000020
00000000
00000000
00000000
,
00000000
00000030
00000000
00000000
;

//---------------dance-single - ----------------
#NOTES:
     dance-single:
     :
     Easy:
     5:
     0.338,0.372,0.052,0.157,0.007: // measure 1
0000
0000
0000
0000
,  // measure 2
0000
0000
0000
0000
,  // measure 3
0000
0000
0000
0000
,  // measure 4
1000
0000
0000
1000
0000
0000
0000
0000
,  // measure 5
0001
0100
0001
0000
,  // measure 6
1000
0000
0000
1000
0000
0000
0000
0000
,  // measure 7
0001
0001
0001
0000
,  // measure 8
1000
0000
0000
1000
0000
0000
0000
0000
,  // measure 9
0001
0010
0001
0000
,  // measure 10
1000
0000
0000
1000
0000
0000
0000
0000
,  // measure 11
0001
1000
0001
1000
,  // measure 12
0001
0000
0000
0001
0000
0000
0000
0000
,  // measure 13
1000
0100
1000
0000
,  // measure 14
0001
0000
0000
0001
0000
0000
0000
0000
,  // measure 15
1000
0001
1000
0000
,  // measure 16
0001
0000
0000
0001
0000
0000
0000
0000
,  // measure 17
1000
0010
1000
0000
,  // measure 18
0001
0000
0000
0001
0000
0000
0000
0000
,  // measure 19
1000
0001
2000
0000
,  // measure 20
3001
0000
0001
0000
0000
0100
0000
0000
,  // measure 21
0010
0000
1000
0000
0000
0002
0000
0000
,  // measure 22
1003
0100
0001
0000
,  // measure 23
0001
0100
1000
0000
,  // measure 24
0001
0001
0100
0100
,  // measure 25
0010
0010
1000
0000
,  // measure 26
1000
1000
0100
0100
,  // measure 27
0010
0010
0002
2003
,  // measure 28
3001
0100
0010
0100
,  // measure 29
0001
0000
1000
0000
,  // measure 30
0001
0010
0100
0010
,  // measure 31
0001
0000
1000
0000
,  // measure 32
0001
0010
1000
0010
,  // measure 33
0001
1000
0001
0000
,  // measure 34
1000
0010
0001
0010
,  // measure 35
1000
0001
1000
0000
,  // measure 36
0001
0000
0000
0001
0000
0000
0001
0000
,  // measure 37
0020
0000
0030
0100
0000
0000
1001
0000
,  // measure 38
1000
0000
0000
1000
0000
0000
1000
0000
,  // measure 39
0020
0000
0030
0100
0000
0000
1001
0000
,  // measure 40
1000
0001
0100
0001
,  // measure 41
1000
0000
0001
1000
,  // measure 42
0001
1000
0100
1000
,  // measure 43
0001
0000
1000
0002
,  // measure 44
0003
1000
0100
0010
,  // measure 45
0001
0000
1000
1000
,  // measure 46
1000
0001
0100
0010
,  // measure 47
1000
0000
0001
0001
,  // measure 48
0001
1000
0010
0100
,  // measure 49
0001
0000
1000
1000
,  // measure 50
1000
0001
0010
0100
,  // measure 51
1000
0000
0001
0001
,  // measure 52
0001
1000
0001
0100
,  // measure 53
0010
0000
1000
1000
,  // measure 54
1000
0001
1000
0010
,  // measure 55
0100
0000
0000
0001
0000
0000
1000
0000
,  // measure 56
0001
1000
0001
0010
,  // measure 57
0100
0000
1000
1000
,  // measure 58
1000
0001
0010
0100
,  // measure 59
1000
0000
0000
0010
0000
0000
0100
0000
,  // measure 60
0000
2002
0000
0000
,  // measure 61
0000
0000
0000
0000
0000
3003
0001
0001
,  // measure 62
0000
2000
0000
3000
0220
0000
0000
0000
0000
0000
0000
0000
0000
0000
0000
0000
,  // measure 63
0000
0000
0000
0000
0000
0300
0130
0010
,  // measure 64
1000
0001
1001
0000
1000
0000
0100
0000
,  // measure 65
0001
0100
1000
0001
,  // measure 66
0001
0100
1000
0100
,  // measure 67
0001
1000
0001
1000
,  // measure 68
0100
0010
0100
1000
,  // measure 69
0010
0100
0001
0010
,  // measure 70
1000
0010
0100
1000
,  // measure 71
0001
0000
1000
0100
,  // measure 72
1000
0100
0010
0001
,  // measure 73
0010
0002
0103
0010
,  // measure 74
0100
0010
1000
0001
,  // measure 75
1000
0002
1003
0100
,  // measure 76
0010
0100
1000
0010
,  // measure 77
0100
0002
0103
0001
,  // measure 78
0010
0100
0010
0001
,  // measure 79
0100
0002
1003
0100
,  // measure 80
0001
0100
1000
0010
,  // measure 81
0100
0002
0013
0001
,  // measure 82
0100
1000
0100
0001
,  // measure 83
1000
0002
1003
0100
,  // measure 84
0001
1000
0001
0100
,  // measure 85
1000
0002
1003
0010
,  // measure 86
0001
1000
0001
0010
,  // measure 87
1000
0002
1003
0100
,  // measure 88
0010
1001
0001
0100
,  // measure 89
0010
0000
0000
0000
1001
0000
0000
0000
0001
0000
0000
1000
0000
0000
0100
0000
,  // measure 90
0020
0000
0000
0000
,  // measure 91
0000
0030
0000
0000
;

//---------------dance-double - ----------------
#NOTES:
     dance-double:
     :
     Hard:
     8:
     0.663,0.743,0.270,0.120,0.120:
00000000
00000000
00000000
00000000
,
00000000
00000000
00000000
00000000
,
00000000
00000000
00000000
00000000
,
10010000
00000000
10000000
01000000
00000000
00100000
01000000
00000000
,
10000000
01000000
00010000
00001000
00000000
00010000
00000100
00000000
,
00000010
00000100
00000000
00000010
00000000
00000001
00001000
00000000
,
00000001
00000100
00000010
00000100
00000000
00001000
00000100
00000000
,
00001000
00010000
00000000
00001000
00000000
00010000
00002000
00000000
,
00013000
01000000
10000000
00010000
00000000
10000000
01000000
00000000
,
00010000
00001000
00000000
00010000
00000000
00000100
00001000
00000000
,
00000001
00000100
00000010
00000100
00000000
00001000
00010000
00000000
,
00010000
00001000
00100000
01000000
00000000
10000000
00010000
00000000
,
10000000
00100000
01000000
00001000
00000000
00010000
00001000
00000000
,
00010000
00001000
00000010
00000100
00000000
00001000
00000001
00000000
,
00000100
00000010
00010000
00001000
00000000
01000000
00010000
00000000
,
10000000
00010000
00100000
01000000
00000000
00010000
00001000
00000000
,
00010000
00000010
00000100
00000001
00000000
00000010
00000100
00000000
,
00010000
00001000
00100000
01000000
00000000
10000000
00010000
00000000
,
10000000
00100000
01000000
00001000
00010000
00000100
00000020
00000000
,
00000031
00000000
00001001
00000000
00000000
00001100
00000000
00000000
,
00011000
00000000
01010000
00000000
00000000
11000000
00000000
00000000
,
10000000
01000000
00010000
00001000
00000100
00000001
00000000
00001000
,
00000001
00000100
00001000
00010000
01000000
00200000
00000000
00000000
,
00310000
00010000
10000000
10000000
00100000
00100000
01000000
01000000
,
00001000
00010000
00000100
00001000
00000001
00000020
00000000
00000030
,
00000010
00000010
00000001
00000001
00000100
00000100
00001000
00001000
,
00010000
00001000
00010000
00001000
00010000
00001000
00010000
00001000
00020000
00000000
00000000
00000000
00002000
00000000
00033000
00000000
,
00010000
00001000
01000000
00010000
00000000
01000000
00010000
10000000
,
00000000
01000000
00000000
10000000
00000000
00010000
01000000
00001000
,
00010000
00000000
00000100
00000000
00000010
00000001
00000100
00000010
,
00000000
00001000
00000000
00000100
00000000
00010000
00001000
00000000
,
00010000
00001000
00010000
00000100
00000010
00000001
00000000
00001001
,
00000000
00001000
00000010
00001000
00000001
00000100
00001000
00010000
,
00001000
01000000
00100000
10000000
01000000
00100000
00001000
00010000
,
00000000
00000100
00001000
00000010
00000000
00000110
00000000
00000000
,
00001001
00000000
00001000
00001100
00000000
00010000
00011000
00000000
,
00100000
00010000
00000000
01100000
00000000
10010000
10010000
00000000
,
11000000
00000000
00010000
01010000
00000000
00001000
00011000
00000000
,
00000010
00001000
00000000
00001001
00000000
00000101
00000101
00000000
,
00000001
00000000
00000100
00000000
00000010
00000000
00010000
00000000
00001000
00000000
00100000
00000000
01000000
00100000
01000000
00100000
,
01000000
00000000
10000000
00000000
00100000
00000000
01000000
00000000
00001000
00000000
00010000
00000000
00000100
00000010
00000100
00000010
,
00000100
00000000
00001000
00000000
00000001
00000000
00000100
00000000
00000010
00000000
00010000
00000000
00001000
00010000
00001000
00010000
,
00001000
00000000
00100000
00000000
00010000
00000000
01000000
00000000
00100000
00000000
10000000
00000000
00010000
10000000
00010000
10000000
,
00000000
00000000
10000000
01000000
10000000
00010000
01000000
00001000
,
00010000
00000100
00000000
00000100
00001000
00000001
00000100
00000010
,
00000100
00000001
00000010
00000100
00010000
00001000
00000000
00100000
,
00000000
00010000
01000000
00100000
10000000
00100000
00010000
00001000
,
00000010
00000001
00001000
00000100
00001000
00000001
00000100
00001000
,
00010000
00001000
00000000
01000000
00010000
10000000
01000000
00100000
,
01000000
10000000
00100000
01000000
00010000
10000000
00000000
01000000
,
00000000
00000000
00000000
01000000
00010000
00001000
00000010
00000001
,
00001000
00000010
00001000
00000001
00000010
00000100
00010000
00001000
,
01000000
00010000
10000000
01000000
00100000
01000000
10000000
00010000
,
01000000
00001000
00010000
00000100
00000010
00000001
00000000
00001000
,
00000001
00000100
00001000
00000001
00000010
00001000
00000001
00000000
,
00000001
00000010
00000100
00010000
00001000
01000000
00100000
10000000
,
00010000
01000000
00010000
10000000
01000000
00010000
00001000
00000010
,
00000001
00001000
00000010
00000100
00000001
00001000
00000000
00001000
,
00000010
00001000
00000100
00010000
00001000
00100000
01000000
00000000
,
20000000
00000000
00000000
00000000
30010000
00000000
10000000
00000000
00000000
01000000
00000000
00000000
00020000
00000000
00030000
00000000
,
00000000
00001000
00000000
00000000
00000000
00000000
00000001
00000000
00000000
00000100
00000000
00000000
00010000
00000000
00001000
00000000
,
00000000
00022000
00000000
00033000
00000000
00000000
00010000
00000000
00000000
01000000
00000000
00000000
20000000
00000000
30000000
00000000
,
00000000
00000000
00010000
00000000
00000000
00000000
00000000
00000000
00000000
00000000
00000000
00000000
00001000
00000000
00000000
00000000
00000000
00000000
00000100
00000000
00000000
00000000
00000010
00000100
00000010
00000000
00000000
00000000
00000100
00000000
00000000
00000000
,
00010000
00001000
00010000
00000000
00011000
00000000
00100000
00010000
,
10000000
00000000
00010000
00000000
10010000
00000000
10000000
00010000
,
10000000
00000000
10010000
00000000
10000000
01000000
00010000
00000000
,
00001000
00000000
00000000
00000000
00010000
00000000
00000000
00000000
00001000
00000000
00010000
00001000
00010000
00000000
00000000
00000000
,
00011000
00000000
00010000
00000100
00001000
00000000
00000001
00000000
,
00001001
00000000
00000000
00000000
00001000
00000001
00001000
00000001
00001000
00000000
00000000
00000000
00001001
00000000
00000000
00000000
,
00000001
00000100
00001000
00010000
00001000
00000000
00011000
00000000
,
00010000
00000000
00001000
00010000
00001000
00000000
00010000
00000000
00001000
00000000
01000000
00000000
00010000
00000000
10000000
00000000
,
01000000
10000000
00000000
10000000
00010000
01000000
00001000
00010000
,
00000100
00000000
00001000
00000000
00000002
00000000
00000000
00000003
00000001
00000000
00000100
00000000
00000001
00000000
00001000
00000000
,
00000100
00010000
00000000
00010000
00001000
00100000
10000000
00100000
,
00010000
00000000
10010000
00000000
10000000
00010000
01000000
00001000
,
00010000
00000100
00000000
00000100
00001000
00000001
00000100
00000001
,
00001000
00000000
00000100
00000000
00020000
00000000
00000000
00030000
00010000
00000000
00001000
00000000
01000000
00000000
00010000
00000000
,
10000000
01000000
00000000
01000000
10000000
00100000
00010000
00001000
,
00000100
00000000
00001001
00000000
00000001
00001000
00000100
00000010
,
00000100
00010000
00001000
00010000
00001000
01000000
00100000
10000000
,
00010000
01000000
00002000
00000000
00013000
00001000
00010000
00000100
,
00000010
00000001
00001000
00000001
00000010
00001000
00010000
00100000
,
10000000
00000000
10010000
00000000
10000000
01000000
00100000
01000000
,
10000000
00100000
01000000
00001000
00010000
00000100
00000010
00000100
,
00001000
00000010
00000200
00000000
00000310
00000100
00000001
00000010
,
00000100
00010000
01000000
00100000
00010000
01000000
10000000
01000000
,
00010000
00000000
00000000
00000000
10010000
00000000
00000000
00000000
10000000
00000000
01000000
00000000
00011000
00000000
00001000
00010000
,
00000100
00001000
00000100
00000000
00000110
00000000
00000000
00000001
00000100
00000000
00001000
00000000
00011000
00000000
00010000
00001000
,
01000000
00010000
01000000
00000000
01100000
00000000
00000000
10000000
01000000
00000000
00000000
00010000
00000000
00000000
00001000
00000000
,
00020000
00000000
00000000
00000000
,
00000000
00030000
00000000
00000000
;

//---------------dance-double - Alien----------------
#NOTES:
     dance-double:
     Alien:
     Medium:
     7:
     0.571,0.743,0.636,0.045,0.052:
00000000
00000000
00000000
00000000
,
00000000
00000000
00000000
00000000
,
00000000
00000000
00000000
00000000
,
10010000
00000000
00000000
10010000
00000000
10000000
00010000
00000000
,
10000000
01000000
00100000
10000000
00000000
00100000
00010000
00000000
,
00010000
01000000
00000000
00001000
00000000
00010000
00001000
00000000
,
00010000
00001000
00000010
00000100
00000000
00001000
00000001
00000000
,
00000100
00001000
00000000
00000100
00000000
00001000
00020000
00000000
,
00031000
00100000
10000000
00010000
00001000
00000010
00000100
00000000
,
00001000
00000010
00000000
00000001
00000000
00000001
00000010
00000000
,
00010000
01000000
00100000
00010000
00000000
10000000
00010000
00000000
,
10000000
01000000
00010000
00001000
00000000
00000000
00000001
00000000
,
00000001
00000100
00001000
01000000
00000000
00100000
00000000
00000000
,
01000000
10000000
00100000
00001000
00000000
00000000
00000001
00000000
,
00000001
00000100
00001000
01000000
00000000
00100000
00000000
00000000
,
10000000
01000000
00010000
00000010
00000000
00000000
00000001
00000000
,
00000010
00010000
01000000
10000000
00000000
00010000
00000000
00000000
,
10000000
00010000
00001000
00000010
00000000
00000000
00001000
00000000
,
00000001
00000100
00001000
01000000
00000000
00000000
00000000
00000000
,
01100000
00000000
10010000
00000000
00000000
00011000
00000000
00000000
,
00001001
00000000
00000110
00000000
00000000
00011000
00000000
00000000
,
01000000
00010000
00100000
00000100
00001000
00000010
00000000
00000000
,
00000010
00001000
00000100
00100000
10000000
00010000
00000000
00000000
,
01010000
11000000
10100000
00110000
,
00011000
00001100
00000101
00000011
,
00001001
00011000
10010000
00011000
,
00010000
00001000
00000100
00001000
00010000
01000000
10010000
00000000
,
10000000
00010000
00001000
00000010
00000000
00000001
00000000
00000100
,
00000000
00001000
00000000
00000010
00000000
00000100
00000001
00000000
,
00001000
00000000
00001001
00000000
00010000
00001000
00000000
00110000
,
00000000
01010000
00000000
11000000
00000000
10100000
00010000
00010000
,
01000000
10000000
01000000
00001000
00000100
00000001
00000000
00000011
,
00000000
00001010
00000000
00001100
00000000
00000101
00001000
00001000
,
00000001
00000100
00001000
00010000
00100000
10000000
00010000
10000000
,
00000000
01000000
00010000
00000010
00000000
00000010
00000000
00000000
,
00000110
00000000
00001001
00001100
00000000
00011000
01010000
00000000
,
11000000
10100000
00000000
01100000
00000000
00011000
00011000
00000000
,
00000110
00000000
00000101
00001001
00000000
00011000
00110000
00000000
,
11000000
10100000
00000000
01100000
00000000
00011000
00011000
00000000
,
00010000
00000100
00000001
00001000
01000000
10000000
00010000
00000000
,
00001000
00000010
00000001
00001000
00010000
00100000
00001000
00000000
,
00010000
00000010
00000001
00001000
00100000
10000000
00010000
00000000
,
00001000
00000100
00000001
00001000
00010000
01000000
10000000
00010000
,
00000000
10000000
01000000
00010000
,
00000001
00000100
00001000
00010000
,
00001000
10000000
00100000
00010000
,
00001000
00000000
00010000
00001000
,
00010000
00000001
00000010
00001000
,
10000000
00100000
00010000
00001000
,
00000100
00000010
00010000
01000000
,
00100000
00000000
00001000
00010000
,
00000100
00000001
00000100
00001000
,
10000000
00100000
00010000
00001000
,
00000100
00000001
00000100
00001000
,
10000000
00100000
00010000
00001000
,
00000001
00001000
00000010
00000001
,
00010000
00100000
10000000
01000000
,
00010000
00000001
00000100
00001000
,
10000000
01000000
00010000
00001000
,
00010000
00000000
00000000
00000000
00011000
00000000
00010000
00000000
00000000
00000100
00000000
00000000
00002000
00000000
00003000
00000000
,
00000000
00000100
00000000
00000000
00000000
00000000
00000100
00000000
00000000
00010000
00000000
00000000
00001000
00000000
00001000
00000000
,
00000000
00022000
00000000
00033000
00000000
00000000
00001000
00000000
00000000
01000000
00000000
00000000
00020000
00000000
00030000
00000000
,
00000000
01000000
00000000
00000000
00000000
00000000
10000000
00000000
00000000
10000000
00000000
01000000
00010000
00000000
10000000
00000000
,
10010000
00011000
00000100
00000000
00001000
00000000
00000001
00000100
,
00001000
00000000
00010000
00000000
10000000
00000000
00010000
00001000
,
00000001
00000000
00000100
00000000
00001000
00000010
00000001
00000000
,
00001000
00000000
00000100
00000000
00000001
00001000
00010000
00000000
,
00000010
00000000
00000001
00000010
00001000
00000000
00000001
00000000
,
00000100
00000000
00001000
00010000
10000000
00000000
01000000
00000000
,
00001000
00000100
00000001
00000000
00000100
00000000
00001000
00000000
,
00010000
10000000
00010000
00001000
00010000
00000000
00001000
00000000
,
00000010
00000000
00000100
00000001
00001001
00000000
00001000
00000000
,
00000100
00010000
00011000
00000000
00001000
00000000
01000000
00000000
,
00010000
10000000
11000000
00000000
10000000
01000000
00010000
00001000
,
00000100
00001001
00000001
00001000
,
00001100
00010000
00001000
00000000
01000000
00000000
00010000
00000000
,
11000000
00010000
01000000
00000000
00001000
00000000
00010000
00000000
,
00000110
00000001
00001000
00000000
00000100
00010000
01000000
00010000
,
00000010
00000110
00000001
00000101
,
00001100
00010000
00011000
00000000
01000000
00000000
00010000
00000000
,
11000000
00010000
10010000
00000000
00010000
00000000
01000000
00000000
,
01010000
00001000
00010000
00000100
00001000
00000001
00000010
00001000
,
00010000
00011000
01010000
11000000
,
10010000
00010000
01010000
00000000
00011000
00000000
00001100
00000000
,
00001001
00001000
00001010
00000000
00001001
00000000
00001100
00000000
,
00001100
00010000
00001000
01000000
10000000
01000000
00010000
00100000
,
00001000
00000000
00000000
00000000
00011000
00000000
00000000
00000000
00011000
00000000
00000100
00000000
00001000
00000000
00000001
00000100
,
00001000
00010000
00001000
00000000
00011000
00000000
00000000
00000000
00011000
00000000
00100000
00000000
00010000
00000000
10000000
01000000
,
00010000
00001000
00010000
00000000
00011000
00000000
00000000
00001000
00010000
00000000
00000000
00001000
00000000
00000000
00000100
00000000
,
00000020
00000000
00000000
00000000
,
00000000
00000030
00000000
00000000
;
