#TITLE:AUSLANDSSGESPRACH;
#SUBTITLE:;
#ARTIST:V.C.O.;
#TITLETRANSLIT:;
#SUBTITLETRANSLIT:;
#ARTISTTRANSLIT:;
#CREDIT:;
#BANNER:AUSLANDSSGESPRACH.png;
#BACKGROUND:AUSLANDSSGESPRACH-bg.png;
#LYRICSPATH:;
#CDTITLE:;
#MUSIC:AUSLANDSSGESPRACH.ogg;
#OFFSET:-2.941;
#SAMPLESTART:10.326;
#SAMPLELENGTH:14.769;
#SELECTABLE:YES;
#DISPLAYBPM:130.000;
#BPMS:0.000=130.000;
#STOPS:;
#BGCHANGES:;

//---------------dance-single - ----------------
#NOTES:
     dance-single:
     :
     Hard:
     9:
     0.368,0.472,0.000,0.088,0.263:
0000
0000
0000
0000
0000
0000
0000
0000
1000
0000
0000
0010
0000
0000
0010
0000
,
0000
0000
0000
0000
0000
0000
0000
0000
0100
0000
0000
0001
0000
0000
0001
0000
,
0020
0000
0130
0100
0000
1000
1000
0000
,
0010
0000
0000
0000
0010
0000
0000
0000
0000
0000
0000
0000
0100
0000
0100
0001
,
0100
0000
0001
0000
0001
0000
0000
0000
1000
0000
0000
0010
0000
0000
0010
0000
,
0000
0000
0000
0000
0001
0000
0000
0000
0100
0000
0000
0001
0000
0000
0001
0000
,
0020
0000
0130
1000
0000
0001
0100
0000
,
0010
0000
0000
0000
0010
0000
0000
0000
1000
0000
1000
0100
1000
0000
1000
0100
,
1000
0000
0010
0000
0001
0001
0000
0000
,
0100
0000
0000
0100
0000
0000
0100
0000
0000
0000
0000
0010
0000
0000
0010
0000
,
0000
1000
0100
0000
,
0001
0000
0000
0000
0010
0000
0000
0000
0100
0000
0000
0000
1000
0000
1000
0010
,
1000
0000
0100
0000
0000
0000
0001
0002
,
0000
0000
0003
0000
0100
0000
0200
0000
0000
0000
0300
0000
0010
0000
0000
0010
,
0100
0010
0100
0010
0100
0010
0100
0010
0000
0000
0000
0000
0000
0000
1000
0000
,
0000
0000
0001
0100
0001
0000
0000
0000
1000
0000
0100
0000
0000
0001
0100
0001
,
0100
0000
0000
0000
0010
0000
0000
0000
1000
0000
0000
0100
0000
0000
0100
0000
,
0000
0000
0000
0000
0010
0000
0000
0000
0001
0000
0000
0001
0000
0000
0100
0000
,
0020
0000
1030
0100
0000
0010
0001
0000
,
1000
0000
0000
0000
1000
0000
0000
0000
0000
0000
0000
0010
0000
0100
0010
0100
,
0010
0000
0000
0000
0100
0000
0000
0000
0001
0000
0000
0001
0000
0000
0001
0000
,
0000
0000
0000
0000
1000
0000
0000
0000
0010
0000
0000
0010
0000
0000
0100
0000
,
0002
0000
0013
0001
0000
0100
1000
0000
,
0000
0000
0000
0000
0010
0000
0000
0000
0100
0000
0001
0100
0001
0100
0001
0000
,
1000
0000
1000
0000
0000
0000
0010
0010
,
0100
0000
0000
0001
0000
0000
0100
0000
0000
0000
0000
1000
0000
0000
1000
0000
,
0000
0100
0010
0000
,
0001
0000
0000
0000
0001
0000
0000
0000
0100
0000
0000
0000
0010
0000
1000
0010
,
1000
0000
0100
0000
0000
0000
0001
0002
,
0000
0000
0003
0000
0100
0000
0200
0000
0000
0000
0300
0000
1000
0000
0000
1000
,
0010
1000
0010
1000
0010
1000
0010
1000
0000
0000
0000
0000
0000
0000
0001
0000
,
0000
0000
0100
0001
0100
0000
0000
0000
0010
0000
0010
0000
0000
1000
0001
1000
,
0001
0000
0100
0000
0010
0000
0100
0000
0001
0000
1000
0000
0001
0000
1000
0001
,
1000
0000
0010
0000
0100
0000
0010
0000
1000
0000
0100
0000
1000
0000
0001
1000
,
0001
0000
0010
0000
0100
0000
1000
0000
0010
0000
0100
0000
0001
0000
0100
0001
,
0100
0000
0001
0000
0100
0000
0010
0000
1000
0010
1000
0000
0000
0001
0100
0000
,
0001
0000
0010
0000
0100
0000
1000
0000
0010
0000
0100
0000
0010
0000
0100
0001
,
0100
0010
0100
0001
1000
0001
0100
0010
,
2000
0000
0000
0000
,
0000
0000
0000
3000
0000
0000
0000
0000
,
0001
0000
0010
0000
,
1000
0000
0100
0000
,
0001
0000
0010
0000
,
1000
0000
0001
0000
,
0000
0000
0000
0000
0000
0000
0000
0000
1000
0000
0000
1000
0000
0000
0000
0000
,
0010
0000
0000
0010
0000
0000
0000
0000
0001
0000
0000
0001
0000
0000
0000
0000
,
0100
0000
0000
0100
0000
0000
0000
0000
1000
0000
0000
1000
0000
0000
0000
0000
,
0010
0000
0000
0010
0000
0000
0000
0000
0001
0000
0000
0001
0000
0000
0000
0000
,
0100
0000
0000
0000
1000
0000
0000
0000
0010
0000
0000
0100
0000
0000
0100
0000
,
0000
0000
0000
0000
0000
0000
0000
0000
0001
0000
0000
1000
0000
0000
0001
0000
,
0200
0000
0310
0100
0000
0010
1000
0000
,
0001
0000
0000
0000
0001
0000
0000
0000
0000
0000
1000
0000
0000
0010
0100
0010
,
0100
0000
0000
0000
0010
0000
0000
0000
1000
0000
0000
0001
0000
0000
1000
0000
,
0000
0000
0000
0000
0010
0000
0000
0000
0100
0000
0000
0001
0000
0000
0100
0000
,
0010
0000
1000
0100
0000
0010
0001
0000
,
0000
0000
0100
0001
0000
0000
0000
0000
0100
0000
0100
0000
0000
0000
0010
1000
,
0010
0000
1000
0000
0001
0000
0000
0000
0100
0000
0000
0010
0000
0000
0000
0000
;

//---------------dance-single - ----------------
#NOTES:
     dance-single:
     :
     Medium:
     7:
     0.305,0.397,0.009,0.096,0.110:
0000
0000
0000
0000
0000
0000
0000
0000
1000
0000
0000
0010
0000
0000
1000
0000
,
0000
0000
0000
0000
0000
0000
0000
0000
0001
0000
0000
0100
0000
0000
0001
0000
,
0001
0000
1000
1000
0000
0100
0100
0000
,
0001
0001
0000
1000
,
0100
0000
1000
0000
0010
0000
0000
0000
0100
0000
0000
0001
0000
0000
0100
0000
,
0000
0000
0000
0000
0001
0000
0000
0000
0010
0000
0000
1000
0000
0000
0010
0000
,
0010
0000
0001
0001
0000
1000
1000
0000
,
0010
0000
0100
0000
0001
0010
0100
1000
,
0100
0000
0001
0000
0000
0000
1000
0001
,
0100
0000
0000
0100
0000
0000
0100
0000
0000
0000
0000
0010
0000
0000
0010
0000
,
0000
0000
1000
0000
0000
0000
0000
0001
,
0000
0000
0100
0000
0010
0000
1000
0100
,
1000
0000
0010
0000
0000
0000
0100
0100
,
0000
0000
0001
0001
0000
0000
1000
0010
,
0100
0001
1000
0001
0000
0000
0000
1000
,
0000
0000
0001
0100
0000
0000
0000
0000
0001
0000
0001
0000
0000
0000
1000
0000
,
1000
0000
0000
0000
0100
0000
0000
0000
0010
0000
0000
0001
0000
0000
0010
0000
,
0000
0000
0000
0000
0001
0000
0000
0000
0100
0000
0000
1000
0000
0000
0100
0000
,
0100
0000
0001
0001
0000
1000
1000
0000
,
0010
0000
0000
0000
0010
0000
0000
0000
0000
0000
0000
0100
0000
0000
0010
0000
,
0100
0000
0000
0000
0001
0000
0000
0000
1000
0000
0000
0001
0000
0000
1000
0000
,
0000
0000
0000
0000
0010
0000
0000
0000
0100
0000
0000
0010
0000
0000
0100
0000
,
0100
0000
0001
0001
0000
1000
1000
0000
,
0000
0000
0100
0000
0001
0010
0100
1000
,
0100
0000
0001
0000
0000
0000
1000
1000
,
0001
0000
0000
0100
0000
0000
0001
0000
0000
0000
0000
0000
1000
0000
1000
0000
,
0000
0010
0100
0000
,
0001
0000
0010
0000
0100
0000
1000
1000
,
0020
0000
0030
0000
0000
0000
0001
0001
,
0000
0000
0100
0100
0000
0000
0010
0020
,
0000
0000
0000
0030
0000
0000
0000
1000
,
0000
0010
0100
0000
0010
0100
0001
1000
,
0001
0000
0100
0000
0000
0000
0100
0000
0001
0000
0000
0000
0010
0000
1000
0010
,
1000
0000
0100
0000
0000
0000
0010
0000
0001
0000
0000
0000
0100
0000
0001
0100
,
0001
0000
0100
0000
0010
0000
0000
0000
0010
0000
1000
0000
1000
0000
0010
1000
,
0010
0000
1000
0000
0000
0000
0100
0000
0000
0001
0010
0000
0000
0001
0010
0000
,
1000
0000
0000
0000
1000
0000
0000
0000
0010
0000
0000
0000
0100
0000
0001
0100
,
0001
1000
0000
0100
0010
0001
0100
0010
,
2000
0000
0000
0000
,
0000
0000
0000
3000
0000
0000
0000
0000
,
0002
0000
0000
0000
,
0103
0000
0100
0000
,
0010
0000
0010
0000
,
1000
0000
1000
0000
,
0000
0000
0200
0000
,
0320
0000
0032
0000
,
0203
0000
0320
0000
,
2030
0000
3002
0000
,
0003
0000
0000
0000
0100
0000
0000
0000
0010
0000
0000
1000
0000
0000
0010
0000
,
0000
0000
0000
0000
0000
0000
0000
0000
0100
0000
0000
0001
0000
0000
0100
0000
,
0100
0000
0010
0010
0000
1000
1000
0000
,
0001
0000
0001
0000
0000
0100
0010
0100
,
0010
0000
0000
0000
1000
0000
0000
0000
1000
0000
0000
0001
0000
0000
1000
0000
,
0000
0000
0000
0000
0000
0000
0000
0000
0010
0000
0000
0100
0000
0000
0010
0000
,
0010
0000
1000
1000
0000
0001
0001
0000
,
0000
0000
0100
0001
0000
0000
0000
0000
0010
0000
1000
0000
0000
0000
1000
0000
,
0010
0000
0100
0000
0001
0000
0000
0000
0001
0000
0000
1001
0000
0000
0000
0000
;

//---------------dance-single - ----------------
#NOTES:
     dance-single:
     :
     Easy:
     3:
     0.153,0.224,0.000,0.053,0.061: // measure 1
0000
0000
0000
0000
0000
0000
0000
0000
1000
0000
0000
1000
0000
0000
1000
0000
,  // measure 2
0000
0000
0000
0000
0000
0000
0000
0000
0010
0000
0000
0010
0000
0000
0010
0000
,  // measure 3
0000
0000
0000
0100
0000
0000
0001
0000
,  // measure 4
0000
0000
0000
0000
,  // measure 5
0000
0000
0000
0000
0000
0000
0000
0000
1000
0000
0000
1000
0000
0000
1000
0000
,  // measure 6
0000
0000
0000
0000
0000
0000
0000
0000
0001
0000
0000
0001
0000
0000
0001
0000
,  // measure 7
0000
0000
0000
0100
0000
0000
0010
0000
,  // measure 8
0000
0000
0000
1000
,  // measure 9
0002
0000
0000
0003
,  // measure 10
0100
0000
0000
0100
0000
0000
0100
0000
0000
0000
0000
0000
0000
0000
0000
0000
,  // measure 11
0010
0000
0000
0000
,  // measure 12
1000
0000
0000
0000
,  // measure 13
0002
0000
0000
0000
0000
0000
0000
0000
0000
0000
0000
0003
0000
0000
0100
0000
,  // measure 14
0000
0000
0000
0010
0000
0000
0000
1000
,  // measure 15
0000
0000
0000
0000
,  // measure 16
0000
0000
0000
0000
,  // measure 17
0001
0000
0000
0000
0100
0000
0000
0000
1000
0000
0000
1000
0000
0000
1000
0000
,  // measure 18
0000
0000
0000
0000
0000
0000
0000
0000
0100
0000
0000
0100
0000
0000
0100
0000
,  // measure 19
0000
0000
0000
0010
0000
0000
0001
0000
,  // measure 20
0000
0000
0000
0000
,  // measure 21
1000
0000
0000
0000
0010
0000
0000
0000
0001
0000
0000
0001
0000
0000
0001
0000
,  // measure 22
0000
0000
0000
0000
0000
0000
0000
0000
0100
0000
0000
0100
0000
0000
0100
0000
,  // measure 23
0000
0000
0000
0001
0000
0000
0001
0000
,  // measure 24
0000
1000
0000
0000
,  // measure 25
0020
0000
0000
0000
0000
0000
0000
0130
,  // measure 26
0000
0000
0000
0000
,  // measure 27
0200
0000
0000
0000
,  // measure 28
0000
0000
0000
0300
0000
0000
0000
0000
,  // measure 29
0002
0000
0000
0000
0000
0000
0000
0103
,  // measure 30
0000
0000
0000
0100
0000
0000
0000
0010
,  // measure 31
0000
0000
0000
0000
,  // measure 32
1000
0000
0100
0000
,  // measure 33
0001
0001
1000
1000
,  // measure 34
0100
0100
0001
0001
,  // measure 35
0010
0010
1000
1000
,  // measure 36
0001
0100
0001
1000
,  // measure 37
0010
0010
0100
0100
,  // measure 38
0001
0001
0010
0010
,  // measure 39
2000
0000
0000
0000
,  // measure 40
0000
0000
0000
0000
0000
0000
0000
3000
,  // measure 41
0000
0100
0000
0000
,  // measure 42
0001
0000
1000
0000
,  // measure 43
0010
0000
0000
0000
,  // measure 44
0000
0000
0000
0000
,  // measure 45
0000
0000
0001
0000
,  // measure 46
0100
0000
0001
0000
,  // measure 47
1000
0000
0010
0000
,  // measure 48
0100
0000
0000
0000
,  // measure 49
1000
0000
0000
0000
0001
0000
0000
0000
0100
0000
0000
0010
0000
0000
0100
0000
,  // measure 50
0000
0000
0000
0000
0000
0000
0000
0000
0001
0000
0000
1000
0000
0000
0001
0000
,  // measure 51
0000
0000
0000
0100
0000
0000
0010
0000
,  // measure 52
0000
0000
0000
0000
,  // measure 53
1000
0000
0000
0000
0100
0000
0000
0000
0001
0000
0000
0010
0000
0000
0001
0000
,  // measure 54
0000
0000
0000
0000
0000
0000
0000
0000
1000
0000
0000
0100
0000
0000
1000
0000
,  // measure 55
0000
0000
0000
0010
0000
0000
0100
0000
,  // measure 56
0000
0000
0000
0000
,  // measure 57
0001
0000
0000
0000
1000
0000
0000
0000
0010
0000
0000
0010
0000
0000
0000
0000
;
