#TITLE:C'mon & Rave;
#SUBTITLE:;
#ARTIST:3R2;
#TITLETRANSLIT:;
#SUBTITLETRANSLIT:;
#ARTISTTRANSLIT:;
#GENRE:RAVE;
#CREDIT:I'm gonna guess brunobg24 or mf32892.;
#BANNER:[Round A Bonus] - C'mon & Rave!.png;
#BACKGROUND:[Round A Bonus] - C'mon & Rave!-bg.png;
#LYRICSPATH:;
#CDTITLE:cdtitle.png;
#MUSIC:[Round A Bonus] - C'mon & Rave!.ogg;
#OFFSET:-1.020000;
#SAMPLESTART:14.719998;
#SAMPLELENGTH:13.821429;
#SELECTABLE:YES;
#BPMS:0.000000=140.000000
,28.250000=560.000000
,29.750000=280.000000
,30.500000=140.000000
,30.750000=70.000000
,31.000000=140.000000
;
#STOPS:28.000000=0.536000
;
#BGCHANGES:;
#KEYSOUNDS:;
#ATTACKS:;

//---------------dance-single - Gets rather intense. Good luck though!----------------
#NOTES:
     dance-single:
     C 10 X 15:
     Challenge:
     10:
     0.727264,0.729353,0.758600,0.155376,0.790590,557.000000,474.000000,83.000000,17.000000,14.000000,0.000000,0.727264,0.729353,0.758600,0.155376,0.790590,557.000000,474.000000,83.000000,17.000000,14.000000,0.000000:
// measure 0
0000
0000
0000
0000
,  // measure 1
0000
0000
0000
0000
,  // measure 2
0000
0000
0000
0000
,  // measure 3
0000
0000
0000
0000
,  // measure 4
1001
0000
1100
0000
1001
0001
0100
0010
,  // measure 5
0110
0000
0100
0000
0000
0100
0000
1000
0000
1000
0100
0000
0100
0000
0001
0000
,  // measure 6
0101
0000
1001
0000
1100
1000
0001
0010
,  // measure 7
0200
0000
0000
0000
0000
0000
0000
0000
0000
0000
0000
0000
1300
0001
1000
0001
,  // measure 8
0100
0000
0000
1010
0000
0000
1000
0001
0000
0001
0000
0010
1000
0000
0010
0000
,  // measure 9
0011
0000
0000
1100
0000
0000
0100
1000
0000
1000
0000
0010
0001
0000
0010
0000
,  // measure 10
1010
0000
0000
1001
0000
0000
0001
0010
0000
0010
0000
0100
0001
0000
0100
0000
,  // measure 11
1100
0000
0000
1001
0000
0000
1000
0010
0000
0010
0001
0010
0100
0000
0001
0000
,  // measure 12
1000
0000
0000
1100
0000
0000
0100
0010
0000
0100
0000
0100
1000
0000
0001
0000
,  // measure 13
0100
0000
0000
0110
0000
0000
0100
0001
0000
1000
0000
1000
0100
0000
0010
0000
,  // measure 14
0001
0000
0000
1001
0000
0000
1000
0010
0000
0100
0000
0100
0010
0000
1000
0000
,  // measure 15
0001
0000
0010
0000
MMMM
0000
0010
0000
0100
0010
0100
0010
0M00
0000
0001
0000
,  // measure 16
2001
0000
0000
0100
0000
0000
3010
0000
0000
0010
1000
0000
1000
0000
0100
0000
,  // measure 17
0012
0000
0000
0100
0000
1003
0001
0000
1000
0001
0100
0010
0000
0010
1000
0000
,  // measure 18
1002
0000
0000
0100
0000
0000
0013
0000
0000
0010
0001
0000
0001
0000
0100
0000
,  // measure 19
1010
0000
1000
0100
0000
0100
0020
0230
0320
0000
2030
0000
3002
0000
0200
0303
,  // measure 20
2100
0000
0000
0010
0000
0000
3001
0000
0000
0001
1000
0000
0010
0000
0100
0000
,  // measure 21
0102
0000
0000
0010
0000
1003
0001
0000
0001
1000
0001
0010
0000
0010
0001
0000
,  // measure 22
2100
0000
3001
0020
0100
0000
0031
0000
1000
0001
0010
0001
1000
0010
0100
0001
,  // measure 23
M000
00M0
0000
0M00
000M
0000
0001
1000
0001
0000
0000
0110
0000
1000
0001
0000
,  // measure 24
0101
0000
0000
0011
0000
0000
1000
0010
0M00
0010
0000
0001
0010
0000
0100
0000
,  // measure 25
1100
0000
0000
1010
0000
0000
0001
0010
0M00
0010
0000
1000
0100
0000
0010
0000
,  // measure 26
0011
0000
0000
0101
0000
0000
1000
0100
00M0
0100
0000
0001
0100
0000
0010
0000
,  // measure 27
1010
0000
0000
1100
0000
0000
0100
0001
0000
0001
0100
0010
0100
0000
1000
0000
,  // measure 28
1100
0000
0000
1100
0000
0000
0100
1000
0000
1000
0000
0010
0001
0000
0010
0000
,  // measure 29
1010
0000
0000
1010
0000
0000
0010
0100
0000
0100
0000
0010
0001
0000
0010
0000
,  // measure 30
1010
0000
0000
1001
0000
0000
0001
0010
0000
0010
0000
0100
0001
0000
0100
0000
,  // measure 31
1000
0000
1000
0000
0010
0001
1000
0100
,  // measure 32
0001
1000
0010
1000
0001
0010
0001
1000
0002
2000
0000
0000
0000
0000
3003
0000
,  // measure 33
1000
0010
0000
0100
0010
0000
1000
0010
0000
0100
0001
1000
0010
0000
0010
0000
,  // measure 34
0100
0010
0000
1000
0010
0000
1000
0001
0000
1000
0100
0010
0100
0000
1000
0000
,  // measure 35
0001
0010
0000
0100
0010
0000
0001
1000
0000
0001
1000
0001
0010
0000
0010
0000
,  // measure 36
0100
1000
0000
0001
1000
0000
0100
0001
0000
0100
0010
0001
1000
0000
0010
0000
,  // measure 37
0100
0001
0000
0100
1000
0000
0100
0010
0000
1000
0100
0010
1000
0000
1000
0000
,  // measure 38
0010
0100
0000
0001
0100
0000
0010
0001
0000
0100
0010
0001
0010
0000
0010
0000
,  // measure 39
1000
0100
0010
0001
1000
0010
0100
1000
0100
0010
1000
0001
0010
0100
0001
0200
,  // measure 40
0010
0000
1000
1300
0010
1000
1MM1
0001
,  // measure 41
0011
0000
0001
1000
0001
0000
0100
0000
0001
1000
0010
0000
0101
0000
1000
0000
,  // measure 42
1001
0000
0001
0010
0000
0010
1000
0000
0010
0000
0010
0000
0001
0100
0010
0000
,  // measure 43
1010
0000
1000
0001
1000
0000
0100
0000
0010
0001
1000
0000
1010
0000
0100
0000
,  // measure 44
0010
0000
0100
0010
1000
0000
0010
0000
0110
0000
0011
0000
0110
0000
0101
0000
,  // measure 45
1001
0000
1000
0010
0100
0000
0001
0000
1000
0001
0010
0000
1100
0000
0100
0000
,  // measure 46
1000
0000
0001
0100
0000
0100
1000
0000
0100
0000
0100
0000
0001
1000
0010
0000
,  // measure 47
0101
0000
0001
1000
0001
0000
0010
0000
0001
1000
0010
0000
0100
0000
0100
0000
,  // measure 48
1010
0000
1000
0100
0001
0000
0001
0100
0010
0100
1000
0000
1010
0000
1000
0000
,  // measure 49
1001
0000
0001
0100
0010
0000
0001
0000
0010
0100
0001
0000
1001
0000
0001
0000
,  // measure 50
0010
0000
0100
1000
0000
1000
0001
0000
0100
0010
0100
0000
1010
0000
1000
0000
,  // measure 51
1001
0000
1000
0100
0010
0000
1000
0000
0010
0100
1000
0000
1100
0000
1000
0000
,  // measure 52
1001
0000
0001
0100
0010
0000
0100
0010
0001
0010
0100
0000
0101
0000
0001
0000
,  // measure 53
1001
0000
0000
1100
0000
0000
0110
0000
0000
0101
0000
0000
0100
0010
0001
0000
,  // measure 54
0101
0000
0000
1001
0000
0001
1000
0000
1100
0000
1001
0000
0101
0000
1010
0000
,  // measure 55
0110
0000
0000
0101
0000
0000
0011
0000
0000
0110
0000
0010
0001
1000
0001
0000
,  // measure 56
1001
0000
0000
1100
0000
0000
1100
0000
0110
0000
0110
0000
1100
0000
1001
0000
,  // measure 57
0110
0000
0000
0000
;

//---------------dance-single - Meh.----------------
#NOTES:
     dance-single:
     C 2 X 3:
     Beginner:
     2:
     0.189324,0.260483,0.228494,0.000000,0.000000,145.000000,120.000000,25.000000,0.000000,0.000000,0.000000,0.189324,0.260483,0.228494,0.000000,0.000000,145.000000,120.000000,25.000000,0.000000,0.000000,0.000000:
0000
0000
0000
0000
,
0000
0000
0000
0000
,
0000
0000
0000
0000
,
0000
0000
0000
0000
,
0010
0000
0000
0000
,
0010
0000
0000
0000
,
0010
0000
0000
0000
,
0000
0000
0000
0000
,
1001
0000
0000
1000
,
1000
0000
0000
0001
,
0001
0000
0000
1000
,
1000
0000
0010
0000
,
1001
0000
0000
0001
,
0001
0000
0000
1000
,
1000
0000
0000
0001
,
0001
0000
1001
0000
,
0100
0100
0100
0000
,
0010
0010
0010
0000
,
0100
0100
0100
0000
,
0010
0010
0010
0000
,
0100
0100
0100
0000
,
0010
0010
0010
0000
,
0100
0100
0100
0000
,
0100
0000
0000
0000
,
1001
0000
1000
1000
,
1000
0000
0001
0001
,
0001
0000
0010
0010
,
0010
0000
0100
0000
,
0110
0000
0000
1001
,
1001
0000
0000
1001
,
1001
0000
0110
0000
,
1001
0000
0000
0000
,
0000
0000
0000
0000
,
1001
0000
1000
0000
,
0001
0000
0001
0000
,
1000
0000
1000
0000
,
0001
0000
0001
0000
,
1001
0000
0000
0000
,
1001
0000
0000
0000
,
1001
0000
0110
0000
,
1001
0000
0000
0000
,
0001
0001
0001
0001
,
0001
0000
1000
1000
,
1000
1000
1000
1000
,
1000
0000
0001
0001
,
0001
0001
0001
0001
,
0001
0000
1000
1000
,
1000
1000
1000
0000
,
1001
0000
1001
0000
,
0010
0010
0010
0010
,
0010
0000
0100
0100
,
0100
0100
0100
0100
,
0100
0000
0010
0010
,
0110
0000
0000
0100
,
0110
0000
0000
0010
,
0110
0000
1001
0000
,
1001
0000
0000
0000
,
0110
0000
0000
0000
;

//---------------dance-single - Look out for that 16th at the end.----------------
#NOTES:
     dance-single:
     C 4 X 7:
     Easy:
     4:
     0.287250,0.397580,0.310752,0.228494,0.004570,220.000000,186.000000,34.000000,25.000000,4.000000,0.000000,0.287250,0.397580,0.310752,0.228494,0.004570,220.000000,186.000000,34.000000,25.000000,4.000000,0.000000:
0000
0000
0000
0000
,
0000
0000
0000
0000
,
0000
0000
0000
0000
,
0000
0000
0000
0000
,
1001
1000
0001
0000
,
1001
0001
0010
0001
,
1001
1000
0001
0000
,
0200
0000
0000
0300
,
1001
1000
0001
0010
,
0001
0001
1000
0010
,
0100
0100
0001
0010
,
0001
0100
1000
0100
,
0001
0001
1000
0010
,
1000
1000
0001
0010
,
0001
0001
1000
0100
,
0010
0010
0000
0100
0100
0000
0000
0000
,
1001
0000
0000
1000
0000
0000
0000
0000
,
0001
0000
0000
0010
0000
0000
0010
0000
,
0100
0000
0000
1000
0000
0000
0000
0000
,
1000
0000
1000
0000
0010
0010
0010
0000
,
1000
0000
0000
0001
0000
0000
0000
0000
,
1000
0000
0000
0010
0000
0000
0010
0000
,
0100
0001
1000
0001
,
0000
0000
1001
0000
,
1000
1000
0100
0020
,
0031
0001
0100
0020
,
1030
1000
0100
0020
,
0032
0010
2003
3010
,
1001
0000
0000
1010
,
1001
0000
0000
0011
,
1001
0000
0110
0000
,
0010
0000
0010
0000
0010
0100
0010
0200
,
0020
0000
0000
0330
,
1001
0001
0001
0010
,
0100
0100
0001
0100
,
1000
1000
0001
0100
,
0010
0000
0001
0000
0010
0000
1000
0001
,
2002
0000
3003
0000
,
2020
0000
3030
0000
,
0022
0033
0220
0330
,
2002
0000
3003
MMMM
,
0001
0010
0100
1000
,
0001
0001
0100
0001
,
1000
0010
0100
0001
,
1001
0011
1001
1010
,
1000
0001
0100
0010
,
1000
1000
0001
0100
,
0001
0010
0100
1000
,
1100
1001
0101
1001
,
0001
0000
1000
0000
0010
0000
0001
0010
,
0100
0000
0100
0000
0001
0010
0100
1000
,
0001
0000
0010
0000
0100
0000
0001
0100
,
0110
0000
0011
0000
1001
0000
0001
0100
,
0220
0000
0330
0101
,
0022
0000
0000
0000
0033
0000
0010
0100
,
2100
3001
0102
1003
,
0001
0000
0000
1000
0000
0000
0001
0000
0010
0000
0010
0000
0100
0000
0100
0000
,
2000
0000
0000
0000
,
3000
0000
0000
0000
;

//---------------dance-single - Challenge IS a bit more complex though.----------------
#NOTES:
     dance-single:
     C 9 X 13:
     Hard:
     9:
     0.574500,0.677257,0.420429,0.420429,0.566665,440.000000,394.000000,46.000000,46.000000,7.000000,0.000000,0.574500,0.677257,0.420429,0.420429,0.566665,440.000000,394.000000,46.000000,46.000000,7.000000,0.000000:
// measure 0
0000
0000
0000
0000
,  // measure 1
0000
0000
0000
0000
,  // measure 2
0000
0000
0000
0000
,  // measure 3
0000
0000
0000
0000
,  // measure 4
2001
0000
0100
0000
3001
0010
0100
1000
,  // measure 5
0002
0000
0100
0000
0000
1000
0000
0013
0000
0010
0001
0000
0001
0000
0100
0000
,  // measure 6
2001
0000
0010
0000
3001
0100
0010
2000
,  // measure 7
0MMM
0000
0000
0000
0000
0000
0000
0000
0000
0000
0000
0000
3001
0010
0001
0010
,  // measure 8
0001
0000
0000
0001
0000
0000
0100
0010
0000
0010
0000
0100
0002
0000
0010
0000
,  // measure 9
1003
0000
0000
1000
0000
0000
0100
0010
0000
0010
0000
0100
2000
0000
0010
0000
,  // measure 10
3001
0000
0000
0001
0000
0000
0010
0100
0000
0100
0000
0010
0002
0000
0100
0000
,  // measure 11
1003
0000
0000
1000
0010
0000
0010
0001
0000
0010
0100
0010
0100
0000
0100
0000
,  // measure 12
0001
0000
0000
1000
0000
0000
1000
0001
0000
0100
0000
0100
0020
0000
0100
0000
,  // measure 13
1030
0000
0000
0001
0000
0000
0001
1000
0100
0000
0100
0000
0020
0000
0100
0000
,  // measure 14
0031
0000
0000
1000
0000
0000
0001
1000
0000
0001
0000
0001
0200
0000
0001
0000
,  // measure 15
0310
0000
0001
0000
0020
0000
0130
0000
0001
1000
0001
1000
0100
0000
0100
0000
,  // measure 16
0011
0000
0000
0001
0000
0000
0010
0000
0000
0010
0001
0000
0001
0000
0200
0000
,  // measure 17
0310
0000
0000
0100
0000
0100
0001
0000
1000
0100
0010
0001
0000
0001
1000
0000
,  // measure 18
0010
0000
0000
1000
0000
0000
0010
0000
0000
1000
0001
0000
0001
0000
0100
0000
,  // measure 19
0010
0000
1000
0001
0000
0001
1000
0001
2000
0000
3200
0000
0320
0000
2030
0000
,  // measure 20
3010
0000
0000
0001
0000
0000
1001
0000
0000
0001
0100
0000
0010
0000
0100
0000
,  // measure 21
0010
0000
0000
1000
0000
0001
1000
0000
0001
0010
0100
1000
0000
1000
0001
0000
,  // measure 22
1000
0000
0000
0100
0000
0000
0010
0000
0100
1000
0001
0000
0001
0000
0100
0000
,  // measure 23
MMMM
0000
0000
0000
0000
0000
0100
0000
0110
0000
0000
1010
0000
1000
0001
0000
,  // measure 24
0011
0000
0000
0001
0000
0000
0100
0001
0000
0001
0000
0100
0010
0000
0100
0000
,  // measure 25
1010
0000
0000
1000
0000
0000
0100
1000
0000
1000
0000
0001
0010
0000
0100
0000
,  // measure 26
0011
0000
0000
0001
0000
0000
1000
0010
0000
0010
0000
1000
0001
0000
0100
0000
,  // measure 27
0110
0000
0000
0110
0000
0000
0100
0010
0000
0010
0100
0001
1000
0000
0001
0000
,  // measure 28
0012
0000
0000
1000
0000
0000
0103
0010
0000
0100
0000
0100
1000
0000
0100
0000
,  // measure 29
0102
0000
0000
1000
0000
0000
0013
0100
0000
0100
0000
0001
0100
0000
1000
0000
,  // measure 30
2100
0000
0000
0001
0000
0000
3010
0100
0010
0100
0000
0100
1000
0000
0100
0000
,  // measure 31
1002
0000
1000
0000
0023
0032
2003
3200
,  // measure 32
2300
0002
0000
0000
0000
0000
0000
0000
0000
0000
0000
0000
0000
0000
3003
0000
,  // measure 33
0101
0000
0100
0000
0100
0010
1000
0001
,  // measure 34
0010
0100
0010
1000
0010
0001
1000
0001
,  // measure 35
0101
0000
0001
0000
0001
0010
0100
1000
,  // measure 36
0010
0100
0010
0001
0010
1000
0002
0103
,  // measure 37
1001
0000
0001
0000
1000
0100
0010
0010
,  // measure 38
0011
0001
0100
0010
0100
0001
1000
0100
,  // measure 39
0011
0000
0001
0000
1001
1000
0010
0100
,  // measure 40
0020
0200
0000
0000
0000
0000
0330
0000
0010
0000
1000
0000
0100
0000
0100
0000
,  // measure 41
1200
0000
0000
0001
0000
0000
1000
0000
0000
0310
0000
0000
0002
0000
0100
0000
,  // measure 42
1003
0000
0000
1010
0000
0010
1000
0000
0100
0000
0100
0000
0020
0000
0031
0000
,  // measure 43
0201
0000
0000
0010
0000
0000
1000
0000
0000
0301
0000
0000
2000
0000
0100
0000
,  // measure 44
3001
0000
0000
0001
0010
0000
0010
1000
0000
0010
0100
0010
0002
0000
0100
0000
,  // measure 45
1003
0000
0000
1020
0000
0000
0001
0000
0000
0130
0000
0000
0002
0000
0010
0000
,  // measure 46
1003
0000
0000
1001
0000
0001
0100
0000
0010
0000
0010
0000
2000
0000
0100
0000
,  // measure 47
3001
0000
0000
0021
0000
0000
1000
0000
0000
0130
0000
0100
2000
3010
0100
0000
,  // measure 48
0001
0000
1000
0001
0100
0000
0001
0010
0100
0000
1100
0000
1001
0000
0101
0000
,  // measure 49
1001
0000
0000
0011
0000
0000
0110
0000
0000
1100
0000
1000
0002
0000
0100
0000
,  // measure 50
1003
0000
0000
1001
0000
0001
0100
0000
0010
0000
0010
0000
0001
0000
0010
0000
,  // measure 51
1010
0000
0000
1001
0000
0000
0011
0000
0000
0110
0000
1000
0100
1000
0100
0000
,  // measure 52
1000
0000
0001
1000
0010
0000
0010
0000
0001
0000
0001
0000
0011
0000
0010
0000
,  // measure 53
2010
0000
0000
0100
0000
0000
0001
0000
0000
3010
0000
0000
0110
0000
0100
0000
,  // measure 54
0102
0000
0000
0010
0000
1003
0001
0000
0100
0000
0100
0000
0010
1000
0001
0000
,  // measure 55
0012
0000
0000
0100
0000
0000
1000
0000
0000
0013
0000
0000
0011
0000
0001
0000
,  // measure 56
2000
0002
0000
0000
0000
0000
0000
0000
0000
0000
0000
0000
3003
0000
0000
0000
,  // measure 57
0110
0000
0000
0000
;

//---------------dance-single - I hope it's good.----------------
#NOTES:
     dance-single:
     C 7 X 11:
     Medium:
     7:
     0.507910,0.573063,0.648923,0.146236,0.242204,389.000000,318.000000,71.000000,16.000000,8.000000,0.000000,0.507910,0.573063,0.648923,0.146236,0.242204,389.000000,318.000000,71.000000,16.000000,8.000000,0.000000:
0000
0000
0000
0000
,
0000
0000
0000
0000
,
0000
0000
0000
0000
,
0000
0000
0000
0000
,
1001
0000
0000
0000
,
1010
0000
0000
0000
,
0011
0000
0000
0000
,
MMMM
0000
0000
0000
,
0101
0000
0000
0001
0000
0000
0100
0000
0000
0000
0001
0000
0010
0000
0010
0000
,
0001
0000
0000
1000
0000
0000
0100
0000
0000
0000
1000
0000
0010
0000
0010
0000
,
1000
0000
0000
0001
0000
0000
0100
0000
0000
0000
0001
0000
0010
0000
0010
0000
,
0100
0010
0100
0001
0100
0010
0001
1000
,
0010
0000
0000
1000
0000
0000
0001
0000
0000
0000
0100
0000
1000
0000
1000
0000
,
0100
0000
0000
0001
0000
0000
1000
0000
0000
0000
0100
0000
0001
0000
0001
0000
,
0100
0000
0000
1000
0000
0000
0001
0000
0000
0000
0100
0000
0010
0000
0010
0000
,
1000
0001
0000
0010
0001
0001
0000
0100
,
1010
0000
0000
1000
0000
0000
0001
0000
0000
0000
0001
0000
1000
0000
0100
0000
,
0010
0000
0000
0100
0000
0000
1000
0000
0010
0000
0000
0001
0000
0000
0010
0000
,
1000
0000
0000
0001
0000
0000
0010
0000
0000
0000
0001
0000
1000
0000
0001
0000
,
0100
0000
0000
1000
0000
0000
0010
0000
0100
0000
0100
0000
1000
0000
1000
0000
,
0010
0000
0000
1000
0000
0000
0001
0000
0000
0000
1000
0000
0001
0000
0100
0000
,
0010
0000
0000
1000
0000
0000
0001
0000
0010
0000
0000
1000
0000
0000
0010
0000
,
0001
0000
0000
0100
0000
0000
0010
0000
1000
0000
0010
0000
0100
0000
0001
0000
,
MMMM
0000
0000
0000
0000
0000
0000
0000
1001
0000
0000
0011
0000
0000
0110
0000
,
1100
0000
0000
1100
0000
0000
1000
0100
0000
0000
0100
0000
0001
0000
0100
0000
,
0011
0000
0000
0011
0000
0000
0001
0100
0000
0000
0100
0000
1000
0000
0100
0000
,
0110
0000
0000
0110
0000
0000
0010
1000
0000
0000
0100
0000
0010
0000
0100
0000
,
1000
0010
0100
0010
0001
0010
1000
0001
,
0011
0000
0000
0011
0000
0000
0100
0010
0000
0001
0000
0000
1001
0000
0000
0000
,
1010
0000
0000
1010
0000
0000
0100
0010
0000
1000
0000
0000
1001
0000
0000
0000
,
0011
0000
0000
0110
0000
0000
1000
0000
1010
0000
0010
0000
0001
0000
0010
0000
,
2000
0000
0001
0000
0001
0001
0001
0002
,
0000
0000
0000
3003
,
1001
0000
0011
0000
1001
0001
0100
0010
,
0001
0010
0100
0010
1000
0001
0100
0010
,
1010
0000
1001
0000
1010
0010
0100
0001
,
0010
0100
0001
1000
0010
0001
1000
0010
,
1010
0000
0110
0000
1001
0001
0010
0100
,
1100
0100
0001
1000
0010
0001
1000
0001
,
1001
0000
0101
0000
0110
0010
1000
0001
,
0022
0000
0033
0000
0100
0000
0110
1000
,
1001
0000
0000
0011
0000
0000
0110
0000
0000
1100
0000
0000
0020
0000
0001
0000
,
0130
0000
0000
1100
0000
0000
1000
0000
0001
0000
0001
0000
0010
0000
0010
0000
,
0011
0000
0000
1001
0000
0000
1010
0000
0000
0110
0000
0000
0200
0000
0010
0000
,
0301
0100
0010
0100
1000
1000
0100
0010
,
1010
0000
0000
1001
0000
0000
0110
0000
0000
1001
0000
0000
0201
0000
0010
0000
,
0301
0000
0000
1001
0000
0000
1000
0000
0010
0000
0010
0000
0100
0000
0001
0000
,
0101
0000
0000
0110
0000
0000
1001
0000
0000
0011
0000
0000
0020
0000
0100
0000
,
0031
0001
0100
0100
1000
0100
0001
0010
,
0210
0000
0000
1000
0000
0000
0010
0000
0000
0301
0000
0000
0101
0000
0100
0000
,
2000
0000
0000
0010
0000
3010
1000
0000
0001
0000
0001
0000
0100
0000
0100
0000
,
0120
0000
0000
1000
0000
0000
0100
0000
0000
0031
0000
0000
0011
0000
0010
0000
,
1010
1000
0100
0010
1000
0010
0110
0100
,
2100
0000
0000
0010
0000
0000
0001
0000
0000
3010
0000
0000
0110
0000
0100
0000
,
0102
0000
0000
0010
0000
0013
0100
0000
1000
0000
1000
0000
1010
0000
0010
0000
,
2010
0000
0000
0100
0000
0000
3001
0000
0021
0000
0000
0130
0010
0100
0010
0000
,
1002
0000
0000
1000
0000
0000
1003
0000
0010
0000
0010
0000
0100
0000
0001
0000
,
1001
0000
0000
0000
;
