#TITLE:Suck My Block;
#SUBTITLE:;
#ARTIST:SynthWulf;
#TITLETRANSLIT:;
#SUBTITLETRANSLIT:;
#ARTISTTRANSLIT:;
#GENRE:;
#CREDIT:;
#BANNER:[ROUND L] - Suck My Block.png;
#BACKGROUND:[ROUND L] - Suck My Block-bg.png;
#LYRICSPATH:;
#CDTITLE:cdtitle.png;
#MUSIC:[ROUND L] - Suck My Block.ogg;
#OFFSET:-0.010000;
#SAMPLESTART:65.818573;
#SAMPLELENGTH:12.342857;
#SELECTABLE:YES;
#BPMS:0.000000=175.000000
,59.500000=87.500000
,92.000000=175.000000
,152.000000=87.500000
,153.000000=175.000000
;
#STOPS:31.000000=0.171000,
59.500000=1.028000,
153.000000=0.343000,
185.000000=0.343000,
248.000000=0.343000
;
#BGCHANGES:;
#KEYSOUNDS:;
#ATTACKS:;

//---------------dance-single - ----------------
#NOTES:
     dance-single:
     :
     Hard:
     8:
     0.550323,0.485871,0.138820,0.824245,0.008676,333.000000,16.000000,95.000000,0.000000,0.000000,0.000000,0.550323,0.485871,0.138820,0.824245,0.008676,333.000000,16.000000,95.000000,0.000000,0.000000,0.000000:
// measure 0
0000
0000
0000
0000
,  // measure 1
0000
0000
0000
0000
,  // measure 2
0000
0000
0000
0000
,  // measure 3
0000
0000
0000
0000
,  // measure 4
0002
0000
1003
0000
0001
0010
0100
1000
,  // measure 5
0002
0000
0103
0000
0001
0010
0100
1000
,  // measure 6
0002
0000
0103
0000
0001
0010
0100
1000
,  // measure 7
0002
0000
0000
0000
0000
0000
0000
0000
0000
0000
0000
0000
0000
0000
0000
0000
0103
0000
0000
0000
0000
0000
0000
0000
0000
0000
0000
0000
0000
0000
0000
0000
0001
0000
0000
0000
0000
0000
0000
0000
0010
0000
0000
0000
0000
0000
0000
0000
2000
3000
0000
0000
0000
0000
0000
0000
0020
0000
0000
0000
0000
0000
0000
0000
,  // measure 8
0000
0130
1000
0001
1000
0010
0100
0002
,  // measure 9
0000
0103
0001
1000
0001
0010
0100
2000
,  // measure 10
0000
3100
1000
0001
1000
0010
0100
0002
,  // measure 11
0000
0103
0001
1000
0001
0010
0100
2000
,  // measure 12
3000
1000
0010
0002
0003
0001
0010
2000
,  // measure 13
3000
1000
0100
0002
0003
0001
0100
2000
,  // measure 14
0000
3020
0000
0230
0000
0302
0000
1003
,  // measure 15
0220
0000
0000
0000
,  // measure 16
0000
0000
0000
0000
0000
0000
0000
0330
,  // measure 17
2000
0000
0200
3000
,  // measure 18
0020
0300
0002
0033
,  // measure 19
1000
0100
1000
0010
0100
0001
0010
0001
,  // measure 20
0100
0010
1000
0100
0010
0001
2000
0000
,  // measure 21
3000
0001
0000
0100
0001
0000
0010
0000
0200
0000
0000
0000
1300
0000
0001
0000
,  // measure 22
0100
0010
0100
0001
0010
0100
0200
0000
,  // measure 23
1300
0001
0001
0001
,  // measure 24
0100
0010
1000
0001
,  // measure 25
0010
0100
0100
0100
,  // measure 26
1000
0001
0100
0001
,  // measure 27
1000
0100
0000
0100
0000
0100
0000
0100
,  // measure 28
0010
0001
0000
0001
0000
0001
0000
0001
,  // measure 29
0100
0010
0000
0010
0000
0010
0000
0010
,  // measure 30
2000
3001
1001
0000
,  // measure 31
1001
1000
0100
0010
,  // measure 32
1001
0001
0100
0010
,  // measure 33
1001
1000
0100
0010
,  // measure 34
1001
0001
0100
0010
,  // measure 35
1010
0001
0011
1000
,  // measure 36
1100
0001
0101
1000
,  // measure 37
1000
0010
0100
0010
0001
0010
0100
0010
,  // measure 38
1000
0001
1001
0000
0002
0000
1003
0100
,  // measure 39
0020
0000
0031
0100
2000
0000
3100
0010
,  // measure 40
1000
1000
0100
0010
0002
1000
1003
0001
,  // measure 41
0200
0310
2010
0001
,  // measure 42
3200
0000
0310
0000
0001
1000
0000
1000
,  // measure 43
0001
0010
0100
1000
0002
0000
0103
0010
,  // measure 44
1000
0100
0010
0001
2000
0000
3010
0100
,  // measure 45
0002
1003
1020
0001
,  // measure 46
0200
0000
0300
1030
0100
0010
0002
0000
,  // measure 47
0103
0010
2000
0000
3100
0010
0001
0001
,  // measure 48
0010
0100
2000
0001
3001
0100
0020
0000
,  // measure 49
1030
1020
0100
0032
,  // measure 50
0013
0000
1000
0200
0000
0310
0001
1000
,  // measure 51
0001
0100
0020
1000
1030
0001
0100
0001
,  // measure 52
0010
0100
2000
0000
3010
0100
0002
0000
,  // measure 53
1003
1200
0001
0320
,  // measure 54
0130
0000
1000
0002
0000
0103
0020
0000
,  // measure 55
1030
0002
0000
0023
0000
0130
2000
0000
,  // measure 56
3001
0200
0000
0310
2000
0000
3200
0000
,  // measure 57
0310
0002
0000
0103
0020
0000
2030
0000
,  // measure 58
3002
0000
0013
0200
0000
1300
0020
0000
,  // measure 59
0130
0002
0000
2003
0000
3100
0020
0000
,  // measure 60
0031
0000
2000
0000
3020
0000
0230
0300
,  // measure 61
0200
0020
0000
0000
0000
0000
0000
0000
,  // measure 62
0330
0002
0000
0103
0020
0000
1030
0002
,  // measure 63
0000
0023
0000
0031
0200
0000
0310
2000
,  // measure 64
0000
3100
2000
0000
3200
0000
0310
0002
,  // measure 65
0000
1003
0020
0000
0230
0000
0302
0000
,  // measure 66
1003
0200
0000
0301
0200
0000
1300
0200
,  // measure 67
0000
0320
0000
0031
2000
0000
3010
0000
,  // measure 68
0200
0000
0302
0000
0023
0030
0020
0200
,  // measure 69
0000
0000
0000
0330
,  // measure 70
1001
0000
0000
0000
;

//---------------dance-single - ----------------
#NOTES:
     dance-single:
     :
     Challenge:
     9:
     0.737482,0.941374,0.268964,0.832921,0.117130,468.000000,31.000000,96.000000,0.000000,0.000000,0.000000,0.737482,0.941374,0.268964,0.832921,0.117130,468.000000,31.000000,96.000000,0.000000,0.000000,0.000000:
0000
0000
0000
0000
,
0000
0000
0000
0000
,
0000
0000
0000
0000
,
0000
0000
0000
0000
,
0001
0000
1000
0100
0010
0100
1000
0001
,
0100
0000
1000
0100
0010
0100
1000
0001
,
0100
0000
1000
0100
0010
0100
1000
0001
,
0100
0000
0000
0000
0000
0000
0000
0000
0000
0000
0000
0000
0000
0000
0000
0000
1000
0000
0000
0000
0000
0000
0000
0000
0100
0000
0000
0000
0000
0000
0000
0000
0010
0000
0000
0000
0000
0000
0000
0000
0100
0000
0000
0000
1000
0000
0000
0000
0002
0003
0000
0000
0000
0000
0000
0000
0200
0000
0000
0000
0000
0000
0000
0000
,
0000
0000
0310
0000
0100
0000
0001
0000
0100
0010
0100
0000
0010
0000
2000
0000
,
0000
0000
3010
0000
0100
0000
0001
0000
0100
0010
0100
0000
0010
0000
2000
0000
,
0000
0000
3010
0000
0100
0000
0001
0000
0100
0010
0100
0000
0010
0000
2000
0000
,
0000
0000
3010
0000
0100
0000
0001
0000
0100
0010
0100
0000
0010
0000
2000
0000
,
0000
3100
0010
0012
0000
0103
0010
2010
,
0000
3100
0010
0012
0000
0103
0010
1010
,
0000
0000
0000
0000
0000
0000
0000
0000
1100
0000
0000
0000
0000
0000
0000
0000
0000
0000
0000
0000
0000
0000
0000
0000
0101
0000
0000
0000
0000
0000
0000
0000
0000
0000
0000
0000
0000
0000
0000
0000
0011
0000
0000
0000
0000
0000
0000
0000
0000
0000
0000
0000
0000
0000
0000
0000
2002
3003
0000
0000
0000
0000
0000
0000
,
0220
0000
0000
0000
,
0000
0000
0000
0000
0000
0000
0000
0330
,
0000
0000
1000
0000
0000
0000
1000
0000
0001
0000
0010
0100
0010
0000
0100
0000
2000
0000
0000
0000
0000
0000
3010
0000
0100
0000
0000
0000
0001
0000
0010
0000
,
0100
0000
0100
0010
0002
0000
1003
0000
1010
0000
0101
0000
2002
0000
3003
0000
,
0002
0000
0000
0000
1003
0000
0100
0000
0010
0000
0001
0010
0001
0000
0100
0000
0020
0000
0000
0000
1030
0000
0010
0000
0001
0000
0001
0000
0010
0000
1000
0000
,
0100
0000
0100
0010
0002
0000
1003
0000
1100
0000
0011
0000
1002
0000
0000
0000
,
0003
1000
0000
0100
0010
0000
0001
1000
0020
0000
0000
0130
0001
0000
0010
0100
,
1000
0000
1000
0100
0010
0000
0001
0000
0101
0000
0110
0000
2002
0000
3003
0000
,
0002
0000
1003
0100
0010
0000
0100
1000
,
0020
0000
0000
0130
0002
0000
0013
0100
,
0100
1000
0010
0100
0002
0000
1003
0000
,
1020
0001
0230
0310
,
1000
0200
0000
0310
0001
0001
0010
0100
,
2000
0000
3010
1000
0002
0000
0103
0010
,
2000
0000
3100
0010
0002
0000
1003
0000
,
1020
0001
0230
0301
,
0012
0000
1003
0100
0020
0000
0130
1000
,
0002
0000
1003
0100
0020
0000
0130
1000
,
0002
0000
1003
0100
0020
0000
0130
1000
,
0002
0000
1003
0100
0020
0000
0130
1000
,
0002
0000
1003
0010
0002
0000
1003
0100
,
0002
0000
1003
0010
0002
0000
1003
0100
,
0001
1000
0001
0010
1000
0010
0100
0010
,
0001
1000
1001
0000
1000
0001
0100
0001
,
0010
0100
1000
0010
0100
0001
1000
0001
,
0010
1000
0010
0001
1000
0010
0100
0001
,
1000
0100
0010
0001
0011
0000
1100
0000
,
1010
0000
0101
0000
1000
0010
0100
0001
,
0010
0001
0100
0010
1000
0100
1000
0001
,
0010
1000
0010
0001
1000
0010
1000
0010
,
0100
0001
0010
0001
0100
1000
0100
0001
,
1000
0100
0010
0001
1000
0100
0010
0100
,
1000
0010
0100
0001
0100
0010
0001
0010
,
0001
0010
1000
0100
0010
0001
1000
0010
,
0001
0010
1010
0000
0101
0000
0011
0000
,
1100
0000
0001
0010
1000
0010
0100
0010
,
0001
1000
0001
0100
1000
0100
0010
0100
,
0001
1000
0001
0010
1000
0010
0001
0100
,
0010
1000
0001
0100
0010
0001
0010
0100
,
0001
0000
0001
2000
3100
1000
0020
0130
,
0001
2000
3100
0020
0130
1000
0020
0130
,
0001
2000
3100
0010
0200
1300
0020
0130
,
0002
2003
3100
0001
0200
1300
0020
0130
,
0002
0000
1003
0020
0031
0010
2000
3100
,
0010
0002
1003
0002
1003
0001
0200
0310
,
1000
0100
0020
0031
2000
3001
0200
0310
,
2000
0200
3000
0310
0001
1000
0001
0100
,
0020
0030
0000
0000
0000
0000
0000
0000
2000
0000
0000
0000
0000
0000
0000
0000
3001
0000
0000
0000
0000
0000
0000
0000
0100
0000
0000
0000
0000
0000
0000
0000
0002
0000
0000
0000
0000
0000
0000
0000
0013
0000
0000
0000
0000
0000
0000
0000
0100
0000
0000
0000
0000
0000
0000
0000
0020
0000
0000
0000
0000
0000
0000
0000
,
0031
0020
0031
1000
0020
0130
0010
2000
,
3001
0100
0002
0013
2000
3010
0002
0203
,
0310
1000
0020
0031
0020
1030
0002
0000
,
1003
0200
0310
0100
2000
3010
0100
0002
,
0013
2000
3010
0001
2000
3100
0010
0001
,
2000
3010
0002
0013
0200
0301
0020
0200
,
0030
1300
0010
1000
0001
0100
0010
0000
,
1001
0000
0000
0000
;

//---------------dance-single - ----------------
#NOTES:
     dance-single:
     :
     Medium:
     6:
     0.425137,0.485871,0.225583,0.329698,0.008676,279.000000,26.000000,38.000000,0.000000,0.000000,0.000000,0.425137,0.485871,0.225583,0.329698,0.008676,279.000000,26.000000,38.000000,0.000000,0.000000,0.000000:
0000
0000
0000
0000
,
0000
0000
0000
0000
,
0000
0000
0000
0000
,
0000
0000
0000
0000
,
0011
0000
0100
0000
1000
0001
0100
0000
,
1010
0000
0100
0000
0001
1000
0100
0000
,
0011
0000
0100
0000
1000
0001
0100
0000
,
1010
0000
0000
0000
0000
0000
0000
0000
0000
0000
0000
0000
0000
0000
0000
0000
0100
0000
0000
0000
0000
0000
0000
0000
0000
0000
0000
0000
0000
0000
0000
0000
0001
0000
0000
0000
0000
0000
0000
0000
1000
0000
0000
0000
0000
0000
0000
0000
0200
0300
0000
0000
0000
0000
0000
0000
1100
0000
0000
0000
0000
0000
0000
0000
,
0000
0010
0000
0001
1000
0010
0000
0101
,
0000
0010
0000
1000
0001
0010
0000
1100
,
0000
0010
0000
0001
1000
0010
0000
0101
,
0000
0010
0000
1000
0001
0010
0000
1100
,
0000
0010
0000
0101
0000
0010
0000
1100
,
0000
0010
0000
0101
0000
0010
0000
1100
,
0000
0000
0000
0000
0000
0000
0000
0000
0011
0000
0000
0000
0000
0000
0000
0000
0000
0000
0000
0000
0000
0000
0000
0000
0101
0000
0000
0000
0000
0000
0000
0000
0000
0000
0000
0000
0000
0000
0000
0000
1010
0000
0000
0000
0000
0000
0000
0000
0000
0000
0000
0000
0000
0000
0000
0000
2002
3003
0000
0000
0000
0000
0000
0000
,
0220
0000
0000
0000
,
0000
0000
0000
0330
,
0002
0000
0023
0000
,
0230
0000
2000
3300
,
1000
0001
0100
0001
2000
0000
3100
0010
,
0001
1000
0001
0100
0010
0010
0020
0000
,
0030
0100
0000
0100
0001
0000
0010
0000
0200
0000
0000
0000
1300
0000
0001
0000
,
1000
0010
0100
0001
1000
1000
2000
0000
,
3001
1000
0100
1000
,
0001
0100
0001
0100
,
0010
1000
0100
0010
,
0001
1000
0001
0100
,
0010
0010
1000
1000
,
0001
0001
0010
0010
,
0001
0100
0010
1000
,
0001
0010
2000
3000
,
0010
0001
1000
0010
,
0001
0010
1000
0001
,
0010
1000
0010
0001
,
1000
0010
0001
0010
,
1000
0100
0001
0100
,
1000
0010
0001
0010
,
1000
0100
0010
0001
,
1000
0010
0110
0000
0001
0000
1000
0000
,
0100
0000
0010
0100
0010
0000
0001
0000
,
1000
0000
0010
0100
0010
0000
1000
0000
,
0001
0010
1100
0101
,
2002
0000
3003
0000
0001
2000
0000
3100
,
0010
0000
0001
0000
2000
0000
0000
0001
,
3001
0000
0100
0000
0010
0000
1000
0100
,
1000
0010
0100
0001
,
2000
0000
3001
0001
0010
0000
0100
0000
,
1000
0000
0020
0000
0000
0130
0002
0000
,
0013
0100
1000
0000
1000
0000
0010
0000
,
1000
1100
0101
2002
,
3003
0000
1000
0002
0000
0013
0001
0000
,
0100
0010
0100
0000
0010
0000
1000
0000
,
0001
1000
0001
0000
0010
0100
0010
0000
,
0001
0100
0010
2000
,
3000
0000
0001
1000
0000
1000
0100
0000
,
0100
0010
0000
0020
0000
0000
0031
0000
,
0001
2000
0000
0000
3010
0000
0100
0000
,
0100
0002
0000
0000
1003
0000
0100
0000
,
0010
0000
0010
0001
0000
0001
1000
0000
,
1000
0010
0000
0020
0000
0000
0230
0000
,
0000
0310
1000
0001
,
0001
0020
0000
0000
0000
0000
0000
0000
,
0130
1000
0000
1000
0010
0000
0010
0100
,
0000
0200
0000
0000
0301
0000
0001
2000
,
0000
3000
1000
0000
0100
0000
0100
0020
,
0000
0030
0010
0000
0001
0000
1000
0000
,
1000
0001
0000
0001
0100
0000
0100
0010
,
0000
0020
0000
0000
2030
0000
0000
0000
,
3100
0000
0010
0000
0001
0000
0002
2000
,
0000
0000
0000
3003
,
1001
0000
0000
0000
;

//---------------dance-single - ----------------
#NOTES:
     dance-single:
     :
     Easy:
     4:
     0.298711,0.364403,0.130144,0.138820,0.000000,210.000000,15.000000,16.000000,0.000000,0.000000,0.000000,0.298711,0.364403,0.130144,0.138820,0.000000,210.000000,15.000000,16.000000,0.000000,0.000000,0.000000:
0000
0000
0000
0000
,
0000
0000
0000
0000
,
0000
0000
0000
0000
,
0000
0000
0000
0000
,
0001
0000
0100
0010
,
1000
0000
0100
0010
,
0001
0000
0100
0010
,
1000
0000
0000
0000
0100
0000
0010
0001
,
0000
0000
0000
0100
0000
0010
0000
1000
,
0000
0000
0000
0100
0000
0010
0000
0001
,
0000
0000
0000
0100
0000
0010
0000
1000
,
0000
0000
0000
0100
0000
0010
0000
0001
,
0000
0000
0000
1000
0000
0000
0000
0001
,
0000
0000
0000
1000
0000
0000
0000
0001
,
0000
1000
0000
0001
0000
1000
0000
0001
,
1001
0000
0000
0000
,
0000
0000
0000
0000
,
2000
0000
0000
3000
0002
0000
0000
0003
,
0200
0000
0000
0300
0020
0000
0000
0030
,
1000
0001
1000
0100
,
0010
0001
1000
0020
,
0030
0100
0002
1003
,
0002
0000
0023
0000
0130
0100
0100
0000
,
1000
0100
0100
0100
,
1000
0000
0001
0000
,
0100
0010
0010
0010
,
0100
0010
0100
0000
,
0001
1000
0001
1000
,
0100
0000
0010
0001
,
1000
0010
0100
0001
,
1000
0100
1100
0000
,
0101
0000
1000
0100
,
1100
0000
1000
0010
,
1010
0000
0001
0010
,
0011
0000
0001
0100
,
0101
0000
1010
0000
,
0110
0000
1001
0000
,
0110
0110
1001
1001
,
0000
0000
0001
1000
,
0100
1000
0020
0000
,
0130
0001
1000
0001
,
0010
0100
1000
0001
,
2000
0000
3000
0001
,
0100
0001
2000
0000
,
3100
0010
0001
0001
,
1000
1000
0010
0100
,
0020
0030
1000
0100
,
0010
0002
0000
1003
,
0001
0100
0001
1000
,
0010
0100
0001
2000
,
0000
3000
1000
0001
,
0010
0100
0100
1000
,
0001
1000
0010
0100
,
0001
1000
0100
2000
,
0000
3001
0000
1000
,
0000
0001
0100
0010
,
0000
1000
0100
0010
,
0001
1000
0001
0100
,
0000
0001
0000
1000
,
0000
0001
0010
0100
,
0000
0010
0001
1000
,
0001
0200
0010
0310
,
0000
0001
1000
0100
,
1000
0010
0100
0100
,
0001
0001
1000
1000
,
0100
0010
0001
1000
,
0000
0001
0100
0001
,
0010
0010
0100
0100
,
1000
0010
0100
0100
,
0001
1000
0100
0010
,
1001
0000
0000
0000
;
