#TITLE:Little Star;
#SUBTITLE:;
#ARTIST:REDALiCE feat. Ayumi Nomiya;
#TITLETRANSLIT:;
#SUBTITLETRANSLIT:;
#ARTISTTRANSLIT:;
#CREDIT:Lisek;
#BANNER:[ROUND L] - Little Star.png;
#BACKGROUND:[ROUND L] - Little Star-bg.png;
#LYRICSPATH:;
#CDTITLE:cdtitle.png;
#MUSIC:[ROUND L] - Little Star.ogg;
#OFFSET:-3.620;
#SAMPLESTART:85.260;
#SAMPLELENGTH:11.000;
#SELECTABLE:YES;
#BPMS:0.000=183.000;
#STOPS:;
#BGCHANGES:;

//---------------dance-single - Lisek----------------
#NOTES:
     dance-single:
     Lisek:
     Beginner:
     1:
     0.076,0.104,0.000,0.065,0.000: // measure 1
0000
0000
0000
0000
,  // measure 2
1000
0000
0000
0000
,  // measure 3
0010
0000
0000
0000
,  // measure 4
1000
0000
0000
0000
,  // measure 5
0010
0000
0000
0000
,  // measure 6
0100
0000
0000
0000
,  // measure 7
0001
0000
0000
0000
,  // measure 8
0100
0000
0000
0000
,  // measure 9
0001
0000
0000
0000
,  // measure 10
1000
0000
0000
0000
,  // measure 11
0000
0000
0000
0000
,  // measure 12
0001
0000
0000
0000
,  // measure 13
0000
0000
0000
0000
,  // measure 14
0100
0000
0000
0000
,  // measure 15
0000
0000
0000
0000
,  // measure 16
0010
0000
0000
0000
,  // measure 17
0000
0000
0000
0000
,  // measure 18
1000
0000
0000
0000
,  // measure 19
1000
0000
0000
0000
,  // measure 20
0000
0000
0000
0000
,  // measure 21
0000
0000
0000
0000
,  // measure 22
0001
0000
0000
0000
,  // measure 23
0001
0000
0000
0000
,  // measure 24
1000
0000
0000
0000
,  // measure 25
0001
0000
0000
0000
,  // measure 26
1000
0000
0000
0000
,  // measure 27
0001
0000
0000
0000
,  // measure 28
0000
0000
0000
0000
,  // measure 29
0000
0000
0000
0000
,  // measure 30
1000
0000
0000
0000
,  // measure 31
0010
0000
0000
0000
,  // measure 32
1000
0000
0000
0000
,  // measure 33
0010
0000
0000
0000
,  // measure 34
0100
0000
0000
0000
,  // measure 35
0001
0000
0000
0000
,  // measure 36
1000
0000
0000
0000
,  // measure 37
0000
0000
0000
0000
,  // measure 38
1000
0000
0000
0000
,  // measure 39
0010
0000
0000
0000
,  // measure 40
1000
0000
0000
0000
,  // measure 41
0010
0000
0000
0000
,  // measure 42
0100
0000
0000
0000
,  // measure 43
0000
0000
0000
0000
,  // measure 44
0000
0000
0000
0000
,  // measure 45
0010
0000
0000
0000
,  // measure 46
0000
0000
0000
0000
,  // measure 47
2000
0000
0000
0000
,  // measure 48
0000
0000
0000
3000
,  // measure 49
0002
0000
0000
0000
,  // measure 50
0000
0000
0000
0003
,  // measure 51
2000
0000
0000
0000
,  // measure 52
0000
0000
0000
3000
,  // measure 53
0002
0000
0000
0000
,  // measure 54
0000
0000
0000
0003
,  // measure 55
0200
0000
0000
0000
,  // measure 56
0000
0000
0000
0300
,  // measure 57
0020
0000
0000
0000
,  // measure 58
0000
0000
0000
0030
,  // measure 59
0200
0000
0000
0000
,  // measure 60
0000
0000
0000
0300
,  // measure 61
0020
0000
0000
0000
,  // measure 62
0000
0000
0000
0000
,  // measure 63
0030
0000
0000
0000
,  // measure 64
1000
0000
0000
0000
,  // measure 65
0010
0000
0000
0000
,  // measure 66
1000
0000
0000
0000
,  // measure 67
0010
0000
0000
0000
,  // measure 68
0100
0000
0000
0000
,  // measure 69
0001
0000
0000
0000
,  // measure 70
1000
0000
0000
0000
,  // measure 71
0000
0000
0000
0000
,  // measure 72
1000
0000
0000
0000
,  // measure 73
0010
0000
0000
0000
,  // measure 74
1000
0000
0000
0000
,  // measure 75
0010
0000
0000
0000
,  // measure 76
0100
0000
0000
0000
,  // measure 77
0000
0000
0000
0000
,  // measure 78
0000
0000
0000
0000
,  // measure 79
0010
0000
0000
0000
,  // measure 80
0000
0000
0000
0000
,  // measure 81
1000
0000
0000
0000
,  // measure 82
0000
0000
0000
0000
,  // measure 83
0001
0000
0000
0000
,  // measure 84
0000
0000
0000
0000
,  // measure 85
0100
0000
0000
0000
,  // measure 86
0000
0000
0000
0000
,  // measure 87
0010
0000
0000
0000
;

//---------------dance-single - Lisek----------------
#NOTES:
     dance-single:
     Lisek:
     Hard:
     8:
     0.530,0.606,0.162,0.421,0.053: // measure 1
0000
0000
0000
0000
,  // measure 2
1100
0000
0000
0000
0001
0000
0100
0000
1000
0000
0100
0000
0000
0000
0000
0010
,  // measure 3
1000
1100
0110
0011
,  // measure 4
0001
0000
0000
1000
0000
0000
0100
0000
1000
0000
0000
0000
0001
0000
0100
0000
,  // measure 5
0010
0000
0000
1000
0000
0000
0001
0000
0100
0000
0000
0000
0000
0000
0000
0000
,  // measure 6
0011
0000
0000
0000
1000
0000
0010
0000
0001
0000
0010
0000
0000
0000
0000
0100
,  // measure 7
0001
0000
0011
0000
0010
0100
1100
0000
,  // measure 8
1000
0010
0001
0100
,  // measure 9
1000
0000
0000
0001
0000
0000
1000
0000
0001
0000
0000
0000
0000
0000
0000
0000
,  // measure 10
2000
0000
0000
3200
0000
0000
0320
0000
,  // measure 11
0230
0000
0300
0000
1000
0001
0010
0100
,  // measure 12
2000
0000
0000
3002
0000
0000
1003
0002
,  // measure 13
1000
1000
1000
0003
0000
0000
0000
0000
,  // measure 14
0002
0000
0000
0023
0000
0000
0230
0000
,  // measure 15
0320
0000
0030
0000
0001
1000
0100
0010
,  // measure 16
0002
0000
0000
2003
0000
0000
3010
0200
,  // measure 17
1000
0000
0000
0001
0000
0000
1000
0000
0300
0000
0000
0000
0001
0000
0010
0000
,  // measure 18
0100
0000
0M01
1000
0000
0000
1000
0100
,  // measure 19
0010
0000
10M0
0001
0000
0000
1000
0001
,  // measure 20
0100
0000
0010
0200
0000
0300
0001
0000
,  // measure 21
1000
0000
0001
2000
0000
3000
0001
0100
,  // measure 22
0010
0000
00M1
1000
0000
0000
1000
0010
,  // measure 23
0100
0000
1M00
0001
0000
0000
1000
0001
,  // measure 24
0100
0000
0000
0010
0000
0000
0200
0000
0000
0000
0300
0000
0000
0000
0000
0000
,  // measure 25
0010
0000
0000
0100
0000
0000
0002
0000
0000
0000
0003
0000
0000
0000
0000
0000
,  // measure 26
1000
0000
0000
0100
0000
0000
0020
0000
0000
0000
0030
0000
0000
0000
0000
0000
,  // measure 27
0002
0000
0000
0023
0000
0000
0130
2000
,  // measure 28
0000
0000
0000
0000
,  // measure 29
3001
0000
0000
0000
,  // measure 30
1000
0001
0000
0001
0000
0100
0010
1000
,  // measure 31
0100
0010
0000
0001
0000
1000
0010
0000
,  // measure 32
1000
0000
0001
0100
0000
0010
0100
0002
,  // measure 33
1000
0000
1000
0003
0001
0000
0001
1000
,  // measure 34
0010
0100
0000
0100
0000
0001
0010
0100
,  // measure 35
0010
0001
0000
0100
0000
0010
0100
0000
,  // measure 36
0110
0000
0001
1000
0000
0010
0000
0110
,  // measure 37
0000
0101
0000
1010
0000
0000
0000
0000
,  // measure 38
0001
1000
0000
1000
0000
0010
0100
0001
,  // measure 39
0010
0100
0000
1000
0000
0010
0100
0000
,  // measure 40
0010
0000
1000
0010
0000
0100
0010
2000
,  // measure 41
0001
0000
0001
3000
1000
0000
1000
0000
,  // measure 42
0010
0010
0000
0100
0100
0000
0001
0001
,  // measure 43
0000
1000
1000
0010
0100
0000
0001
2000
,  // measure 44
0010
0000
0001
3000
1000
0000
0001
0000
,  // measure 45
0012
0000
1000
0000
0010
0010
0000
2000
,  // measure 46
0003
0000
0000
0000
,  // measure 47
3002
0000
0000
0023
,  // measure 48
2030
0000
3200
0000
,  // measure 49
0302
2003
3002
2003
,  // measure 50
3020
0000
1030
0000
,  // measure 51
2000
0000
0000
3200
,  // measure 52
0302
0000
0023
0000
,  // measure 53
2030
0000
0000
0000
0000
0000
0000
0001
,  // measure 54
3001
0001
0000
1000
1000
0000
0001
0001
,  // measure 55
2000
0010
0100
0010
,  // measure 56
3002
0010
0100
1000
,  // measure 57
0203
0010
1000
0001
,  // measure 58
0320
1000
0001
0100
,  // measure 59
1030
0001
0100
0000
0100
0001
1000
0000
,  // measure 60
0001
1000
0010
0000
0010
1000
0001
0000
,  // measure 61
1001
0000
0110
0000
,  // measure 62
1000
0001
0100
0010
1000
0001
0100
0010
,  // measure 63
1000
0000
0000
0000
,  // measure 64
0001
0100
0000
0100
0000
0010
1000
0100
,  // measure 65
0010
0001
0000
1000
0000
0001
0100
0000
,  // measure 66
0001
0000
1000
0100
0000
0010
0001
0200
,  // measure 67
0010
0000
0310
0000
0100
0000
0100
0010
,  // measure 68
1000
0100
0000
0100
0000
1000
0010
0100
,  // measure 69
0001
1000
0000
0010
0000
1000
0001
0000
,  // measure 70
1001
0000
0100
0010
0000
1000
0000
1001
,  // measure 71
0000
0011
0000
1100
0000
0000
0000
0000
,  // measure 72
1000
0010
0000
0010
0000
0100
0001
0100
,  // measure 73
0010
1000
0000
0001
0000
0100
0010
0000
,  // measure 74
0100
0000
0001
0010
0000
0100
1000
0020
,  // measure 75
0100
0130
0010
0010
,  // measure 76
1000
1000
0000
0001
0001
0000
0100
0100
,  // measure 77
0000
0010
0010
1000
0001
0000
0100
0020
,  // measure 78
1000
0000
0100
0030
1000
0000
0010
0000
,  // measure 79
2010
0000
0001
0000
0100
0100
0000
0002
,  // measure 80
3000
0000
0000
0000
,  // measure 81
1003
0000
0001
0100
0000
0001
0000
1000
,  // measure 82
0010
0100
0010
1000
,  // measure 83
0001
0000
0000
0100
0000
0000
0001
0000
1000
0000
0000
0010
0000
0000
1000
0000
,  // measure 84
0001
0000
0000
0010
0000
0000
0100
0000
1000
0000
0000
0000
0000
0000
0000
0000
,  // measure 85
0001
0010
0100
0010
0001
1000
0001
0001
,  // measure 86
1000
0100
0010
0100
1000
0001
1000
1000
,  // measure 87
0001
0100
0010
1000
0001
0100
0010
1000
,  // measure 88
0001
0000
0000
1000
0000
0000
0001
0000
2002
0000
0000
0000
0000
0000
0000
0000
,  // measure 89
3003
0000
0000
0000
;

//---------------dance-single - Lisek----------------
#NOTES:
     dance-single:
     Lisek:
     Medium:
     6:
     0.397,0.463,0.024,0.316,0.028: // measure 1
0000
0000
0000
0000
,  // measure 2
1000
0000
0001
1000
0001
1000
0000
0000
,  // measure 3
0010
0100
0001
1000
,  // measure 4
0001
0010
0100
1000
,  // measure 5
0001
0000
0000
1000
0000
0000
0001
0000
1000
0000
0000
0000
0000
0000
0000
0000
,  // measure 6
0001
0000
0100
0010
0100
0010
0000
0000
,  // measure 7
1000
0100
0010
0001
,  // measure 8
0100
0010
1000
0001
,  // measure 9
0100
0000
0000
0010
0000
0000
0100
0000
0010
0000
0000
0000
0000
0000
0000
0000
,  // measure 10
2000
0000
0000
3002
0000
0000
0203
0000
,  // measure 11
0320
0000
0030
0000
1000
0001
1000
0010
,  // measure 12
0200
0000
0000
0320
0000
0000
1030
0002
,  // measure 13
0000
0000
0000
0003
0000
0000
0000
0000
,  // measure 14
0200
0000
0000
0320
0000
0000
2030
0000
,  // measure 15
3200
0000
0300
0000
0010
0001
0010
0001
,  // measure 16
2000
0000
0000
3002
0000
0000
0013
0200
,  // measure 17
0000
0000
0300
0000
,  // measure 18
1000
0100
0001
0000
,  // measure 19
0001
0100
1000
0000
,  // measure 20
0001
0100
1000
0100
,  // measure 21
0001
0000
0100
0100
0000
0000
0000
0000
,  // measure 22
0001
0010
1000
0000
,  // measure 23
1000
0010
0001
0000
,  // measure 24
1000
0000
0000
0100
0000
0000
1000
0000
0000
0000
0000
0000
0000
0000
0000
0000
,  // measure 25
0001
0000
0000
0100
0000
0000
0001
0000
0000
0000
0000
0000
0000
0000
0000
0000
,  // measure 26
1000
0000
0000
0001
0000
0000
1000
0000
0000
0000
0000
0000
0000
0000
0000
0000
,  // measure 27
0020
0000
0000
0230
0000
0000
0310
0200
,  // measure 28
0000
0000
0000
0000
,  // measure 29
0301
0000
0000
0000
,  // measure 30
1000
0010
0100
0001
,  // measure 31
1000
0100
0010
0001
,  // measure 32
1000
0010
0100
0010
,  // measure 33
1000
0000
0001
0000
0100
0000
0001
1000
,  // measure 34
0001
0010
0100
1000
,  // measure 35
0001
0100
0010
1000
,  // measure 36
0001
0000
1000
0001
0000
1000
0000
0010
,  // measure 37
0000
0100
0000
0010
0000
0000
0000
0000
,  // measure 38
1000
0100
0010
0100
,  // measure 39
1000
0001
0100
0001
,  // measure 40
1000
0010
0100
0001
,  // measure 41
1000
0100
0010
0001
,  // measure 42
1000
0001
0000
0001
1000
0000
0010
0100
,  // measure 43
0000
0100
0010
0000
1000
0000
0001
0000
,  // measure 44
2000
0000
3000
0000
,  // measure 45
0001
0000
0100
0000
0010
1000
0000
0020
,  // measure 46
0000
0000
0000
0000
,  // measure 47
2030
0000
0000
3002
,  // measure 48
0203
0000
0320
0000
,  // measure 49
2030
3200
0320
0032
,  // measure 50
2003
0000
3002
0000
,  // measure 51
2003
0000
0000
3002
,  // measure 52
0203
0000
0320
0000
,  // measure 53
2030
0000
0000
0000
,  // measure 54
3001
1000
0000
1000
0001
0000
1000
0001
,  // measure 55
0100
0001
0100
0001
,  // measure 56
1000
0010
1000
0010
,  // measure 57
1000
0100
1000
0100
,  // measure 58
0010
0001
0010
0001
,  // measure 59
1000
0100
0010
0001
,  // measure 60
1000
0010
0100
0001
,  // measure 61
1001
0000
0110
0000
,  // measure 62
1000
0001
0100
0010
,  // measure 63
1001
0000
0000
0000
,  // measure 64
0001
0010
0100
1000
,  // measure 65
0001
0100
0010
1000
,  // measure 66
0001
1000
0010
1000
,  // measure 67
0001
0000
1000
0000
0010
0000
1000
0001
,  // measure 68
1000
0010
0100
0001
,  // measure 69
1000
0100
0010
0001
,  // measure 70
1000
0000
0001
1000
0000
0001
0000
0100
,  // measure 71
0000
0010
0000
0100
0000
0000
0000
0000
,  // measure 72
0001
0100
0010
0100
,  // measure 73
0001
0010
0100
0010
,  // measure 74
0001
0010
0100
1000
,  // measure 75
0001
0100
0010
1000
,  // measure 76
0001
1000
0000
1000
0001
0000
0100
0010
,  // measure 77
0000
0010
0100
0000
0001
0000
1000
0000
,  // measure 78
0002
0000
0003
0000
,  // measure 79
1000
0000
0001
0000
0100
0010
0000
0200
,  // measure 80
0000
0000
0000
0000
,  // measure 81
0301
0000
0100
0000
,  // measure 82
0010
1000
0010
0100
,  // measure 83
0002
0000
2003
0000
,  // measure 84
3001
0000
0000
1000
0000
0000
0001
0000
1000
0000
0000
0000
0000
0000
0000
0000
,  // measure 85
0001
0100
0010
1000
,  // measure 86
0001
0010
0100
1000
,  // measure 87
0001
0100
0001
0000
1000
0010
1000
0000
,  // measure 88
0001
0000
0000
1000
0000
0000
0001
0000
2000
0000
0000
0000
0000
0000
0000
0000
,  // measure 89
3000
0000
0000
0000
;

//---------------dance-single - Lisek----------------
#NOTES:
     dance-single:
     Lisek:
     Easy:
     2:
     0.146,0.249,0.000,0.170,0.000: // measure 1
0000
0000
0000
0000
,  // measure 2
1000
0000
0001
0000
,  // measure 3
1000
0001
1000
0001
,  // measure 4
1000
0000
0001
0000
,  // measure 5
0200
0000
0000
0000
0000
0300
0000
0000
,  // measure 6
0001
0000
1000
0000
,  // measure 7
0001
1000
0001
1000
,  // measure 8
0001
0000
1000
0000
,  // measure 9
0020
0000
0000
0000
0000
0030
0000
0000
,  // measure 10
1000
0000
0000
0000
,  // measure 11
0001
0000
0000
0000
,  // measure 12
0100
0000
0000
0000
,  // measure 13
0010
0000
0000
0000
,  // measure 14
1000
0000
0000
0000
,  // measure 15
0100
0000
0000
0000
,  // measure 16
0010
0000
0000
0000
,  // measure 17
0001
0000
0000
0000
,  // measure 18
1000
0001
1000
0000
,  // measure 19
0001
1000
0001
0000
,  // measure 20
0100
0000
0000
0000
,  // measure 21
0010
0000
0000
0000
,  // measure 22
1000
0001
1000
0000
,  // measure 23
0001
1000
0001
0000
,  // measure 24
0100
0000
0000
0000
,  // measure 25
0010
0000
0000
0000
,  // measure 26
0100
0000
0000
0000
,  // measure 27
0002
0000
0000
0000
,  // measure 28
2000
0000
0000
0000
,  // measure 29
3003
0000
0000
0000
,  // measure 30
0001
0000
0000
0000
,  // measure 31
0100
0000
0000
0000
,  // measure 32
0010
0000
0000
0000
,  // measure 33
1000
0000
0000
0000
,  // measure 34
0001
0000
0000
0000
,  // measure 35
0010
0000
0000
0000
,  // measure 36
0200
0000
0000
0000
,  // measure 37
0000
0000
0000
0300
0000
0000
0000
0000
,  // measure 38
1000
0000
0000
0000
,  // measure 39
0010
0000
0000
0000
,  // measure 40
0100
0000
0000
0000
,  // measure 41
0001
0000
0000
0000
,  // measure 42
2000
0000
0000
0000
,  // measure 43
0000
0000
0000
0000
,  // measure 44
0000
0000
0000
3000
0000
0000
0000
0000
,  // measure 45
0001
0000
1000
0000
,  // measure 46
0001
0000
0000
0000
,  // measure 47
2000
0000
0000
0000
,  // measure 48
0000
0000
0000
0000
,  // measure 49
3020
0000
0000
0000
,  // measure 50
0000
0000
0000
0000
,  // measure 51
0230
0000
0000
0000
,  // measure 52
0000
0000
0000
0000
,  // measure 53
0302
0000
0000
0000
,  // measure 54
0000
0000
0000
0000
,  // measure 55
2003
0000
0000
0000
,  // measure 56
3002
0000
0000
0000
,  // measure 57
0203
0000
0000
0000
,  // measure 58
0320
0000
0000
0000
,  // measure 59
1030
0000
0001
0000
,  // measure 60
0100
0000
0010
0000
,  // measure 61
1000
0000
0001
0000
,  // measure 62
1000
0001
1000
0001
,  // measure 63
1000
0000
0000
0000
,  // measure 64
1000
0000
0000
0000
,  // measure 65
0010
0000
0000
0000
,  // measure 66
0100
0000
0000
0000
,  // measure 67
0001
0000
0000
0000
,  // measure 68
1000
0000
0000
0000
,  // measure 69
0100
0000
0000
0000
,  // measure 70
0020
0000
0000
0000
,  // measure 71
0000
0000
0000
0030
0000
0000
0000
0000
,  // measure 72
0001
0000
0000
0000
,  // measure 73
0100
0000
0000
0000
,  // measure 74
0010
0000
0000
0000
,  // measure 75
1000
0000
0000
0000
,  // measure 76
0002
0000
0000
0000
,  // measure 77
0000
0000
0000
0000
,  // measure 78
0000
0000
0000
0003
0000
0000
0000
0000
,  // measure 79
1000
0000
0001
0000
,  // measure 80
1000
0000
0000
0000
,  // measure 81
0002
0000
0000
0000
,  // measure 82
2003
0000
0000
0000
,  // measure 83
3002
0000
0000
0000
,  // measure 84
2003
0000
3000
0000
,  // measure 85
0001
0000
0100
0000
,  // measure 86
0010
0000
1000
0000
,  // measure 87
0001
0000
0010
0000
,  // measure 88
0200
0000
0000
0000
,  // measure 89
0300
0000
0000
0000
;

//---------------dance-single - Lisek----------------
#NOTES:
     dance-single:
     Lisek:
     Challenge:
     13:
     1.000,1.000,0.705,0.105,0.859: // measure 1
0000
0000
0000
0000
,  // measure 2
1010
0000
0000
0000
0100
0000
0001
0000
0010
0000
1000
0000
0000
0000
0010
0001
,  // measure 3
0100
0101
1010
1001
,  // measure 4
0001
0000
0000
0100
0000
0000
1000
0000
0100
0000
0000
0000
0010
0000
1000
0000
,  // measure 5
1001
0000
0000
0011
0000
0000
1001
0000
1010
0000
0000
0000
1000
0010
0100
0001
,  // measure 6
1000
0000
0000
0000
0010
0000
1000
0000
0100
0000
0001
0000
0000
0000
0100
1000
,  // measure 7
0010
0000
1010
0000
1000
0001
1001
0000
,  // measure 8
0001
0010
0001
1000
0100
1000
0001
0100
0001
1000
0010
0100
0001
0010
0100
1000
,  // measure 9
0001
0000
0000
0101
0000
0000
1010
0000
1001
0000
0000
0000
0001
0100
0010
1000
,  // measure 10
0001
0000
0010
0000
1000
0000
0010
0000
0001
0100
0001
1000
0010
0000
1000
0000
,  // measure 11
0001
0000
0100
0000
1000
0000
0100
0000
0001
0010
0100
0010
0001
0000
1000
0000
,  // measure 12
0001
0000
0010
0000
1000
0000
0010
0000
0001
0010
0001
1000
0001
0000
0010
0000
,  // measure 13
0011
0101
1001
0000
0001
1000
0001
0000
,  // measure 14
1000
0000
0100
0000
0001
0000
0100
0000
1000
0100
1000
0001
0010
0000
0001
0000
,  // measure 15
1000
0000
0010
0000
0001
0000
0010
0000
1000
0100
0010
0100
1000
0000
0001
0000
,  // measure 16
1000
0000
0100
0000
0001
0000
0100
0000
1000
0100
1000
0001
1000
0000
0010
0000
,  // measure 17
1010
0000
0000
1100
0000
0000
1001
0000
0000
0000
0000
0000
0110
0000
0100
0000
,  // measure 18
0001
0010
1000
0010
0001
0100
1000
0100
,  // measure 19
0001
1000
0100
0000
1000
0001
0100
0000
0010
0000
1000
0000
0001
0000
0010
0000
,  // measure 20
0001
1000
0010
0100
0001
0100
0010
1000
,  // measure 21
1010
0000
0000
0000
0110
0000
0101
0000
0000
0000
1001
0000
1000
0001
0100
0010
,  // measure 22
1000
0001
0010
0100
1000
0100
0010
0001
,  // measure 23
1000
0100
0010
0001
1000
0010
0100
0001
1000
0100
0010
0001
1000
0010
0100
0001
,  // measure 24
1000
0000
0000
1010
0000
0000
1001
0000
1000
0001
1000
0001
1000
0001
1000
0000
,  // measure 25
0011
0000
0000
0101
0000
0000
1001
0000
0001
0100
0001
0000
1000
0010
1000
0000
,  // measure 26
0110
0000
0000
1001
0000
0000
0110
0000
0100
0000
0010
0000
0100
0000
0010
0000
,  // measure 27
1010
0000
0000
0110
0000
0000
0101
0000
0000
1001
0000
0000
1010
0000
1001
0000
,  // measure 28
1000
0001
0010
0100
1000
0100
0010
0001
1000
0001
0100
0010
1000
0010
0100
0001
,  // measure 29
1000
0000
0000
0000
,  // measure 30
0001
0000
1000
0000
0010
0000
1000
0000
0001
0100
0010
1000
0010
0100
0001
1000
,  // measure 31
0001
0000
0000
0000
0010
0000
0000
0000
0100
0000
0000
0000
1000
0000
0000
0000
0010
0000
0100
0000
0001
0000
0000
0000
1000
0000
0000
0000
0001
0000
1000
0001
,  // measure 32
1000
0100
1000
0100
0010
0001
0010
0001
,  // measure 33
1000
0000
0010
1000
0010
0000
0100
0000
0001
0010
0100
0010
0001
1000
0100
0010
,  // measure 34
0001
1000
0010
0100
0001
1000
0010
0100
0001
1000
0010
0100
0001
1000
0001
0000
,  // measure 35
1000
0100
0010
0001
0010
0100
0010
0000
0001
0100
0001
0000
0100
0000
0000
0000
,  // measure 36
0101
0000
0110
1010
0000
1100
0000
0110
,  // measure 37
0000
0000
0011
0000
0000
0000
1001
0000
0001
1000
0010
0100
0001
1000
0001
0000
,  // measure 38
1000
0000
0010
0000
0100
0000
0010
0000
1000
0100
0010
0001
0100
0010
1000
0010
,  // measure 39
0100
0000
0000
0000
0001
0000
0000
0000
0100
0000
0000
0000
0010
0000
0000
0000
1000
0000
0100
0000
0010
0000
0000
0000
0001
0000
0000
0000
1000
0000
0001
1000
,  // measure 40
0001
0100
0001
0100
0010
1000
0010
1000
,  // measure 41
0001
0000
0100
0001
0100
0000
0010
0000
1000
0010
0100
0001
0010
0001
0100
0000
,  // measure 42
0101
0101
0000
1010
1010
0000
0110
0110
,  // measure 43
0000
0000
1001
0000
1001
0000
0001
0000
1000
0010
0100
0001
1000
0100
0010
0000
,  // measure 44
0001
0000
1000
0010
1000
0000
0010
0000
0100
0000
0001
0000
0100
0000
0010
0000
,  // measure 45
1000
0100
0010
0001
0010
0100
1000
0010
0100
0001
0100
0010
1000
0001
0010
0100
,  // measure 46
1000
0010
1000
0001
0100
0001
1000
0010
2000
0000
0000
0000
3002
0000
0000
0000
,  // measure 47
2003
0000
0000
0100
0000
0000
0010
0000
0000
0000
0100
0000
0010
0000
0100
0000
,  // measure 48
3020
0000
0000
1000
0000
0000
0100
0000
0000
0000
1000
0000
0100
0000
1000
0000
,  // measure 49
0230
0000
0000
0010
0000
0000
0001
0000
0000
0000
0010
0000
0001
0000
0010
0000
,  // measure 50
0302
0000
0000
0010
0000
0000
1000
0000
0000
0000
0010
0000
1000
0000
0010
0000
,  // measure 51
2003
0000
0000
0001
0000
0000
0100
0000
0000
0000
0001
0000
0100
0000
0001
0000
,  // measure 52
3002
0000
0000
1000
0000
0000
0010
0000
0000
0000
1000
0000
0010
0000
1000
0000
,  // measure 53
2003
0000
0000
0001
0000
0000
0100
0000
0000
0000
0001
0000
0100
0000
3001
1000
,  // measure 54
0001
0000
0000
0000
1001
0000
0000
0000
0000
0000
0000
0000
0110
0000
0000
0000
0110
0000
0000
0000
0000
0000
0000
0000
1001
0000
0000
0000
0001
1000
0001
1000
,  // measure 55
0001
0000
0000
0100
0000
0000
1000
0000
0000
0000
1000
0000
0100
0000
0001
0000
,  // measure 56
1000
0000
0000
0100
0000
0000
0001
0000
0000
0000
0001
0000
0100
0000
1000
0000
,  // measure 57
0001
0000
0000
0010
0000
0000
1000
0000
0000
0000
1000
0000
0010
0000
0001
0000
,  // measure 58
0011
0000
0101
0000
0110
0000
1001
0001
,  // measure 59
1000
0100
0010
0001
1000
0010
0100
0001
,  // measure 60
1000
0100
1000
0001
0010
0001
1000
0100
,  // measure 61
1000
0100
0010
0001
1000
0100
0010
0001
1000
0010
0100
0001
1000
0010
0100
0001
,  // measure 62
1000
0100
1000
0001
0010
0001
1000
0100
1000
0001
0010
0001
1000
0100
0010
0001
,  // measure 63
1000
0000
0000
0000
,  // measure 64
1000
0000
0010
0000
0100
0000
0010
0000
1000
0100
0010
0001
0010
0100
1000
0001
,  // measure 65
1000
0000
0000
0000
0010
0000
0000
0000
0100
0000
0000
0000
0001
0000
0000
0000
0100
0000
0001
0000
1000
0000
0000
0000
0010
0000
0000
0000
1000
0000
0001
1000
,  // measure 66
0001
0010
0001
0010
0100
1000
0100
1000
,  // measure 67
0001
0000
1000
0001
1000
0000
0010
0000
1000
0100
0010
0100
1000
0001
0010
0100
,  // measure 68
1000
0001
0100
0010
1000
0001
0100
0010
1000
0001
0100
0010
1000
0001
1000
0000
,  // measure 69
0001
0010
0100
1000
0100
0010
0100
0000
1000
0010
1000
0000
0010
0000
0000
0000
,  // measure 70
1010
0000
0110
0101
0000
0011
0000
0110
,  // measure 71
0000
0000
1100
0000
0000
0000
1001
0000
1000
0001
0100
0010
1000
0001
1000
0000
,  // measure 72
0001
0000
0010
0000
0100
0000
0010
0000
0001
0100
0010
1000
0010
0100
0001
0010
,  // measure 73
0100
0000
0000
0000
1000
0000
0000
0000
0010
0000
0000
0000
0100
0000
0000
0000
0001
0000
1000
0000
0010
0000
0000
0000
1000
0000
0000
0000
0001
0000
1000
0001
,  // measure 74
1000
0010
1000
0010
0100
0001
0100
0001
,  // measure 75
1000
0000
0010
1000
0010
0000
0100
0000
0001
0100
0010
0100
0001
1000
0010
0000
,  // measure 76
1010
1010
0000
0101
0101
0000
0110
0110
,  // measure 77
0000
0000
1001
0000
1001
0000
1000
0000
0001
0100
0010
1000
0001
0010
0100
0000
,  // measure 78
1000
0000
0001
0100
0001
0000
0100
0000
0010
0000
1000
0000
0010
0000
0100
0000
,  // measure 79
0001
0010
0100
1000
0100
0010
0001
0100
0010
1000
0010
0100
0001
1000
0100
0010
,  // measure 80
0001
0100
0001
1000
0010
1000
0001
0100
0002
0000
0000
0000
2003
0000
0000
0000
,  // measure 81
3001
0000
0000
0000
0100
0000
0010
1000
0010
0000
0000
0100
0000
0000
0001
0000
,  // measure 82
1000
0100
0010
0000
0001
0000
0100
0000
0000
0000
0001
0000
0100
0000
0010
0000
,  // measure 83
1010
0000
0000
0101
0000
0000
0011
0000
1100
0000
0000
0000
0100
0000
0010
0000
,  // measure 84
0110
0000
0000
0011
0000
0000
0101
0000
0110
0000
0000
0000
1000
0001
0100
0010
,  // measure 85
1000
0100
1000
0001
0010
0001
1000
0010
,  // measure 86
1000
0100
0010
0001
1000
0010
0100
0001
,  // measure 87
1000
0100
1000
0001
0010
0001
1000
0100
1000
0001
0100
0010
1000
0100
0010
0001
,  // measure 88
1000
0000
0000
1010
0000
0000
0110
0000
2002
0000
0000
0000
0000
0000
0000
0000
,  // measure 89
3003
0000
0000
0000
;
