#TITLE:Leviathan;
#SUBTITLE:;
#ARTIST:NeLiME;
#TITLETRANSLIT:;
#SUBTITLETRANSLIT:;
#ARTISTTRANSLIT:;
#GENRE:;
#CREDIT:;
#BANNER:[ROUND L] - Leviathan.png;
#BACKGROUND:[ROUND L] - Leviathan-bg.png;
#LYRICSPATH:;
#CDTITLE:cdtitle.png;
#MUSIC:[ROUND L] - Leviathan.ogg;
#OFFSET:-0.582000;
#SAMPLESTART:81.463135;
#SAMPLELENGTH:10.378380;
#SELECTABLE:YES;
#DISPLAYBPM:73.000000:185.000000;
#BPMS:0.000000=88.000000
,13.000000=86.000000
,13.500000=77.000000
,14.000000=75.000000
,14.500000=73.000000
,15.000000=32.444000
,15.333333=58.000000
,15.666667=66.667000
,16.000000=88.000000
,16.333334=93.333000
,16.666666=106.667000
,17.000000=120.000000
,17.333334=133.332993
,17.666666=153.332993
,18.333334=160.000000
,19.000000=166.667007
,19.333334=180.000000
,19.666666=193.332993
,20.000000=200.000000
,20.333334=213.332993
,21.000000=185.000000
,53.000000=92.500000
,57.000000=185.000000
,153.000000=92.500000
,169.000000=185.000000
,201.000000=92.500000
,205.000000=185.000000
,333.000000=92.500000
;
#STOPS:
;
#BGCHANGES:;
#KEYSOUNDS:;
#ATTACKS:;

//---------------dance-single - ----------------
#NOTES:
     dance-single:
     :
     Challenge:
     11:
     0.809114,1.384138,0.634345,0.573931,0.641897,750.000000,666.000000,84.000000,76.000000,39.000000,0.000000,0.809114,1.384138,0.634345,0.573931,0.641897,750.000000,666.000000,84.000000,76.000000,39.000000,0.000000:
0000
0000
0000
0000
,
0000
0000
0000
0000
,
0000
0000
0000
0000
0000
0000
0000
0000
0110
0000
0000
0000
0000
0000
0000
0000
1001
0000
0000
0000
1000
0000
0100
0000
0010
0000
0000
0000
0000
0000
0001
1000
,
0001
0100
0010
1000
0100
0000
0011
0000
1100
0000
1010
0000
2002
0000
0000
0000
,
0000
0000
0000
0000
,
3003
0000
1001
0001
0100
0010
1000
0100
,
0001
0100
1000
0010
1000
0100
0010
0000
,
0001
0000
0000
0100
0000
0000
0110
0000
0000
0000
0010
0000
0000
0000
1000
0000
0000
0000
0001
0000
0000
0000
0010
0000
,
0000
0100
0000
1000
0001
1000
0001
1000
0001
1000
0010
1000
,
0100
0000
0000
0000
0010
0000
0000
0000
0001
0000
0000
0000
1001
0000
0000
0000
0000
0000
0000
0000
0000
0000
0000
0000
0001
0000
0000
0100
0000
0000
0001
0000
0000
0100
0000
0000
0010
0000
0000
0000
0000
0000
1000
0000
0000
0000
0000
0000
,
0100
0010
0100
0010
0001
0000
0100
0000
1000
0000
0100
0000
0001
0000
0000
0000
,
1000
0000
1100
0100
0010
0010
0001
0001
,
1000
1000
1010
0010
0100
0001
0011
1100
,
1000
0001
2002
0000
0000
0000
0000
0000
,
0000
3003
1000
0100
0010
0001
1000
0100
,
1000
0010
0M00
0010
0001
1000
0010
0000
,
0100
0000
0001
0100
0010
1000
0001
0100
,
0001
0010
0M00
0010
1000
0100
0010
0002
,
0103
0000
0010
0000
1001
0000
0000
0000
1000
0000
0001
1000
0001
0000
0100
0000
,
0010
2000
0000
0000
3001
0000
1000
0100
,
0010
0001
1001
0000
1000
0000
0010
1000
,
0010
0000
0002
0000
0000
0000
0013
0100
0010
0000
1000
0000
0100
0010
0100
0000
,
0010
0001
1001
0000
1001
0000
1000
0100
,
1000
0020
0031
0010
1000
0100
0001
0100
,
1000
0010
0100
0000
0101
0000
0000
0000
0101
0000
0000
0000
0001
0000
0100
0000
,
0001
0000
0020
0000
1030
0000
0010
0000
0001
0100
0010
0000
1010
0000
0000
0000
,
1001
0000
0000
0000
1000
0000
0100
0000
0001
0000
0100
0000
1000
0010
0100
0000
,
0001
0010
1000
0010
0001
0100
1000
0100
,
0001
0010
0100
1000
0001
0000
0000
0000
1001
0000
1010
0000
0M00
0000
0011
0000
,
1001
0000
1001
0101
00M0
1100
1002
0000
,
1003
0100
0010
0001
1000
0000
0000
0000
1000
0000
0010
0100
0001
0000
0000
0001
,
1000
0100
0010
0000
0001
0100
1000
0100
,
0001
0000
0000
0000
0011
0000
0000
0000
0011
0000
0000
0000
1000
0100
1000
0100
,
0010
0001
0010
0001
1000
0010
0100
0010
1000
0010
0100
0010
1000
0000
0100
0000
,
0010
0001
1001
0000
0101
0000
0001
0100
,
1000
0000
0100
0000
0001
0000
1000
0100
0010
0000
0001
0000
0100
0000
0010
0000
,
1000
0100
0010
0010
0001
1000
0001
0100
,
0010
1000
0100
0100
0010
0010
0002
0000
,
1003
0000
0010
0000
0100
0000
0001
0000
2000
0000
0000
0000
3001
0000
1000
0000
0001
0000
0010
0100
1000
0000
0010
0000
1000
0000
0100
0000
0010
0000
0001
0000
,
0100
0000
0010
0000
1000
0000
0001
0000
0010
0000
0100
1000
0010
0000
0100
0000
0010
1000
0010
1000
0001
0010
0001
0010
0100
0000
1000
0100
1000
0000
0000
0000
,
0001
0100
0001
0100
0010
1000
0010
1000
0001
0000
0010
0000
0100
0000
1000
0000
0010
0000
0000
0000
0010
1000
0001
0000
0010
0000
0100
0000
1000
0000
0001
0000
,
0100
0000
0000
1000
0000
0000
0100
0000
0001
0000
0001
0000
0010
0100
1000
0000
0001
0100
0010
0000
0100
0001
1000
0000
0100
0000
0000
0000
0000
0000
0010
0001
,
0200
0000
0300
0000
2010
0000
0001
00M0
3000
0000
0012
0000
1000
00M0
0003
0000
,
2100
0000
0001
0M00
3000
0000
0102
0000
1000
0M00
0003
1000
0001
0010
0001
0010
,
0001
1000
0010
0000
2010
0000
0000
00M0
3001
0000
0012
0000
0000
00M0
1003
0000
,
2100
0000
0000
0M00
3001
0000
0102
0000
0003
0M00
1000
0010
0200
0000
0001
0000
,
0301
1000
0100
0000
2100
0000
0001
0M00
3000
0000
0102
0000
1000
0M00
0003
0000
,
2010
0000
0001
00M0
3000
0000
0012
0000
1003
00M0
0001
0000
0100
0010
1000
0001
,
0020
0000
0001
0030
0012
0000
0000
00M0
1003
0000
2010
0000
0000
00M0
3001
0000
,
0102
0000
0000
0M00
1003
0000
2100
0000
0000
0M00
3000
0000
0001
0100
0010
1000
,
0001
0100
0010
1000
0002
0000
0000
0000
0003
0000
0000
0000
1000
0001
1000
0001
,
1000
0001
1000
0001
0010
0100
0010
0001
2000
0000
0000
0000
0000
0000
0000
0000
3100
0000
0000
0000
0010
0000
0001
0000
1000
0000
0000
0000
0010
0000
0000
0000
,
0001
0010
1000
0100
0020
0000
0031
0100
,
1000
0000
0100
0000
0002
0000
0000
0000
0013
0000
0100
1000
0020
0000
0030
0001
,
0010
0000
1000
0000
0200
0000
0000
0000
0310
0000
0100
0000
1000
0001
1000
0001
,
1000
0010
0200
0000
0001
0000
0310
1000
,
0100
0010
0001
0000
0200
0000
0000
0000
1300
0000
0100
0000
0002
0000
0000
0000
,
0023
0000
0000
0000
0130
0000
1000
0000
0010
0000
0001
0000
0010
0000
1000
0100
,
0010
0001
0200
0000
0320
0000
1030
0000
,
0001
0010
0100
1000
0001
0000
0100
0001
0100
0001
0100
0001
1000
0000
0010
0000
,
0001
1000
0100
0001
2000
0000
3100
0010
,
0001
0000
1000
0000
0001
0100
0001
0100
0010
1000
0010
1000
0001
0010
0001
0010
,
0100
0000
1000
0000
1100
0000
0000
0011
0000
0000
0101
0000
0000
1010
0000
0000
,
1001
0001
0021
0000
0100
0000
0001
0000
,
0130
1000
0001
0100
0020
0000
0000
0000
1030
0000
0010
0100
0002
0000
0000
0000
,
1003
0000
0100
0000
1000
0000
0010
0000
0102
0000
0000
0M00
0013
0000
0001
0000
,
2100
0000
0000
0M00
3001
0000
0200
0000
1300
0000
0200
0000
0301
0000
0001
0000
,
1000
0100
0010
0001
2000
0000
0000
0000
3001
0000
0102
0000
0000
0000
0103
0000
,
12MM
0000
1300
2100
0000
3100
M1M1
0000
,
1001
0000
0012
0000
0013
1M2M
0000
1030
,
2010
0000
3010
MM21
0000
0031
0101
0200
,
0310
1000
1002
0000
1003
2100
0000
3100
,
M2M1
0000
0301
0012
0000
0013
1M1M
0000
,
0101
0000
1002
0000
1003
2010
0000
3010
,
MM21
0000
0000
0000
0031
0000
0102
0000
0000
0000
1MM3
0000
0001
1000
0100
0010
,
0002
1003
1001
0000
1001
1000
0001
0100
,
1000
0200
0301
0010
1000
0010
0001
0100
,
0010
1000
0001
0000
1001
0000
0000
0000
1001
0000
1000
0001
1000
0000
0001
1000
,
0100
0000
0020
0000
1030
0000
0010
0000
0100
0010
0001
1000
0020
0000
0130
0000
,
0010
1000
0001
1000
0100
0000
0010
0000
0001
0000
1000
0000
0001
0100
0010
1000
,
0001
0000
1002
0000
0000
0000
0103
0000
0001
0010
0100
1000
0001
0000
1000
0000
,
0200
0310
0001
0100
1000
0001
0010
1000
,
0100
0000
0010
0000
0001
0010
0001
0010
0100
1000
0100
1000
0001
0100
0001
0100
,
0010
1000
0010
1000
0M00
0000
2002
0000
0000
0000
0000
0000
0000
0000
0000
0000
,
0000
0000
0000
0000
,
0000
3003
0000
0000
;

//---------------dance-single - ----------------
#NOTES:
     dance-single:
     :
     Hard:
     9:
     0.634345,1.030056,0.475759,0.468207,0.151035,588.000000,525.000000,63.000000,62.000000,0.000000,0.000000,0.634345,1.030056,0.475759,0.468207,0.151035,588.000000,525.000000,63.000000,62.000000,0.000000,0.000000:
0000
0000
0000
0000
,
0000
0000
0000
0000
,
0000
0000
0000
0000
1100
0000
0000
0000
0011
0000
0001
0100
0010
0000
0000
0100
,
0001
1000
0100
0010
0001
0000
0011
0000
1100
0000
1010
0000
2002
0000
0000
0000
,
0000
0000
0000
0000
,
3003
0000
1001
0001
0100
0001
0010
1000
,
0010
0001
0100
0010
1000
0100
0010
0000
,
0001
0000
0000
1001
0000
1000
0000
0100
0000
0010
0000
0001
,
0000
0000
0100
0000
0000
0000
0010
0000
0000
1000
0000
0000
0010
0000
0000
1000
0000
0000
0100
0000
0000
0010
0000
0000
,
0001
0000
1001
0000
1000
0100
0001
0100
,
1000
0001
0100
0010
1000
0001
0010
0000
,
0100
0000
1100
0100
1000
0100
0010
0100
,
0001
0100
1000
0010
0001
0010
1000
0100
,
0010
0001
2002
0000
0000
0000
0000
0000
,
0000
3003
1000
0000
1000
0000
0001
0000
,
0010
0001
0000
0001
0100
0000
0010
0000
,
1000
0001
0001
1000
,
0010
1000
0000
1000
0100
0000
0010
0001
,
0100
0010
1001
0000
1000
0001
1000
0100
,
0010
0002
0000
0000
1003
0000
0001
0100
,
0010
1000
1001
0000
1000
0000
0001
0010
,
0100
2000
0000
3010
0100
0001
1000
0100
,
0010
0001
1001
0000
1001
0000
1000
0010
,
0100
0002
0000
1003
0100
0001
0100
1000
,
0010
0100
0101
0000
0101
0000
0001
0100
,
0010
2000
0000
3010
0001
0010
1000
0100
,
0010
0001
1000
0010
1000
0010
0100
0001
,
0100
0001
1000
0100
1000
0100
0010
0001
,
0100
0010
1001
0000
1000
1100
0000
1000
,
1001
0000
0001
0101
0000
0001
0100
0010
,
1000
0001
1000
0000
0001
1000
0100
0000
,
0010
0001
0100
0000
0010
1000
0000
1000
,
0100
0000
0010
0000
0010
0000
0001
0100
,
1000
0100
0001
0010
1000
0010
0001
0100
,
0010
1000
0001
0000
0001
0000
1000
0100
,
0000
0100
0000
0010
0001
0100
0010
0100
,
1000
0100
0001
0010
0100
1000
0000
0001
,
1000
0010
0100
0001
0100
0010
1000
0100
,
0010
0000
0001
0000
1001
0000
1000
0010
0100
0010
1000
0100
0010
0001
0100
0010
,
1000
0100
1000
0010
0001
0010
1000
0100
0001
0100
1000
0010
0100
0001
1000
0000
,
0001
0010
0100
1000
0001
0100
0001
1000
0100
0000
0010
0001
1000
0100
1000
0001
,
0100
0000
0000
0100
0000
0000
0010
0000
1000
0000
0010
0000
1000
0000
0001
0000
1000
0000
0100
0000
0010
0000
0100
0000
0001
0000
0000
0000
0001
0000
0100
0000
,
1000
0010
2020
0000
3030
0202
0000
0303
,
0022
0000
0033
2200
0000
3300
1000
0100
,
0010
0001
1002
0000
1003
1020
0000
0130
,
0102
0000
1003
1200
0000
0310
0001
0100
,
1000
0100
0202
0000
0303
2020
0000
3030
,
2200
0000
3300
0012
0000
0013
1000
0010
,
0001
0100
0120
0000
1030
2001
0000
3100
,
0120
0000
0031
2002
0000
3003
1000
0010
,
0001
0000
0010
0000
0220
0000
0000
0000
0330
0000
0000
0000
1000
0001
1000
0001
,
2000
0000
3100
0010
2001
0000
0000
0000
3001
0000
0010
0000
1000
0000
0010
0000
,
0001
0100
0010
1000
0002
0000
1003
0100
,
0010
0000
0001
0000
0200
0000
0000
0000
1300
0000
0100
0000
0002
0000
0000
0023
,
0000
0230
2300
0000
0010
0000
3001
0100
,
1000
0100
0002
0000
0010
0000
1003
0100
,
0001
0100
2000
0000
3010
0100
0002
0000
,
2003
0000
3100
0010
0100
1000
0001
0100
,
1000
0100
0002
0000
2003
0000
3100
0000
,
0010
0001
0100
0010
0100
0010
1000
0010
,
0001
0010
1000
0100
0002
0000
0103
0001
,
0100
1000
0010
0100
0001
1000
0100
0001
,
0100
0000
0010
0000
0011
0000
0000
1001
0000
0000
1010
0000
0000
1001
0000
0000
,
0001
0100
0020
0000
1000
0000
0100
0000
,
0031
0010
2000
0000
3100
0010
0002
0000
,
0103
0010
1000
0100
0002
0000
1003
0010
,
0002
0000
0013
0001
0100
1000
0100
0001
,
1000
0100
2100
0000
0000
0001
0000
0000
,
0010
0000
0000
3001
0000
0000
1001
0000
,
0110
0000
1002
0000
0000
0010
0000
0000
,
1000
0000
0000
0103
0000
0001
1000
0100
,
0010
0001
0011
0000
0001
1001
0000
1000
,
1010
0000
1000
1001
0000
0001
0011
0000
,
0110
0000
1100
0000
1000
1001
0000
0001
,
0101
0000
0001
1001
0000
1000
0100
0010
,
0001
1000
1001
0000
1001
0000
0001
0100
,
1000
0200
0000
0301
0010
0100
1000
0010
,
0100
0001
1001
0000
1001
1000
0001
1000
,
0100
0020
0000
0031
0010
0100
1000
0010
,
0100
0001
1000
0000
1000
0000
0010
1000
,
0100
0002
0000
0103
1000
0010
0100
0001
,
0020
0000
0031
0100
0001
0100
0010
1000
,
0010
1000
0100
0001
0100
1000
0010
0001
,
0010
1000
0000
2002
0000
0000
0000
0000
,
0000
0000
0000
0000
,
0000
3003
0000
0000
;

//---------------dance-single - ----------------
#NOTES:
     dance-single:
     :
     Medium:
     7:
     0.462813,0.579406,0.445552,0.264311,0.000000,429.000000,370.000000,59.000000,35.000000,0.000000,0.000000,0.462813,0.579406,0.445552,0.264311,0.000000,429.000000,370.000000,59.000000,35.000000,0.000000,0.000000:
0000
0000
0000
0000
,
0000
0000
0000
0000
,
0000
0000
1001
0000
1000
0100
0011
0000
,
0001
0100
1010
1001
1100
0011
2002
0000
,
0000
0000
0000
0000
,
3003
1001
0001
0100
,
0010
1000
0100
0010
,
0001
1001
1000
0010
,
0010
1000
0100
1000
,
0100
0011
0001
0100
,
1000
0100
0001
0010
,
0100
1100
1000
0010
,
0010
0000
0101
0000
0100
0000
0001
1000
,
0001
1002
0000
0000
,
0000
1003
0100
0010
,
0000
0100
0000
0000
0010
0000
0001
0000
,
1000
0001
0100
0010
,
0000
0100
0000
0000
0010
0000
1000
0000
,
0001
1001
1000
0100
,
0010
0002
0000
0000
0103
0000
0010
0000
,
1000
1001
0001
0010
,
0100
2000
0000
0000
3010
0000
0100
0000
,
0001
0000
1001
0000
1001
0000
1000
0010
,
1000
0020
0000
0000
0130
0000
0010
1000
,
0001
0000
1001
0000
1001
0000
0001
0010
,
0001
0020
0000
0000
0130
0010
0001
0000
,
1000
0001
0100
0001
,
1000
0200
0000
0310
0001
0000
1000
0001
,
1000
0000
1001
0000
0001
0100
0000
0100
,
0001
0000
1000
0100
0000
0100
1000
0000
,
0110
0000
1001
0000
0000
1000
0100
0000
,
0010
0000
0001
0000
0100
0010
0000
0100
,
0010
1000
1000
0001
,
0010
0000
0100
1000
0100
1000
0001
0000
,
0100
0000
0001
0000
1000
0000
0100
0010
,
0000
0010
0000
0100
1000
0000
0001
0000
,
0100
0000
0010
1000
0010
1000
0000
0001
,
0000
1000
0100
1000
0100
0000
0010
0000
,
0001
0000
1001
1000
0010
0100
0001
1000
,
0100
0010
0001
0100
1000
0100
0010
1000
,
0001
0010
0100
1000
0010
0001
0010
1000
,
0100
0010
0001
0100
0010
1000
0001
0000
,
1001
0000
1100
0000
0000
0011
0000
0000
,
1100
0000
0000
0101
0000
0000
0001
1000
,
0001
0000
1001
0000
1000
0100
0000
1000
,
0001
0000
1000
0100
0000
0000
0020
0000
,
0031
0000
0101
0000
0000
1010
0000
0000
,
0101
0000
0000
1100
0000
0000
1000
0001
,
1000
0000
1001
0000
0001
0010
0000
0001
,
1000
0000
0001
0100
0000
0000
0001
1000
,
0001
1000
0200
0000
0300
0000
1000
0001
,
2002
3003
1002
0000
0000
0103
0010
0000
,
1000
0000
0001
0010
0200
0000
0000
0310
,
0001
0000
2000
0000
0000
3010
0100
0000
,
0001
0000
2000
0000
0000
0000
3001
1000
,
0001
0000
0020
0000
0000
0000
0031
1000
,
0001
2000
3010
0002
,
0103
0000
1000
0100
1000
0000
0001
0010
,
0001
1000
0020
0000
,
0130
0000
0001
1000
0001
1000
0001
0000
,
0010
0100
0010
0100
0020
0000
0000
0130
,
1000
0000
0001
0100
0001
0000
1000
0010
,
1000
0000
0000
0000
2002
0000
0000
0000
0000
0000
0000
0000
0000
3003
0000
0000
,
1000
0100
0020
0000
0000
0000
0031
0000
,
0100
0010
2000
0000
0000
3001
0020
0000
,
0031
1000
2010
3001
,
0102
0000
1003
0001
1000
0001
2000
0000
,
3001
0000
1001
0000
0000
0101
0000
0000
,
1001
0000
0000
1100
0000
0000
1001
0000
,
0110
0000
1001
0000
0000
1010
0000
0000
,
1001
0000
0000
0011
0000
0000
1001
0000
,
0110
0000
1001
0000
0001
0100
0000
0100
,
0001
0000
1000
0100
0000
0100
1000
0000
,
0110
0000
1001
0000
1000
0010
0000
0010
,
1000
0000
0001
0010
0000
0010
0001
0000
,
1000
0000
1001
0000
1001
0000
0001
0100
,
0001
0200
0000
0000
0310
0000
0100
0001
,
1000
0000
1001
0000
1001
0000
1000
0100
,
1000
0200
0000
0000
0310
0001
1000
0000
,
0001
0000
0100
0000
0100
0000
0001
0100
,
0010
2000
0000
3001
1000
0000
0100
0010
,
0002
0103
0100
0010
,
0010
0000
1000
0100
0010
0000
0001
0100
,
0010
1000
0000
2002
0000
0000
0000
0000
,
0000
0000
0000
0000
,
0000
3003
0000
0000
;

//---------------dance-single - ----------------
#NOTES:
     dance-single:
     :
     Easy:
     5:
     0.363562,0.450649,0.400242,0.271862,0.000000,337.000000,284.000000,53.000000,36.000000,0.000000,0.000000,0.363562,0.450649,0.400242,0.271862,0.000000,337.000000,284.000000,53.000000,36.000000,0.000000,0.000000:
0000
0000
0000
0000
,
0000
0000
0000
0000
,
0000
1001
0100
1001
,
1000
0000
0001
0010
0100
2000
0002
0000
,
0000
0000
0000
0000
,
3003
1001
0000
0001
,
0000
0100
0000
0010
,
1000
1001
0000
1000
,
0000
0100
0000
0010
,
0001
1001
0000
1000
,
0000
0010
0000
0100
,
0001
1001
0000
0100
,
0000
0000
1001
0000
0000
0000
0100
0010
,
0000
2002
0000
0000
,
3003
1000
0000
1000
,
0000
0100
0000
0000
0010
0000
0001
0000
,
1000
0001
0000
0001
,
0000
0100
0000
0000
0010
0000
1000
0000
,
0001
1000
1000
0100
,
0000
0020
0000
0000
0130
0000
1000
0000
,
0001
0100
0100
0010
,
0000
2000
0000
0000
3100
0000
0010
0000
,
0001
1000
0010
0100
,
0010
0000
1000
0000
0100
0000
1000
0001
,
1000
0001
0010
0100
,
0010
0000
0001
0000
1000
0010
1000
0000
,
0001
1001
0100
0010
,
0100
0000
1001
0000
0010
0000
0100
0010
,
0100
0000
1001
0000
1100
0000
0000
0011
,
0000
0000
0101
0000
0000
0001
1000
0000
,
0110
1001
0001
1000
,
0100
0001
0100
1000
,
0010
0100
0100
0001
,
0010
1000
0010
0001
,
0100
0010
0010
1000
,
0100
0010
0001
0100
,
1000
0100
0001
1000
,
0100
0010
0001
1000
,
0000
0000
0001
0000
1000
0000
0001
1000
,
0100
0000
0010
0001
0100
0010
1000
0000
,
0001
0000
0100
0001
0010
0000
0100
1000
,
0010
0000
1000
0100
0010
0001
1000
0000
,
0001
0000
1001
0000
0000
0101
0000
0000
,
1001
0000
0000
1100
0000
0000
1000
0000
,
0001
0000
1001
0000
0000
1010
0000
0000
,
1001
0000
0000
0011
0000
0000
0002
0000
,
0103
0000
1010
0000
0000
0110
0000
0000
,
0101
0000
0000
1001
0000
0000
0001
0000
,
1000
0000
1100
0000
0000
0110
0000
0000
,
0011
0000
0000
1001
0000
0000
0001
0000
,
0100
0000
0220
0000
0330
0000
1000
0001
,
2002
3003
2001
0000
0000
0000
3010
0000
,
1000
0100
0020
0000
,
0031
2000
0000
3010
,
0100
0002
0000
1003
,
0001
0020
0000
0130
,
1000
0020
1030
0002
,
1003
0100
0100
0010
,
0010
0001
2000
0000
,
3001
1000
0010
0001
,
0010
1000
0200
0000
,
0310
0001
0100
0010
,
1000
0000
0000
0000
2002
0000
0000
0000
0000
0000
0000
0000
0000
3003
0000
0000
,
0110
1002
0000
0013
,
0001
0200
0000
1300
,
0100
0001
1001
0010
,
1001
1000
0100
0010
,
0001
0000
1002
0000
0000
0100
0000
0000
,
1000
0000
0000
0103
0000
0000
0101
0000
,
0001
0000
2001
0000
0000
0100
0000
0000
,
0001
0000
0000
3100
0000
0000
1100
0000
,
1000
0000
1002
0000
0000
0203
0000
0000
,
0320
0000
0000
2030
0000
0000
3100
0000
,
0011
0000
2001
0000
0000
3020
0000
0000
,
0230
0000
0000
0302
0000
0000
1003
0000
,
0110
1001
1000
0100
,
0010
0000
0001
0000
0100
0000
0001
1000
,
0001
0010
0001
0100
,
0010
0000
1000
0000
0001
0010
0001
0000
,
1000
1001
0000
0001
,
0100
0000
0010
0000
1000
0000
0001
1000
,
0001
1001
0100
1001
,
0001
1000
0100
0010
,
0001
0000
0000
2002
0000
0000
0000
0000
,
0000
0000
0000
0000
,
0000
3003
0000
0000
;

//---------------dance-single - ----------------
#NOTES:
     dance-single:
     :
     Beginner:
     3:
     0.227631,0.321892,0.264311,0.294517,0.000000,211.000000,176.000000,35.000000,39.000000,0.000000,0.000000,0.227631,0.321892,0.264311,0.294517,0.000000,211.000000,176.000000,35.000000,39.000000,0.000000,0.000000:
// measure 0
0000
0000
0000
0000
,  // measure 1
0000
0000
0000
0000
,  // measure 2
0000
1001
0000
0110
,  // measure 3
0000
0001
1000
0001
,  // measure 4
0000
0000
0000
0000
,  // measure 5
0000
1001
0000
0000
,  // measure 6
0000
0100
0000
0000
,  // measure 7
0000
1001
0000
0000
,  // measure 8
0000
0010
0000
0000
,  // measure 9
0000
1001
0000
0000
,  // measure 10
0000
1000
0000
0000
,  // measure 11
0000
0110
0000
0000
,  // measure 12
0000
1001
0000
0110
,  // measure 13
0000
2002
0000
0000
,  // measure 14
3003
1001
0000
0000
,  // measure 15
0000
1000
0000
0100
,  // measure 16
0000
0010
0000
0000
,  // measure 17
0000
0001
0000
1000
,  // measure 18
0000
1001
0000
0001
,  // measure 19
0000
0002
0000
0003
,  // measure 20
0000
1001
0000
1000
,  // measure 21
0000
2000
0000
3000
,  // measure 22
0000
0001
0001
0001
,  // measure 23
0000
1000
0000
0010
,  // measure 24
0000
1000
1000
1000
,  // measure 25
0000
0100
0000
1000
,  // measure 26
0000
0010
0010
0010
,  // measure 27
0000
0100
0000
0001
,  // measure 28
0000
1001
0000
0100
,  // measure 29
0000
1001
0000
1000
,  // measure 30
0001
1000
0000
0100
,  // measure 31
0100
0010
0000
0001
,  // measure 32
0000
1000
1000
0010
,  // measure 33
0000
0100
0000
0001
,  // measure 34
0000
1000
0000
0001
,  // measure 35
0000
0010
0000
0100
,  // measure 36
0100
1000
0000
0001
,  // measure 37
0000
0100
0100
0010
,  // measure 38
0000
1000
1000
0001
,  // measure 39
0001
0010
0100
0010
,  // measure 40
0001
1000
1000
0001
,  // measure 41
0001
1000
0010
0100
,  // measure 42
0001
0000
2002
0000
0000
3003
0000
0000
,  // measure 43
0220
0000
0000
0330
0000
0000
0100
0000
,  // measure 44
0000
0000
0220
0000
0000
0330
0000
0000
,  // measure 45
2002
0000
0000
3003
0000
0000
0001
0000
,  // measure 46
0000
0000
2002
0000
0000
3003
0000
0000
,  // measure 47
0220
0000
0000
0330
0000
0000
0010
0000
,  // measure 48
0000
0000
0220
0000
0000
0330
0000
0000
,  // measure 49
2002
0000
0000
3003
0000
0000
1000
0000
,  // measure 50
0000
1001
0000
1000
,  // measure 51
0001
1001
0000
1000
,  // measure 52
1000
0010
0000
0100
,  // measure 53
0000
0001
0000
1000
,  // measure 54
1000
0001
0000
0010
,  // measure 55
0000
0001
0000
0100
,  // measure 56
0100
0010
0000
1000
,  // measure 57
0000
0001
0001
1000
,  // measure 58
1000
0100
0000
0010
,  // measure 59
0000
0001
0001
1000
,  // measure 60
1000
0001
0000
0100
,  // measure 61
0000
0010
0010
1000
,  // measure 62
1000
0000
0002
0000
0000
0003
0000
0000
,  // measure 63
1000
1000
0000
0100
,  // measure 64
0100
0010
0000
0001
,  // measure 65
0000
1000
1000
0001
,  // measure 66
0001
0100
0000
0010
,  // measure 67
0000
0000
2002
0000
0000
3003
0000
0000
,  // measure 68
0220
0000
0000
0330
0000
0000
0100
0000
,  // measure 69
0000
0000
0220
0000
0000
0330
0000
0000
,  // measure 70
2002
0000
0000
3003
0000
0000
0001
0000
,  // measure 71
0000
0000
2002
0000
0000
3003
0000
0000
,  // measure 72
0220
0000
0000
0330
0000
0000
0010
0000
,  // measure 73
0000
0000
0220
0000
0000
0330
0000
0000
,  // measure 74
2002
0000
0000
3003
0000
0000
1000
0000
,  // measure 75
0000
0001
0001
0001
,  // measure 76
0000
0100
0000
0010
,  // measure 77
0000
1000
1000
1000
,  // measure 78
0000
0100
0000
0010
,  // measure 79
0000
0001
0001
0001
,  // measure 80
0000
1000
0000
0010
,  // measure 81
0000
0110
0000
1001
,  // measure 82
0000
1000
1000
0001
,  // measure 83
0001
0000
0000
2002
0000
0000
0000
0000
,  // measure 84
0000
0000
0000
0000
,  // measure 85
0000
3003
0000
0000
;
