#TITLE:チルノのパーフェクトさんすう教室;
#SUBTITLE:PUNK IT!;
#ARTIST:ちよこ;
#TITLETRANSLIT:Cirno's Perfect Math Class;
#SUBTITLETRANSLIT:PUNK IT!;
#ARTISTTRANSLIT:Chiyoko;
#CREDIT:;
#BANNER:;
#BACKGROUND:;
#LYRICSPATH:;
#CDTITLE:;
#MUSIC:[ROUND L] - Cirno's Perfect Math Class (PUNK IT!).ogg;
#OFFSET:-0.998;
#SAMPLESTART:53.751;
#SAMPLELENGTH:12.000;
#SELECTABLE:YES;
#BPMS:0.000=180.000;
#STOPS:;
#BGCHANGES:;

//---------------dance-single - ----------------
#NOTES:
     dance-single:
     :
     Hard:
     9:
     0.806,0.809,0.251,0.151,0.348:
1001
1001
0000
0000
0000
0000
0000
0000
,
0110
0110
0000
0000
0000
0000
0000
0000
,
1001
1001
0000
0000
0000
0000
0000
0000
,
0110
0000
0110
0000
0000
0000
0000
0000
0010
0100
0010
0100
0010
0000
1000
0000
,
0100
0000
0000
0100
0010
0001
0100
0010
,
1000
0100
0010
0100
1000
0010
0100
0001
,
0010
0010
0100
0100
1000
1000
0001
0001
,
1001
0001
0100
0010
1000
0100
0100
0000
,
0010
0001
0010
1000
0000
0000
1000
0010
,
0001
0000
0100
0000
1000
0000
0100
0000
0000
0000
0100
0001
0100
0000
0010
0000
,
0000
0010
1000
0001
1000
0100
1000
0001
,
0100
0010
1000
0100
0100
0010
0010
0001
,
0100
0001
1000
0100
0000
0100
0010
0100
,
1000
0000
0100
0000
0010
0000
0001
0000
0000
0000
0001
0010
0001
0000
0100
0000
,
0100
0010
0000
1000
0010
0000
1000
0001
0000
1000
0100
0000
1000
0000
0001
0000
,
0100
0000
0100
0000
0100
0000
0001
0100
0000
0000
0001
0100
0001
0000
0000
0000
,
0001
0000
0000
0100
0010
0000
1000
0000
0200
0000
0000
0000
0300
0000
0000
0000
,
1000
0100
0010
0001
0020
0000
0030
0000
,
0100
1000
0001
1000
0100
0000
0100
0010
,
0001
0010
0100
0010
0001
0010
0100
1000
,
0010
1000
0010
1000
0001
0000
0100
0000
1000
0000
0100
0000
0010
0000
1000
0000
,
0100
0000
1000
0100
1000
0000
0010
0000
0100
0000
0001
0100
0001
0000
0100
0000
,
0010
1000
0010
0001
0010
1000
0100
0001
,
0100
0000
0000
0000
0100
1000
0100
1000
0100
0000
0000
0000
1000
0100
0000
1000
,
0001
0000
0000
0001
0100
0000
0010
0000
1000
0000
0100
0000
1100
0000
0000
0000
,
1000
0000
0001
1000
0001
0000
0100
0000
0010
0000
0100
0000
0110
0000
0000
0000
,
1000
0000
0000
1000
0100
0000
0010
0000
0002
0000
0000
0000
0013
0000
0100
0000
,
1000
0000
0000
0010
0100
0000
0001
0000
1000
0000
0100
0000
1000
0100
1000
0100
,
1000
0100
0000
0000
0100
0010
0000
0000
0010
0001
0010
0000
0001
0010
0001
0000
,
0010
0001
0010
0000
0001
0010
0001
0000
0100
0000
0010
0000
0110
0000
0000
0000
,
1001
1000
0100
0010
1001
0001
0100
0010
,
1000
0100
0000
0100
0010
0000
0010
0001
,
0100
0010
1000
0200
0000
0000
1000
0000
,
1300
0001
0100
0010
0000
0010
1000
0001
,
1000
0100
0010
0002
0000
0000
0103
0000
,
0010
0001
1000
0100
0000
0100
0010
0100
,
1000
0010
0100
0001
0011
0000
1001
0001
,
2000
3100
0002
0013
,
2100
3001
0102
1003
,
1001
0000
0000
0000
1000
0001
1000
0001
1000
0000
0001
0000
1000
0000
0001
0000
,
1000
0000
0000
1000
0100
0010
0100
0010
,
0002
0000
1000
0000
0103
0001
0010
0100
,
1000
0000
0000
1000
0010
1000
0100
0010
,
0002
0100
1000
0010
,
1003
0000
0000
0000
1000
0000
0100
0010
0100
0000
1000
0000
0001
0000
0010
0000
,
0100
0000
0100
0000
1000
0000
0010
0000
0100
0000
0010
0100
0001
0000
0100
0000
,
0010
0000
0000
0010
0000
0000
1000
0000
0100
0000
0000
0100
0000
0000
0010
0000
,
0011
0000
1001
0000
1010
1000
0001
0100
,
0010
0000
0010
1000
0100
0010
0001
1000
,
0200
0000
0010
0000
1300
0100
1000
0001
,
0010
0000
0000
0100
0010
0001
0100
0010
,
1000
0100
1000
0100
1000
0100
1000
0001
0100
0001
0100
0001
,
0100
0000
0010
0000
1010
0000
1000
0010
,
1000
0000
0100
1000
0100
0000
0010
0000
0100
0000
0010
0000
0100
0000
0010
0000
,
0001
0010
0001
0010
0001
1000
0001
1000
,
1001
0000
0000
0000
0001
0000
1000
0000
0100
0010
0100
0010
0100
0000
0000
0000
,
1000
0100
0010
0002
0000
0003
0001
0100
,
0010
0000
1000
0000
0100
0000
0010
0000
0000
0000
0001
0010
0001
0000
1000
0000
,
0000
0100
1000
0010
0100
0001
1000
0001
,
0010
0100
1000
0100
0001
0100
1000
0010
,
0100
0001
0100
2000
0000
3000
1000
0100
,
0001
0000
0010
0000
0001
0000
0100
0000
0000
0000
0100
0010
0100
0000
0001
0000
,
0010
0001
0000
1000
0001
0000
0100
0001
0000
1000
0001
0000
0010
0000
0100
0000
,
1000
0000
1000
0000
1000
0000
0010
1000
0000
0000
1000
0010
1000
0000
0000
0000
,
1000
0000
0000
0100
0010
0000
0001
0000
0100
0000
0000
0000
0000
0000
0000
0000
,
1000
0100
0001
0100
1000
0000
0100
0000
,
0001
0010
1000
0010
0001
0000
0010
0001
,
0100
0010
0220
0330
,
0011
0000
0001
0100
2000
0000
3000
0000
,
1100
0000
1000
0100
0002
0000
0003
0000
,
0001
0001
0100
0010
0010
1000
0100
0010
,
0001
0000
0000
0000
0001
0010
0000
0001
1000
0000
0000
0000
1000
0100
0000
1000
,
0001
0100
0001
1000
0100
0000
0110
0000
,
0100
0000
0010
0100
0010
0000
0001
0000
0100
0000
0010
0000
0100
0000
0000
0000
,
0100
0100
0010
0010
1000
1000
0001
0001
,
0100
0000
0000
0000
0100
0010
0000
1000
0010
0000
0000
0000
1000
0001
1000
0001
,
1000
0100
0000
0000
0100
0010
0000
0000
0010
0001
0010
0000
0001
1000
0001
0000
,
1000
0001
1000
0000
0001
1000
0001
0000
1000
0001
1000
0000
0001
0000
0000
0000
,
0011
0010
0001
1000
1010
0010
1000
0100
,
0010
0000
0000
0000
0001
0100
0000
0010
1000
0000
0100
0000
0010
0000
0001
0000
,
0100
0010
1000
0010
0000
0000
0010
0100
,
0001
0000
0010
0000
0100
0000
1000
0000
0000
0000
1000
0100
1000
0000
0001
0000
,
0000
0100
0010
0100
0001
0010
0100
1000
,
0010
0100
0010
1000
0000
1000
0001
0001
,
0100
1000
0100
0001
0000
0000
0001
0010
,
1000
0000
0010
0000
0001
0000
0100
0000
0000
0000
0100
0001
0010
0000
0100
0000
,
1000
0010
0000
0100
0010
0000
0100
0001
0000
0100
0010
0000
0100
0000
0001
0000
,
0010
0000
0010
0000
0010
0000
0100
0010
0000
0000
0100
0010
0100
0000
0000
0000
;

//---------------dance-single - ----------------
#NOTES:
     dance-single:
     :
     Medium:
     8:
     0.674,0.662,0.461,0.067,0.050: // measure 1
1000
0001
0000
0000
0001
1000
0001
1000
,  // measure 2
0100
0010
0000
0000
0000
0001
0010
0001
,  // measure 3
0010
0100
0000
0100
1000
0100
1000
0100
,  // measure 4
1000
0001
0000
0000
0101
0000
0001
0000
,  // measure 5
0100
0000
0100
0010
,  // measure 6
1000
0001
1000
0000
0001
1000
0001
0000
,  // measure 7
0100
0101
1000
1010
,  // measure 8
1000
0100
1000
0001
1000
0000
1001
0000
,  // measure 9
1000
0100
1000
0100
1000
0100
1000
0100
,  // measure 10
0010
0001
0010
0001
0010
0001
0010
0001
,  // measure 11
0100
0001
0100
0001
0100
0001
0100
0001
,  // measure 12
0100
0010
0100
0010
0100
0010
0100
0010
,  // measure 13
1000
0001
1000
0001
1000
0001
1000
0001
,  // measure 14
0100
0010
0100
0010
0100
0010
0100
0010
,  // measure 15
1000
0000
0000
0100
0000
0000
0010
0000
0000
0001
0000
0000
0100
0000
0010
0000
,  // measure 16
1000
0000
0001
0000
1000
0000
0000
1001
0000
0000
0000
0000
0000
0000
0000
0000
,  // measure 17
1100
0000
1000
0100
0010
0000
0000
0000
,  // measure 18
0101
0000
0001
0100
0010
0000
0000
0000
,  // measure 19
0010
0000
1000
0100
1000
0000
1000
0001
,  // measure 20
1000
0010
0110
0000
,  // measure 21
0100
0001
0100
0010
0100
0000
0000
0000
,  // measure 22
0001
1000
0001
0100
0001
0000
0000
0000
,  // measure 23
0101
0000
0001
0100
0010
0000
0010
1000
,  // measure 24
0200
0000
0000
0010
0310
0000
0010
0000
,  // measure 25
0010
0000
0001
0100
1000
0000
1100
0000
,  // measure 26
1000
0000
0100
0001
0010
0000
0110
0000
,  // measure 27
0100
0000
1000
0010
0100
0000
0100
0001
,  // measure 28
0010
0001
0100
0000
0202
0000
0303
0000
,  // measure 29
0101
0101
1100
1100
,  // measure 30
1001
1001
0110
0110
,  // measure 31
0010
0100
0010
0100
0001
1000
0001
1000
,  // measure 32
0001
0100
0000
0010
1000
0001
1000
0010
,  // measure 33
1000
0100
1000
0100
0010
0000
0110
0000
,  // measure 34
0010
0001
0010
0001
1000
0000
1010
0000
,  // measure 35
0001
1000
0001
1000
0010
0000
0110
0000
,  // measure 36
0010
0100
0010
0100
0001
0000
0101
0000
,  // measure 37
0100
0010
1000
0100
,  // measure 38
0001
0100
1000
0010
,  // measure 39
0100
1100
0100
0101
,  // measure 40
2002
0000
0000
3003
,  // measure 41
0001
0000
0100
0000
0010
1000
0100
1000
,  // measure 42
0010
0100
0001
0011
,  // measure 43
0001
0000
0100
0000
1000
0010
0100
0010
,  // measure 44
1000
0001
0010
0100
,  // measure 45
0110
0000
0000
0000
1000
0100
1000
0010
,  // measure 46
0100
0010
0100
0010
0100
0001
1000
0001
,  // measure 47
1000
0000
0000
0100
0000
0000
0010
0000
0001
0000
0000
0100
0000
0000
0010
0000
,  // measure 48
1000
0100
0000
0010
0001
0000
0001
0100
,  // measure 49
0001
0000
0100
0000
0010
1000
0010
0100
,  // measure 50
0010
0000
1000
0000
0100
0000
0010
0001
,  // measure 51
0010
0000
0100
0000
1000
0010
0100
0001
,  // measure 52
0100
0010
1000
0010
,  // measure 53
1001
0000
1000
0000
0100
0010
0001
0010
,  // measure 54
0100
1000
0100
0010
0001
0010
0100
1000
,  // measure 55
0100
0110
1000
1001
,  // measure 56
0220
0000
0000
0330
,  // measure 57
1000
0010
1000
0010
1000
0010
0100
0001
,  // measure 58
0010
0001
0010
0001
0010
0001
0100
0010
,  // measure 59
1000
0100
1000
0100
1000
0100
0010
0001
,  // measure 60
0100
0001
0100
0001
0100
0001
0010
0100
,  // measure 61
1000
0001
1000
0001
1000
0001
0100
0010
,  // measure 62
1000
0100
1000
0100
1000
0100
1000
0010
,  // measure 63
0100
0000
0000
0001
0000
0000
0010
0000
0000
0100
0000
0000
1000
0000
0010
0000
,  // measure 64
0100
0000
0001
0000
0100
0000
0000
0010
0000
0000
0000
0000
0110
0000
0000
0000
,  // measure 65
1010
0000
0000
0000
,  // measure 66
0011
0000
0000
0000
,  // measure 67
1001
0000
0001
1000
0001
0000
0010
0100
,  // measure 68
0010
0000
0011
0000
1010
0000
1000
0001
,  // measure 69
0100
0000
0100
0010
1000
0000
1000
0100
,  // measure 70
0010
0000
0001
0100
0010
0000
0010
1000
,  // measure 71
0100
1000
0010
1000
0100
1000
0010
1000
,  // measure 72
0001
0100
0000
0010
2000
0000
0001
0000
,  // measure 73
3100
1000
0100
0001
0100
0000
1000
0000
,  // measure 74
0010
0001
0010
1000
0010
0000
0001
0000
,  // measure 75
0010
1000
0100
0001
0100
0000
0100
1000
,  // measure 76
0001
0101
1000
1100
,  // measure 77
1001
1001
0110
0110
,  // measure 78
1010
1010
0011
0011
,  // measure 79
0101
0101
1100
1100
,  // measure 80
1001
0000
0000
0100
0010
0001
0010
1000
,  // measure 81
0100
1000
0010
1000
0100
1000
0010
1000
,  // measure 82
0001
0010
0001
0100
0001
0010
0001
0100
,  // measure 83
0010
1000
0100
0001
0100
1000
0010
0001
,  // measure 84
0010
1000
0100
0001
0100
1000
0010
0010
,  // measure 85
1000
0100
0001
0100
1000
0100
0001
0100
,  // measure 86
1000
0010
0001
0010
1000
0010
0001
0010
,  // measure 87
1000
0000
0000
0010
0000
0000
1000
0000
0000
0100
0000
0000
0001
0000
0100
0000
,  // measure 88
1000
0000
1000
0000
1000
0000
0000
0011
0000
0000
0001
1000
0001
0000
0000
0000
;

//---------------dance-single - ----------------
#NOTES:
     dance-single:
     :
     Easy:
     5:
     0.371,0.441,0.134,0.059,0.008:
1000
0001
0000
0000
0000
0000
0000
0000
,
0001
1000
0000
0000
0000
0000
0000
0000
,
0100
0010
0000
0000
0000
0000
0000
0000
,
0010
0100
0000
0000
0000
0000
0000
0000
,
2000
0000
3020
0000
,
0230
0000
0302
0000
,
0013
0010
0100
0100
,
1001
0000
0000
0000
,
0000
0100
0000
0100
0000
0010
0000
1000
,
0000
0100
0000
0100
0000
0010
0000
0001
,
0000
0100
0000
0010
0000
1000
0000
0010
,
0000
1000
0000
0010
0000
0100
0000
0001
,
0000
0100
0000
0100
0000
0001
0000
0010
,
0000
0100
0000
0100
0000
1000
0000
0000
,
0100
0000
0000
0100
0000
0000
0100
0000
,
0100
0000
0000
0100
0000
0000
0000
0000
,
0100
0001
0100
0000
,
0100
1000
0100
0000
,
0100
0010
0100
0000
,
0001
1000
0001
0000
,
0010
0001
0010
0000
,
0010
1000
0010
0000
,
0001
1000
0001
0100
,
0010
0000
0010
0000
,
0010
1000
0100
0000
,
0010
0001
0100
0000
,
0100
0001
1000
0000
,
1000
0001
0100
0000
,
0100
0100
0010
0010
,
1000
1000
0001
0001
,
0010
0001
0100
0010
,
2000
0000
3100
0000
,
1000
0100
0000
0000
,
0010
0001
0000
0000
,
0001
0100
0000
0000
,
0010
1000
0000
0000
,
1000
0001
1000
0001
,
0100
0010
0100
0010
,
0100
0100
0001
0001
,
2002
0000
3003
1000
,
0100
0010
0100
1000
,
0010
0100
0001
0010
,
0011
0001
0100
0010
,
1000
0100
1000
0010
,
0100
0100
0001
0001
,
0010
0010
0100
0100
,
1000
0000
0000
0100
0000
0000
0000
0000
0001
0000
0000
0100
0000
0000
0000
0000
,
0001
0100
0010
1000
,
1100
1000
0010
0100
,
0101
0001
0010
0100
,
0110
0010
1000
0100
,
1100
1000
0010
0100
,
0001
0000
0010
0010
,
0100
0100
1000
1000
,
0010
0010
0100
0100
,
0101
0000
0001
0100
,
0000
0010
0000
1000
0000
0100
0000
0010
,
0000
0001
0000
0010
0000
0100
0000
1000
,
0000
0010
0000
0100
0000
0001
0000
0100
,
0000
0010
0000
1000
0000
0100
0000
1000
,
0000
0010
0000
0100
0000
0001
0000
0010
,
0000
0001
0000
0100
0000
0010
0000
0000
,
1000
0000
0000
1000
0000
0000
1000
0000
,
1000
0000
0000
1000
0000
0000
1100
0000
,
1001
0000
0000
0000
,
0101
0000
0000
0000
,
0001
0100
0010
0000
,
0010
1000
0100
0000
,
0100
0100
0010
0000
,
0010
0010
0100
0000
,
1000
0001
1000
0001
,
1001
0000
0110
0000
,
0001
0100
0010
0010
,
1000
0100
0010
0010
,
0001
0100
0010
1000
,
0100
0010
0010
0000
,
0001
0001
0100
0100
,
0010
0010
1000
1000
,
0100
0100
0010
0010
,
0001
0000
1001
0000
,
0000
0100
0000
0010
0000
0001
0000
0010
,
0000
0100
0000
1000
0000
0100
0000
0001
,
0000
0100
0000
1000
0000
0100
0000
0001
,
0000
0010
0000
1000
0000
0010
0000
0001
,
0000
0010
0000
1000
0000
0010
0000
0001
,
0000
0100
0000
0010
0000
1000
0000
0100
,
0010
0000
0000
0011
0000
0000
1001
0000
,
1000
0000
0000
0100
0000
0000
0010
0000
;

//---------------dance-single - ----------------
#NOTES:
     dance-single:
     :
     Beginner:
     1:
     0.083,0.147,0.008,0.000,0.000:
0000
0000
0000
0000
,
0000
0000
0000
0000
,
0000
0000
0000
0000
,
0000
0000
0000
0000
,
0000
0000
0000
0000
,
0000
0000
0000
0000
,
0000
0000
0000
0000
,
1001
0000
0000
0000
,
1000
0000
0000
0000
,
1000
0000
0000
0000
,
0001
0000
0000
0000
,
0001
0000
0000
0000
,
0001
0000
0000
0000
,
0100
0000
0000
0000
,
0010
0000
0000
0000
,
0000
0000
0000
0000
,
1000
0000
0000
0000
,
0001
0000
0000
0000
,
1000
0000
0000
0000
,
0001
0000
0000
0000
,
0100
0000
0000
0000
,
0010
0000
0000
0000
,
0100
0000
0000
0000
,
0000
0000
0000
0000
,
0100
0000
0000
0000
,
0010
0000
0000
0000
,
0100
0000
0000
0000
,
0010
0000
0000
0000
,
1000
0000
0000
0000
,
0000
0000
0000
0000
,
0001
0000
0000
0000
,
0000
0000
0000
0000
,
0100
0000
0000
0000
,
0000
0000
0000
0000
,
0010
0000
0000
0000
,
0000
0000
0000
0000
,
1000
0000
0000
0000
,
0001
0000
0000
0000
,
1000
0000
1000
0000
,
1000
0000
0000
0000
,
0001
0000
0000
0000
,
0000
0000
0000
0000
,
0001
0000
0000
0000
,
0000
0000
0000
0000
,
0010
0000
0000
0000
,
0010
0000
0000
0000
,
0010
0000
0000
0000
,
0000
0000
0000
0000
,
1000
0000
0000
0000
,
0000
0000
0000
0000
,
1000
0000
0000
0000
,
0000
0000
0000
0000
,
0100
0000
0000
0000
,
0100
0000
0000
0000
,
0100
0000
0100
0000
,
0100
0000
0000
0000
,
1000
0000
0000
0000
,
0100
0000
0000
0000
,
0100
0000
0000
0000
,
0000
0000
0000
0000
,
0010
0000
0000
0000
,
0000
0000
0000
0000
,
0001
0000
0000
0000
,
0000
0000
0000
0000
,
0100
0000
0000
0000
,
0100
0000
0000
0000
,
0100
0000
0000
0000
,
0100
0000
0000
0000
,
0010
0000
0000
0000
,
0010
0000
0000
0000
,
0010
0000
0000
0000
,
0010
0000
0000
0000
,
1000
0000
0000
0000
,
0001
0000
0000
0000
,
1000
0000
0000
0000
,
0001
0000
0000
0000
,
1000
0000
0000
0000
,
0000
0000
0000
0000
,
0001
0000
0000
0000
,
0000
0000
0000
0000
,
0100
0000
0000
0000
,
0010
0000
0000
0000
,
0100
0000
0000
0000
,
0010
0000
0000
0000
,
0100
0000
0000
0000
,
0010
0000
0000
0000
,
0100
0000
0000
0000
,
0010
0000
0000
1000
;

//---------------dance-double - ----------------
#NOTES:
     dance-double:
     :
     Hard:
     10:
     0.910,0.919,0.260,0.025,0.474:
10010000
10010000
00000000
00000000
00000000
00000000
00000000
00000000
,
00011000
00011000
00000000
00000000
00000000
00000000
00000000
00000000
,
00001001
00001001
00000000
00000000
00000000
00000000
00000000
00000000
,
00011000
00000000
00011000
00000000
00000000
00000000
00000000
00000000
00001000
00010000
00001000
00010000
00001000
00000000
00010000
00000000
,
00100000
00000000
10000000
01000000
00010000
01000000
10000000
01000000
,
00010000
00001000
00000100
00001000
00010000
00001000
00000100
00000001
,
00000100
00001000
00000100
00000001
00000100
00001000
00000100
00000001
,
00000010
00001000
00010000
00100000
00010000
00001000
00001000
00000000
,
00001000
00100000
00010000
01000000
00100000
10000000
01000000
00100000
,
00001000
00000000
00010000
00000000
00000100
00000000
00001000
00000000
00000010
00000000
00000100
00000001
00000100
00000000
00000010
00000000
,
00001000
00000100
00010000
00001000
00100000
00010000
01000000
00100000
,
10000000
10000000
01000000
00100000
00100000
00001000
00010000
00000100
,
00001000
00000010
00000100
00000001
00000010
00001000
00000100
00010000
,
00001000
00000000
00100000
00000000
00010000
00000000
01000000
00000000
00100000
00000000
10000000
01000000
10000000
00000000
00100000
00000000
,
01000000
00010000
00000000
00100000
00010000
00000000
00100000
00001000
00000000
00010000
00001000
00000000
00010000
00000000
00000100
00000000
,
00001000
00000000
00000010
00000000
00000100
00000000
00000001
00000100
00000000
00000000
00000100
00001000
00010000
00000000
00000000
00000000
,
00011000
00000000
00000000
00001000
00010000
00000000
00100000
00000000
10000000
00000000
00100000
00000000
00010000
00000000
00000000
00000000
,
00011000
00000000
00000000
00010000
00001000
00000000
00000010
00000000
00000001
00000000
00000010
00000000
00001000
00000000
00000000
00000000
,
00001000
00100000
00010000
01000000
00010000
00000000
00010000
00100000
,
01000000
01000000
10000000
00100000
10000000
01000000
00100000
00001000
,
00010000
00000100
00001000
00000000
00000010
00000000
00000100
00000000
00000001
00000000
00000010
00000000
00000001
00000000
00000100
00000000
,
00000010
00000000
00001000
00000100
00001000
00000000
00000001
00000000
00000100
00000000
00000010
00000000
00000100
00000000
00000001
00000000
,
00000010
00001000
00000010
00000001
00000100
00000010
00000100
00000010
,
00000100
00000010
00000100
00000010
00000100
00000010
00000100
00000010
00001000
00000001
00001000
00000001
00001000
00000001
00001000
00000001
,
00001000
00000100
00010000
00001000
00010000
00000000
00101000
00000000
,
00100000
00000000
00010000
01000000
00100000
00000000
10000000
00000000
00010000
00000000
10000000
00000000
10010000
00000000
00000000
00000000
,
10000000
00000000
01000000
00100000
00010000
00000000
00100000
00000000
00001000
00000000
00010000
00000000
00000100
00000000
00001000
00000000
,
00001000
00000000
00000100
00001000
00000100
00000000
00000010
00000100
00000010
00000000
00000001
00000010
00000001
00000010
00000001
00000010
,
00000001
00000010
00000000
00000000
00000010
00000100
00000000
00000000
00000100
00001000
00000100
00000000
00010000
00001000
00010000
00000000
,
00001000
00100000
00010000
00000000
00100000
00010000
10000000
00000000
00100000
10000000
00010000
00000000
00100000
00000000
00000000
00000000
,
10010000
10000000
01000000
00100000
00001000
00010000
00000100
00001000
,
00001010
00000000
00000000
00000000
00001000
00000010
00000000
00000100
00000001
00000000
00000100
00000000
00001000
00000000
00000100
00000000
,
00000001
00000010
00000100
00010000
00001000
00010000
00100000
10000000
,
01000000
00100000
00001000
00100000
00010000
01000000
00100000
10000000
,
01000000
00100000
01000000
10000000
01000000
00010000
00001000
00000100
,
00000010
00000000
00000100
00000000
00001000
00000000
00000100
00000000
00000001
00000000
00000100
00001000
00000100
00000000
00000000
00000000
,
00011000
00001000
00100000
00110000
00000000
00010000
01000000
00100000
,
10100000
10010000
00011000
00001010
,
00001001
00000100
00001001
00000010
,
00000102
00000000
00001000
00000000
00010003
00010000
00001000
00010000
,
00100000
00000000
00100000
10000000
00100000
00010000
00001000
00000100
,
00000001
00000100
00001000
00010000
00001000
00100000
00010000
01000000
,
01100000
00000000
00100000
10000000
01000000
00100000
00001000
00010000
,
00000100
00000000
00000000
00001000
00000000
00000000
00000010
00000000
00000000
00000100
00000000
00000000
00000001
00000000
00000010
00000000
00000100
00000000
00000010
00000000
00000100
00000000
00001000
00000000
,
00000100
00000000
00010000
00000000
00001000
00000000
00100000
00010000
00100000
00000000
01000000
00000000
10000000
00000000
00100000
00000000
,
01000000
00000000
01000000
00000000
00010000
00000000
00010000
00000000
00100000
00000000
00001000
00010000
00001000
00000000
00010000
00000000
,
00001000
00000000
00000000
00001000
00000000
00000000
00000100
00000000
00000001
00000000
00000000
00000001
00000000
00000000
00000100
00000000
,
00001000
00010000
00001000
00010000
00001000
00010000
00001000
00010000
00001000
00010000
00001000
00010000
00001000
00010000
00001000
00010000
,
00001000
00100000
00010000
01000000
00100000
10000000
01000000
00100000
,
00001000
00100000
00010000
01000000
00100000
10000000
01000000
00010000
,
00001000
00000100
00000001
00000010
00000001
00000100
00000010
00001000
,
00000100
00010000
00001000
00100000
00010000
01000000
00100000
10000000
01000000
00100000
00001000
00010000
,
00000100
00000000
00000010
00000001
00000010
00000100
00001000
00000100
,
00000100
00010000
00010000
00001000
00001000
00100000
00100000
00010000
,
00010000
01000000
01000000
00100000
00100000
10000000
10000000
01000000
,
01100000
00000000
00100000
01000000
00100000
00000000
00010000
00000000
00100000
00001000
00010000
00000100
00010000
00000000
00000000
00000000
,
00010000
01000000
10000000
01000000
00010000
00001000
00000010
00000001
,
00000010
00000000
00000100
00000000
00000010
00000000
00001000
00000000
00000100
00000000
00010000
00001000
00010000
00001000
00010000
00000000
,
00000000
00001000
00100000
00010000
01000000
00100000
10000000
01000000
,
00100000
00000000
00100000
00000000
00001000
00000000
00010000
00000000
00000100
00000000
00001000
00000010
00001000
00000010
00000100
00000000
,
00000001
00000010
00000100
00000010
00000001
00000100
00000010
00001000
,
00000100
00000000
00010000
00000000
00001000
00000000
00100000
00000000
00010000
00000000
01000000
10000000
01000000
00000000
00010000
00000000
,
00100000
00010000
00000000
00100000
00001000
00000000
00010000
00000100
00000000
00001000
00000100
00000000
00000010
00000000
00000001
00000000
,
00000100
00000000
00000100
00000000
00000100
00000000
00000001
00000100
00000000
00000000
00000100
00000010
00001000
00000000
00000000
00000000
,
00001100
00000000
00000000
00000100
00001000
00000000
00010000
00000000
00100000
00000000
00000000
00000000
00000000
00000000
00000000
00000000
,
00110000
00000000
00010000
00100000
00010000
00000000
00001000
00000000
00000100
00000000
00000000
00000000
00000000
00000000
00000000
00000000
,
00001000
00010000
00100000
00010000
00001000
00000000
00001000
00000100
,
00000010
00000010
00000001
00000100
00000101
00000100
00000010
00001000
,
00000200
00000000
00010300
00001000
00100000
00010000
01000000
00100000
,
20000000
00000000
31000000
00100000
01000000
10000000
01000000
00010000
,
00001000
00010000
00100000
00010000
00001000
00010000
00001000
00000100
,
00000001
00000010
00000001
00000010
00000001
00000010
00000001
00000010
00000001
00000100
00000001
00000100
00000001
00000100
00000001
00000100
,
00000001
00000100
00001000
00010000
01000000
10000000
01000000
00000000
,
10000000
00000000
01000000
00010000
00001000
00000000
00000100
00000000
00000001
00000000
00000100
00000000
00001000
00000000
00000000
00000000
,
00001000
00001000
00010000
00010000
00011000
00000000
00001000
00100000
,
00010000
00000000
00010000
01000000
00100000
00000000
00100000
10000000
01000000
10000000
01000000
10000000
01000000
10000000
01000000
10000000
,
01000000
00100000
00000000
00000000
00100000
00001000
00000000
00000000
00001000
00010000
00001000
00000000
00010000
00001000
00010000
00000000
,
00001000
00010000
00001000
00000000
00010000
00001000
00010000
00000000
00001000
00010000
00001000
00000000
00011000
00000000
00000000
00000000
,
00011000
00000100
00001000
00000010
00000100
00000001
00000010
00000100
,
00001000
00000000
00000100
00000000
00010000
00001000
00010000
00001000
00010000
00000000
00001000
00000000
00010000
00000000
00100000
00000000
,
00010000
00001000
00000100
00000001
00000100
00001000
00010000
00001000
,
00000010
00000000
00000001
00000000
00000100
00000000
00001000
00000000
00000000
00000000
00001000
00000100
00000001
00000000
00000010
00000000
,
00000001
00000100
00000010
00001000
00000100
00001000
00000010
00001000
,
00000100
00000000
00010000
00000000
00001000
00000000
00100000
00000000
00010000
00100000
00010000
00100000
00010000
00000000
01000000
00000000
,
00100000
10000000
01000000
10000000
00100000
01000000
00010000
00100000
,
00001000
00000000
00010000
00000000
00000100
00000000
00000010
00000000
00000001
00000000
00000100
00000010
00000100
00000000
00001000
00000000
,
00010000
00001000
00000000
00100000
00010000
00000000
10000000
00100000
00000000
10000000
00010000
00000000
01000000
00000000
00001000
00000000
,
00010000
00000000
00001000
00000000
00000100
00000000
00001000
00010000
00000000
00000000
00001000
00010000
00001000
00000000
00000000
00000000
;

//---------------dance-double - ----------------
#NOTES:
     dance-double:
     :
     Medium:
     7:
     0.599,0.625,0.268,0.075,0.084:
10000000
00010000
00000000
00000000
00000000
00000000
00000000
00000000
,
00010000
00001000
00000000
00000000
00000000
00000000
00000000
00000000
,
00001000
00000001
00000000
00000000
00000000
00000000
00000000
00000000
,
00001000
00010000
00000000
00000000
00010000
00000000
00001000
00000000
,
00011000
00000000
00000000
00000000
00001000
00010000
00001000
00010000
,
00100000
00010000
00100000
00010000
00100000
10000000
00100000
10000000
,
00100000
01000000
00100000
01000000
00100000
00010000
00100000
00010000
,
00100000
10000000
01000000
00100000
00010000
00100000
00100000
00000000
,
01000000
00010000
00100000
00010000
00000000
00000000
00010000
00000100
,
00001000
00000100
00010000
00000100
00000000
00000100
00001000
00000000
,
00001000
00000100
00001000
00000100
00001000
00000100
00000000
00100000
,
00010000
00100000
00010000
00100000
00000000
00001000
00000000
00000000
,
00000100
00000010
00000100
00000010
00000000
00000000
00000010
00000000
,
00000100
00001000
00000100
00001000
00000000
00000000
00010000
00000000
,
00001000
00000000
00000000
00100000
00000000
00000000
00010000
00000000
00000000
01000000
00000000
00000000
00100000
00000000
10000000
00000000
,
01000000
00000000
00100000
00000000
00001000
00000000
00100000
00010000
00000000
00000000
00000000
00000000
00000000
00000000
00000000
00000000
,
00010000
00000000
00001000
00000100
00000001
00000000
00000000
00000000
,
00000001
00000000
00000100
00001000
00010000
00000000
01000000
00000000
,
10000000
00000000
01000000
00010000
00001000
00000000
00010000
00001000
,
00000010
00000001
00000101
00000000
,
00000001
00000100
00000001
00000100
00000010
00000000
00000000
00000000
,
00000010
00001000
00000010
00001000
00000100
00000000
00000000
00000000
,
00010100
00010000
00011000
00001000
,
00101000
00000000
00100000
00010000
00100000
00001000
00100000
00010000
,
00100000
00000000
01000000
10000000
00100000
00000000
10100000
00000000
,
10010000
00000000
10000000
00010000
01000000
00000000
01010000
00000000
,
01001000
00000000
00010000
00001000
00000100
00000000
00001100
00000000
,
00000101
00000001
00000100
00001000
,
00010000
00001000
00100000
00010000
,
01000000
00100000
00000000
00000000
00100000
10000000
00000000
00000000
10000000
00010000
00000000
00000000
00010000
01000000
00000000
00000000
,
02000000
03010000
00200000
00301000
,
00020000
00030100
00001000
00000000
,
00001000
00000100
00001000
00000100
00000000
00000000
00000000
00000000
,
00010000
00100000
00010000
00100000
00000000
00000000
01000000
00000000
,
01000000
00100000
01000000
10000000
00000000
00000000
00000000
00000000
,
01000000
00100000
00010000
00100000
00000000
00100000
00001000
00100000
,
00010000
00100000
00001000
00100000
00000000
00100000
00001000
00010000
,
00000010
00001010
00000001
00000011
,
00001001
00000000
10010000
00000000
,
00022000
00000000
00000000
00000000
00033000
00001000
00010000
00001000
,
00010000
00000000
00010000
00000100
00001000
00000100
00010000
00001000
,
00020000
00000000
00000000
00000000
00030000
00010000
00001000
00100000
,
00010000
00000000
00010000
01000000
00100000
01000000
00010000
00100000
,
00002000
00000000
00003000
00010000
,
00011000
00000000
00010000
00000100
00010000
00001000
00010000
00000100
,
00010000
00001000
00010000
00000100
00010000
00001000
00100000
00001000
,
00010000
00000000
00000000
00000100
00000000
00000000
00000010
00000000
00000001
00000000
00000000
00000100
00000000
00000000
00000010
00000000
,
00001000
00000000
00001100
00000000
01010000
00000000
00010000
00100000
,
01000000
00000000
00000000
01000000
10000000
01000000
00010000
01000000
,
20000000
00000000
00000000
00000000
00000000
31000000
00010000
00001000
,
00000010
00000000
00000000
00000010
00000001
00000010
00001000
00000010
,
00000002
00000000
00000000
00000000
00000000
00000003
00000100
00000000
,
00000110
00000000
00000010
00001000
00000100
00001000
00000010
00001000
,
00000100
00001000
00000010
00001000
00000100
00001000
00000010
00001000
,
00000100
00000000
00010100
00000000
00010000
00010000
00011000
00000000
,
00101000
00000000
00100000
00101000
,
00001000
00010000
00100000
00010000
00000000
00000000
00001000
00010000
,
00001000
00000000
00000010
00000000
00001000
00000000
00010000
00000000
00000000
00000000
00001000
00010000
00001000
00000000
00000000
00000000
,
00001000
00100000
00010000
01000000
00100000
01000000
00010000
00100000
,
00010000
01000000
00100000
01000000
00000000
01000000
00010000
00000000
,
00010000
00100000
00010000
10000000
00000000
00000000
10000000
01000000
,
00100000
00001000
00010000
00001000
00000000
00010000
00001000
00010000
,
00000100
00000000
00000000
00000010
00000000
00000000
00000001
00000000
00000000
00000100
00000000
00000000
00000010
00000000
00001000
00000000
,
00000100
00000000
00010000
00000000
00001000
00000000
00100000
00010000
00000000
00000000
00000000
00000000
00000000
00000000
00000000
00000000
,
00011000
00000000
00000000
00000000
,
00100100
00000000
00000000
00000000
,
00001000
00000000
00010000
00001000
00010000
00000000
00001000
00010000
,
00001000
00100000
00110000
00100000
,
00001000
00000000
00000100
00000001
00000010
00000000
00000011
00000000
,
00001001
00000000
00000001
00000100
00001000
00000000
00011000
00000000
,
00101000
00000000
00100000
00010000
00100000
00000000
01000000
10000000
,
01000000
00000000
01000000
00100000
00001000
00000000
00000000
00000000
,
00010000
00001000
00010000
00000100
00010000
00000000
00000000
00000000
,
00001000
00010000
00001000
00100000
00001000
00000000
00000000
00000000
,
00100000
10000000
01000000
00010000
01000000
00000000
01000000
00010000
,
00001000
00000001
00001000
00011000
,
00010000
00100000
10000000
01000000
,
00100000
00010000
00000000
00000000
00010000
00001000
00000000
00000000
00001000
00000100
00000000
00000000
00000100
00000001
00000000
00000000
,
00000001
00000010
00000100
00001000
00000001
00000010
00000100
00001000
,
00000100
00000000
00000000
00010000
00010000
00000000
00000000
00000000
,
00001000
00010000
00001000
00010000
00000000
00000000
00010000
00100000
,
00010000
00100000
00010000
10000000
00000000
00000000
10000000
01000000
,
00000000
00000000
01000000
00100000
01000000
00000000
10000000
00010000
,
10000000
00000000
01000000
00100000
00010000
00000000
00010000
00000000
,
00010000
00000100
00001000
00000100
00000000
00000000
00000100
00000010
,
00000001
00000010
00000100
00000010
00000001
00000000
00000001
00000100
,
00001000
00000000
00000000
00010000
00000000
00000000
01000000
00000000
00000000
10000000
00000000
00000000
01000000
00000000
00010000
00000000
,
00001000
00000000
00010000
00000000
00001000
00000000
00010000
00001000
00000000
00000000
00010000
00000000
00001000
00000000
00000000
00000000
;

//---------------dance-double - ----------------
#NOTES:
     dance-double:
     :
     Easy:
     5:
     0.388,0.441,0.226,0.101,0.008:
10010000
00000000
00000000
00000000
,
00011000
00000000
00000000
00000000
,
00001001
00000000
00000000
00000000
,
00011000
00000000
00000000
00000000
,
20000000
00000000
32000000
00000000
,
03020000
00000000
00032000
00000000
,
00003200
00000000
00000302
00000000
,
00000103
00000000
00000000
00000000
,
00000000
00000100
00000000
00010000
00000000
00100000
00000000
10000000
,
00000000
00100000
00000000
00001000
00000000
00010000
00000000
00000100
,
00000000
00000010
00000000
00000001
00000000
00000100
00000000
00000010
,
00000000
00001000
00000000
00000100
00000000
00001000
00000000
00010000
,
00000000
00100000
00000000
10000000
00000000
01000000
00000000
00100000
,
00000000
00001000
00000000
00010000
00000000
00000100
00000000
00001000
,
00000010
00000000
00000000
00000100
00000000
00000000
00000001
00000000
,
00000010
00000000
00000000
00000100
00000000
00000000
00000000
00000000
,
00011000
00001000
00100000
00000000
,
00110000
00010000
10000000
00000000
,
11000000
10000000
00010000
00000000
,
00011000
00010000
00000100
00000000
,
00001010
00000100
00000001
00000000
,
00000011
00000001
00000100
00001000
,
00010000
01000000
00010000
00001000
,
00010000
00000000
00000000
00001000
00010000
00000000
00000000
00000000
,
00110000
00010000
10000000
00000000
,
10100000
10000000
00010000
00000000
,
00100000
00001000
00010000
00000000
,
00010000
00000100
00001000
00000000
,
00000010
00000010
00000100
00000100
,
00000001
00000001
00001000
00001000
,
00010000
00010000
00100000
00100000
,
01000000
01000000
10000000
10000000
,
01000000
00010000
00100000
00010000
,
01000000
00001000
00010000
00000100
,
00010000
00001000
00010000
00000100
,
00000010
00000001
00000100
00000001
,
00001000
00000010
00001000
00000100
,
00001000
00000010
00001000
00000100
,
00010000
00011000
00001000
00011000
,
00022000
00000000
00033000
00000000
,
00010000
00001000
00010000
00100000
,
20000000
00000000
30000000
00000000
,
10000000
01000000
00010000
00001000
,
00000200
00000000
00000300
00000000
,
00000101
00000000
00000001
00000100
,
00001000
00010000
00001000
00000100
,
00001000
00000000
00000000
00010000
00000000
00000000
00000000
00000000
00010000
00000000
00000000
00001000
00000000
00000000
00000000
00000000
,
00001000
00010000
00011000
00000000
,
00001000
00100000
00010000
01000000
,
00200000
00000000
00300000
10000000
,
11000000
00100000
01000000
00010000
,
00200000
00000000
00300000
00001000
,
00011000
00000000
00010000
00000100
,
00001000
00000010
00001000
00000100
,
00000010
00000001
00000100
00000001
,
00000010
00000100
00000100
00000000
,
00000000
00000100
00000000
00010000
00000000
00001000
00000000
00100000
,
00000000
00001000
00000000
00010000
00000000
00000100
00000000
00001000
,
00000000
00000010
00000000
00000100
00000000
00000001
00000000
00000010
,
00000000
00001000
00000000
00010000
00000000
01000000
00000000
10000000
,
00000000
00100000
00000000
10000000
00000000
01000000
00000000
00100000
,
00000000
00001000
00000000
00010000
00000000
00000100
00000000
00001000
,
00000010
00000000
00000000
00000100
00000000
00000000
00000001
00000000
,
00000010
00000000
00000000
00000100
00000000
00000000
00000000
00000000
,
00011000
00000000
00000000
00000000
,
00011000
00000000
00000000
00000000
,
00001000
00010000
00001000
00000000
,
00010000
00001000
00010000
00000000
,
00100000
01000000
00100000
00000000
,
00000100
00000010
00000100
00000000
,
00000001
00001000
00000100
00010000
,
00001000
00000000
00010000
00000000
,
00011000
00001000
00100000
00010000
,
00110000
00010000
01000000
00100000
,
01100000
00100000
10000000
01000000
,
01100000
01000000
00100000
00001000
,
00010000
00010000
00000100
00000100
,
00001000
00001000
00000010
00000010
,
00000100
00000100
00000001
00000001
,
00000010
00001000
00010000
01000000
,
10000000
00100000
00000000
01000000
00000000
00010000
00000000
00100000
,
00000000
00001000
00000000
00010000
00000000
00000100
00000000
00000001
,
00000000
00000100
00000000
00010000
00000000
00001000
00000000
00000010
,
00000000
00000001
00000000
00000100
00000000
00000010
00000000
00001000
,
00000000
00000100
00000000
00010000
00000000
00011000
00000000
00001000
,
00000000
00011000
00000000
00100000
00000000
00010000
00000000
01000000
,
00100000
00000000
00000000
10000000
00000000
00000000
01000000
00000000
,
00010000
00000000
00000000
00001000
00000000
00000000
00001000
00000000
;
