#TITLE:Camisado;
#SUBTITLE:;
#ARTIST:Panic! At The Disco;
#TITLETRANSLIT:;
#SUBTITLETRANSLIT:;
#ARTISTTRANSLIT:;
#GENRE:Alternative Rock;
#CREDIT:;
#BANNER:Camisado.png;
#BACKGROUND:Camisado-bg.png;
#LYRICSPATH:;
#CDTITLE:;
#MUSIC:Camisado.ogg;
#OFFSET:0.000000;
#SAMPLESTART:95.355003;
#SAMPLELENGTH:13.200000;
#SELECTABLE:YES;
#BPMS:0.000000=156.000000
;
#STOPS:
;
#BGCHANGES:;
#KEYSOUNDS:;
#ATTACKS:;

//---------------dance-single - ----------------
#NOTES:
     dance-single:
     :
     Hard:
     8:
     0.504418,0.615927,0.279752,0.136096,0.068048,467.000000,430.000000,37.000000,18.000000,0.000000,0.000000,0.504418,0.615927,0.279752,0.136096,0.068048,467.000000,430.000000,37.000000,18.000000,0.000000,0.000000:
0000
0000
0000
0000
,
0000
0000
0000
0000
,
0000
0000
0000
0000
,
0000
0000
0000
0000
,
0000
0000
0000
0000
,
0000
0000
0000
0000
,
0000
0000
0000
0000
,
0000
0000
0000
0000
,
0100
0010
1000
0100
0010
0001
1000
0100
,
0000
0000
0010
0000
0100
0000
1000
0000
0001
0000
0000
0100
0000
0000
0010
0000
,
0000
0100
0001
1000
0001
0010
0100
0000
,
0010
0000
0001
0000
0100
0000
0001
0000
1000
0000
0000
0001
1000
0000
1000
0000
,
0001
0000
0100
0000
1000
0100
0001
1000
,
0001
0010
1000
0010
0100
1000
0001
0000
,
1000
0001
0100
0010
0001
0010
0100
0001
,
0000
1000
0000
0100
0000
0010
0100
0100
,
1000
0010
0001
0010
0100
0100
1000
0100
,
0010
0010
1000
0100
0001
0100
0010
0001
,
0000
0010
0100
0010
0001
1000
0010
0100
,
1000
0100
0010
0100
0001
0010
0100
0001
,
0100
0000
1000
0000
0010
0001
0010
0100
,
0001
0010
1000
0010
0100
1000
0000
0001
,
0100
1000
0100
0010
1000
0100
0010
1000
,
0000
0010
0000
0100
0000
1000
0001
0000
,
0200
0000
0000
0000
,
0000
0000
0000
0000
,
0301
0000
1000
0010
0001
0000
1000
0100
,
0001
0000
1000
0100
0001
0100
1000
0010
,
0000
0001
0010
1000
0000
0001
0010
0000
,
1000
0010
0000
0100
1000
0001
0100
0010
,
1000
0000
0001
0100
1000
0000
0001
0010
,
1000
0000
0001
0010
1000
0010
0001
0100
,
0010
0110
0101
0011
,
0000
0110
1100
1010
,
0000
0110
1010
0110
,
1010
0000
1000
0001
0000
1000
0000
0100
,
0010
0110
0011
0110
,
0011
0000
0110
0000
1010
0000
1001
0100
,
0010
0000
0100
0000
0001
0010
1000
0010
,
0001
0000
0100
0001
1000
0000
0001
0100
,
0020
0000
0001
0000
0100
0000
1030
0200
,
0001
0010
1300
1100
,
0001
0000
1000
0010
0100
0010
1000
0100
,
0010
0000
0001
0000
0010
0000
0100
0000
0010
0000
0001
0000
0100
0001
0000
0100
,
0010
0100
0001
1000
0100
0010
0100
1000
,
0001
0100
0010
0100
0001
0010
0100
1000
,
0000
1000
0010
0100
0010
1000
0100
0010
,
0100
0000
0001
0000
0100
0000
0010
0000
0001
0000
0100
0000
0010
0100
0000
0010
,
1000
0010
0100
0010
1000
0001
0100
0010
,
0100
0001
1000
0100
0010
0100
1000
0001
,
2000
0000
0001
0000
,
0000
0000
3010
0000
,
0200
0000
1000
0000
,
0000
0000
0010
0000
,
0301
0010
0100
1000
0001
0100
0010
0100
,
1000
0100
0001
0100
0010
0100
0001
0010
,
0100
0000
1000
0010
0100
0010
1000
0001
,
0100
0010
0100
0001
1000
0100
0010
0000
,
0220
0000
0000
0000
,
0000
0000
0000
0330
,
0100
0000
0000
0100
1000
0000
0000
1000
0010
0000
0000
0010
0100
0000
0001
0000
,
0100
0010
0100
0000
0001
0000
1000
0001
1000
0000
0001
0000
1001
0000
0000
0000
,
1000
0000
0001
0010
1000
0000
0001
0100
,
1000
0000
0001
0100
1000
0100
0001
0010
,
0000
1000
0010
0001
0000
1000
0010
0000
,
0001
0010
0000
0100
0001
1000
0100
0010
,
0001
0000
1000
0100
0001
0000
1000
0010
,
0001
0000
1000
0010
0001
0010
1000
0100
,
0010
0110
1100
1010
,
0000
0110
0101
0011
,
0000
0110
0011
0110
,
0011
0000
0001
1000
0000
0010
0000
0100
,
0010
0110
1010
0110
,
1010
0000
0110
0000
0011
0000
1001
0100
,
0010
0000
0100
0000
1000
0010
0001
0010
,
1000
0000
0100
1000
0001
0000
1000
0100
,
0020
0000
1000
0000
0100
0000
0031
0100
,
0010
0001
0010
0100
0001
1000
0001
0100
,
0020
0000
2000
3000
,
0200
0000
0300
0000
0002
0000
0003
0200
,
0000
0300
0002
0003
,
0200
0000
0300
2000
3000
0200
0300
2000
,
3030
0000
0000
0000
0000
0000
0000
0000
0000
0000
0000
0000
0000
0001
0000
0000
0010
0000
0000
0000
0000
0000
0000
0000
0100
0000
0000
0000
0000
0000
0000
0000
,
0010
0000
0000
0000
0000
0000
0000
0000
0001
0000
0000
0000
0100
0000
0000
0000
0000
0000
0000
0000
0000
0010
0000
0000
0100
0000
0000
0000
0000
0001
0000
0000
,
1000
0000
0000
0000
0100
0000
0000
0000
0001
0000
0000
0000
0100
0000
0000
0000
1000
0000
0000
0000
0000
0010
0000
0000
0000
0000
0100
0000
0000
0000
0000
0001
,
0000
0000
0000
0000
0000
0100
0000
0000
0010
0000
0000
0000
0000
0000
0000
0000
0100
0000
0000
0000
0000
0000
0000
0000
0001
0000
0000
0000
0000
0000
0000
0000
;

//---------------dance-single - ----------------
#NOTES:
     dance-single:
     :
     Beginner:
     1:
     0.149057,0.226920,0.000000,0.128535,0.000000,138.000000,138.000000,0.000000,17.000000,0.000000,0.000000,0.149057,0.226920,0.000000,0.128535,0.000000,138.000000,138.000000,0.000000,17.000000,0.000000,0.000000:
0000
0000
0000
0000
,
0000
0000
0000
0000
,
0000
0000
0000
0000
,
0000
0000
0000
0000
,
0000
0000
0000
0000
,
0000
0000
0000
0000
,
0000
0000
0000
0000
,
0000
0000
0000
0000
,
1000
0000
0000
0000
,
1000
0000
0000
0000
,
0100
0000
0000
0000
,
0100
0000
0000
0000
,
0010
0000
0000
0000
,
0010
0000
0000
0000
,
0001
0000
0000
0000
,
0001
0000
0000
0000
,
1000
0000
0000
0000
,
1000
0000
0000
0000
,
0010
0000
0000
0000
,
0010
0000
0000
0000
,
0100
0000
0000
0000
,
0100
0000
0000
0000
,
0001
0000
0000
0000
,
0001
0000
0000
0000
,
2000
0000
0000
0000
,
0000
0000
0000
0000
,
3100
0000
0100
0000
,
1000
0000
0001
0000
,
0100
0000
0010
0000
,
0100
0000
0001
0000
,
0010
0000
0010
0000
,
0100
0000
1000
0000
,
0000
0001
0000
0100
,
0000
0010
0000
1000
,
0000
0001
1000
0001
,
1000
0000
0010
0000
,
0000
1000
0001
1000
,
0001
0000
0100
0000
,
0010
0000
1000
0000
,
0100
0000
0010
0000
,
0200
0000
0000
0000
,
2300
0000
0000
0000
,
3002
1000
0000
1000
,
1003
0001
0000
0001
,
0100
0010
0000
0010
,
0010
0100
0000
0001
,
2000
0001
0000
0001
,
3001
1000
0000
1000
,
0010
0100
0000
0100
,
0100
0010
0000
1000
,
0001
0000
0010
0000
,
0000
0000
0010
0000
,
0001
0000
0100
0000
,
0000
0000
0100
0000
,
0001
0000
1000
0000
,
0000
0000
1000
0000
,
0001
0000
0100
0000
,
0000
0000
0100
0000
,
0002
0000
0000
0000
,
0000
0000
0000
0000
,
0003
0000
0000
0000
,
0000
0000
0000
0000
,
1000
0000
1000
0000
,
0010
0000
0100
0000
,
0001
0000
1000
0000
,
0001
0000
0010
0000
,
0100
0000
0010
0000
,
0001
0000
0100
0000
,
0000
0010
0000
1000
,
0000
0001
0000
0010
,
0000
0100
1000
0100
,
1000
0000
0001
0000
,
0000
0100
0001
0100
,
0001
0000
1000
0000
,
0010
0000
0100
0000
,
0001
0000
0010
0000
,
0200
0000
0010
0000
,
0320
0000
0001
0000
,
0032
0000
0203
0000
,
0320
0000
2030
0000
,
3002
0003
0200
0000
,
0320
0000
0230
0000
,
0302
0000
1003
0000
,
0100
0000
0010
0000
,
0001
0000
0100
0000
,
0010
1000
1000
1000
;

//---------------dance-single - ----------------
#NOTES:
     dance-single:
     :
     Easy:
     4:
     0.268951,0.291755,0.000000,0.151217,0.000000,249.000000,249.000000,0.000000,20.000000,0.000000,0.000000,0.268951,0.291755,0.000000,0.151217,0.000000,249.000000,249.000000,0.000000,20.000000,0.000000,0.000000:
0000
0000
0000
0000
,
0000
0000
0000
0000
,
0000
0000
0000
0000
,
0000
0000
0000
0000
,
0000
0000
0000
0000
,
0000
0000
0000
0000
,
0000
0000
0000
0000
,
0000
0000
0000
0000
,
0001
0100
0010
0010
,
0010
0100
0001
0010
,
0100
0010
0001
0001
,
0001
0100
0010
1000
,
0010
0100
0010
0100
,
0010
1000
0010
0100
,
0010
1000
0100
0010
,
0001
0100
0010
0100
,
0001
1000
1000
1000
,
0100
0100
0010
0001
,
0100
0010
0010
0100
,
0100
0001
0010
0100
,
1000
0010
0100
0010
,
1000
0100
0010
0100
,
1000
0001
0100
0001
,
1000
0010
0100
0010
,
2000
0000
0000
0000
,
0000
0000
0000
0000
,
3001
0100
1000
0100
,
0010
1000
0100
0010
,
0100
1000
0000
1000
,
0001
0000
0001
1000
,
0001
0100
1000
0100
,
0010
1000
0100
0010
,
0001
0100
0010
1000
,
0000
0001
0100
0010
,
0100
0001
0010
1000
,
0010
0001
0001
1000
,
1000
0001
0100
1000
,
0100
0001
0001
0010
,
0100
0010
0001
0100
,
0020
0000
0000
2030
0000
0000
0000
3002
,
0000
0000
0000
0000
0000
0000
0000
0200
,
0000
0000
0000
0303
,
0020
1000
0100
1000
,
0130
0010
1000
0100
,
0010
0100
1000
0001
,
0100
0010
0100
0001
,
0020
0100
0001
0100
,
0031
0010
0100
1000
,
0010
0100
0010
1000
,
0100
0010
0001
0100
,
0010
0000
0100
0000
,
0000
0000
0100
0000
,
0001
0000
1000
0000
,
0000
0000
1000
0000
,
0100
0000
0010
0000
,
0001
0000
0100
0000
,
0010
0000
1000
0000
,
0001
0000
0100
0000
,
0020
0000
0000
0000
,
0000
0000
0000
0030
,
0100
0100
0001
0001
,
0010
0010
0100
1000
,
0001
0100
1000
0100
,
0010
1000
0100
0010
,
0100
1000
0000
1000
,
0001
0000
0001
1000
,
0001
0100
1000
0100
,
0010
1000
0100
0010
,
0001
0100
0010
1000
,
0000
0001
0100
0010
,
0100
0001
0010
1000
,
0010
0001
0001
1000
,
1000
0001
0100
1000
,
0100
0001
0001
0010
,
0100
0010
0001
0100
,
0020
0000
0000
2030
0000
0000
0000
3002
,
0000
0000
0000
0000
,
0200
0000
0000
0003
,
0020
0300
0200
0300
,
2000
3000
0200
0300
,
0002
0003
0200
0300
,
2000
3000
0200
0300
,
1030
0000
0100
0010
,
0001
0100
0010
0100
,
0001
0010
0100
1000
,
0001
0100
0010
1000
;

//---------------dance-single - ----------------
#NOTES:
     dance-single:
     :
     Medium:
     6:
     0.342399,0.453841,0.030243,0.151217,0.041585,317.000000,313.000000,4.000000,20.000000,0.000000,0.000000,0.342399,0.453841,0.030243,0.151217,0.041585,317.000000,313.000000,4.000000,20.000000,0.000000,0.000000:
// measure 0
0000
0000
0000
0000
,  // measure 1
0000
0000
0000
0000
,  // measure 2
0000
0000
0000
0000
,  // measure 3
0000
0000
0000
0000
,  // measure 4
0000
0000
0000
0000
,  // measure 5
0000
0000
0000
0000
,  // measure 6
0000
0000
0000
0000
,  // measure 7
0000
0000
0000
0000
,  // measure 8
1000
0000
0000
0000
0001
0000
0000
0000
0100
0000
0000
0000
0010
0000
0000
0100
,  // measure 9
0010
0000
0100
0000
0001
0000
0010
0001
,  // measure 10
0010
0000
0000
0000
0001
0000
0000
0000
0010
0000
0000
0000
0100
0000
0000
0010
,  // measure 11
0100
0010
0100
1000
0100
0000
1000
0001
,  // measure 12
1000
0000
0000
0000
0010
0000
0000
0000
0100
0000
0000
0000
0001
0000
0000
0100
,  // measure 13
0001
0000
0100
0000
0010
0000
0100
0010
,  // measure 14
0100
0000
0010
0000
1000
0000
0100
1000
,  // measure 15
0000
0100
0000
0010
0000
0001
0010
0000
,  // measure 16
0001
0000
0000
0000
0100
0000
0000
0000
0010
0000
0000
0000
0100
0000
0000
0010
,  // measure 17
0100
0000
0010
0000
1000
0000
0100
0010
,  // measure 18
0100
0000
0000
0000
1000
0000
0000
0000
0001
0000
0000
0000
0100
0000
0000
0010
,  // measure 19
0100
0010
0100
0001
0100
0010
0100
0010
,  // measure 20
1000
0000
0000
0000
0100
0000
0000
0000
0010
0000
0000
0000
0001
0000
0000
0010
,  // measure 21
0001
0000
0100
0000
0010
0000
1000
0010
,  // measure 22
1000
0000
0001
0000
0100
0000
0010
0100
,  // measure 23
0000
0001
0000
0010
0000
0100
1000
0000
,  // measure 24
0020
0000
0000
0000
,  // measure 25
0000
0000
0000
0000
,  // measure 26
1030
0000
0010
0100
0010
0000
0010
1000
,  // measure 27
0100
0000
0010
0100
0010
0000
0100
1000
,  // measure 28
0000
0001
0100
0010
0000
0100
0001
0000
,  // measure 29
0100
0010
0000
0100
0001
1000
0001
0000
,  // measure 30
1000
0000
0100
0010
0100
0000
0100
1000
,  // measure 31
0010
0000
0100
0010
0100
0000
0010
1000
,  // measure 32
0001
1000
0100
0001
,  // measure 33
0000
0001
0100
1000
,  // measure 34
0001
0100
1000
0100
,  // measure 35
0001
0000
0100
0010
0000
1000
0000
0100
,  // measure 36
0000
1000
0100
0001
,  // measure 37
0100
0000
1000
0000
1000
0000
1000
0010
,  // measure 38
1000
0000
0001
0000
0100
0010
0100
0000
,  // measure 39
0001
0000
0010
0100
0000
0010
0001
0020
,  // measure 40
0000
0000
0000
0000
0000
0000
0000
0200
,  // measure 41
0000
0000
0000
0000
0000
0000
0000
0330
,  // measure 42
2000
0000
0010
0000
0000
0100
0100
0000
,  // measure 43
3001
1000
0010
0100
,  // measure 44
0010
1000
0010
0100
,  // measure 45
0001
0010
0100
1000
,  // measure 46
0002
0000
0100
0000
0000
0010
0010
0000
,  // measure 47
1003
0001
0100
0010
,  // measure 48
0100
0001
0010
0100
,  // measure 49
1000
0010
0100
0001
,  // measure 50
0200
0000
0010
0000
,  // measure 51
0000
0000
0310
0000
,  // measure 52
2000
0000
0001
0000
,  // measure 53
0000
0000
3001
0000
,  // measure 54
0010
0000
0110
0000
,  // measure 55
0000
1000
1001
0000
,  // measure 56
0100
0000
0110
0000
,  // measure 57
0000
1000
1001
0000
,  // measure 58
0200
0000
0000
0000
,  // measure 59
0000
0000
0000
0000
,  // measure 60
0310
0100
0010
0100
,  // measure 61
1000
0100
1000
0010
1000
0010
0100
0000
,  // measure 62
0001
0000
0100
0010
0100
0000
0100
0001
,  // measure 63
0010
0000
0100
0010
0100
0000
0010
0001
,  // measure 64
0000
1000
0010
0100
0000
0010
1000
0000
,  // measure 65
0010
0100
0000
0010
1000
0001
1000
0000
,  // measure 66
0001
0000
0010
0100
0010
0000
0010
0001
,  // measure 67
0100
0000
0010
0100
0010
0000
0100
0001
,  // measure 68
1000
0001
0010
1000
,  // measure 69
0000
1000
0010
0001
,  // measure 70
1000
0010
0001
0010
,  // measure 71
1000
0000
0010
0100
0000
0001
0000
0010
,  // measure 72
0000
0001
0010
1000
,  // measure 73
0010
0000
0001
0000
0001
0000
0001
0100
,  // measure 74
0001
0000
1000
0000
0010
0100
0010
0000
,  // measure 75
1000
0000
0100
0010
0000
0100
1000
0200
,  // measure 76
0000
0000
0000
0000
,  // measure 77
0020
0000
0000
0300
,  // measure 78
0002
0030
0200
0300
,  // measure 79
0020
0000
0030
0000
2000
0000
3000
0200
,  // measure 80
0000
0300
2000
3000
,  // measure 81
0020
0000
0000
0030
0000
0000
0200
0000
0300
0000
2000
0000
3000
0000
0020
0000
,  // measure 82
0033
0000
0001
0010
,  // measure 83
0100
0000
0000
0000
0000
0000
0000
0000
0010
0000
0000
0000
0001
0000
0000
0000
0000
0000
0000
0000
0000
0100
0000
0000
0010
0000
0000
0000
0000
0100
0000
0000
,  // measure 84
0001
0000
0000
0000
0010
0000
0000
0000
0100
0000
0000
0000
0010
0000
0000
0000
0001
0000
0000
0000
0000
0100
0000
0000
0000
0000
0010
0000
0000
0000
0000
1000
,  // measure 85
0000
0001
0100
0010
;
