#TITLE:All your base are belong to ME;
#SUBTITLE:;
#ARTIST:Reizoko Cj;
#TITLETRANSLIT:;
#SUBTITLETRANSLIT:;
#ARTISTTRANSLIT:;
#GENRE:;
#CREDIT:usaminseijin;
#BANNER:[ROUND L] - All your base are belong to ME.png;
#BACKGROUND:[ROUND L] - All your base are belong to ME-bg.png;
#LYRICSPATH:;
#CDTITLE:cdtitle.png;
#MUSIC:[ROUND L] - All your base are belong to ME.ogg;
#OFFSET:-0.165000;
#SAMPLESTART:53.272408;
#SAMPLELENGTH:16.340427;
#SELECTABLE:YES;
#DISPLAYBPM:60.000000:235.000000;
#BPMS:0.000000=235.000000
,107.000000=117.500000
,110.000000=235.000000
,176.000000=470.000000
,177.000000=235.000000
,223.000000=470.000000
,225.000000=235.000000
,231.000000=470.000000
,233.000000=235.000000
,237.000000=470.000000
,239.000000=235.000000
,278.000000=470.000000
,282.000000=235.000000
,283.000000=470.000000
,284.000000=235.000000
,286.000000=470.000000
,287.000000=235.000000
,308.000000=470.000000
,310.000000=235.000000
,376.000000=230.000000
,376.500000=220.000000
,377.000000=210.000000
,377.500000=200.000000
,380.000000=190.000000
,380.500000=180.000000
,381.000000=170.000000
,381.500000=160.000000
,384.000000=150.000000
,384.500000=140.000000
,385.000000=130.000000
,385.500000=120.000000
,387.000000=110.000000
,387.500000=100.000000
,388.000000=90.000000
,388.500000=70.000000
,389.000000=65.000000
,389.500000=60.000000
;
#STOPS:24.000000=1.787000,
33.000000=0.766000,
36.000000=0.766000,
107.000000=1.021000,
110.000000=2.809000,
176.000000=0.128000,
223.000000=0.128000,
224.000000=0.128000,
231.000000=0.064000,
231.500000=0.064000,
232.000000=0.064000,
232.500000=0.064000,
237.000000=0.128000,
238.000000=0.128000,
239.000000=0.255000,
278.000000=0.128000,
279.000000=0.128000,
280.000000=0.128000,
281.000000=0.128000,
283.000000=0.128000,
286.000000=0.128000,
304.000000=0.511000,
306.000000=3.064000,
308.000000=0.128000,
309.000000=0.128000
;
#BGCHANGES:;
#KEYSOUNDS:;
#ATTACKS:;

//---------------dance-single - ----------------
#NOTES:
     dance-single:
     :
     Hard:
     10:
     0.813029,0.978176,0.173898,0.339891,0.351748,720.000000,698.000000,22.000000,43.000000,0.000000,0.000000,0.813029,0.978176,0.173898,0.339891,0.351748,720.000000,698.000000,22.000000,43.000000,0.000000,0.000000:
0000
0000
0000
0000
,
0000
0000
0000
0000
,
0000
0000
0000
0000
,
0000
0000
0000
0000
,
0000
0000
0000
0000
,
0000
0000
0000
0000
,
2002
3003
0000
0000
1001
0000
0000
0000
0100
0000
0010
0000
0100
0000
0010
0000
,
0100
0000
0010
0000
1000
0010
1000
0000
0010
0100
0010
0000
0001
0100
0001
0000
,
1000
0001
1000
0000
0220
0330
0000
0000
2000
0000
3200
0000
0320
0000
0032
0000
,
2003
3000
0000
0000
0010
0000
0100
0000
0010
0000
0100
0000
0002
0000
0000
0000
,
0023
0000
0000
0000
0230
0000
0000
0000
2300
0000
0000
0000
3001
0000
0010
0001
,
0010
0000
0001
1000
0001
0000
1000
0100
1000
0000
0001
0000
1000
0000
0010
0000
,
0100
0000
0001
0000
0100
0010
0100
0010
1000
0000
0001
0000
1000
0000
0010
0100
,
0001
1000
0001
1000
0010
0000
1000
0010
0100
0000
0010
0000
1000
0000
0001
1000
,
0001
0000
0100
0001
0200
0000
0310
0100
0010
0000
0100
0000
0001
0000
0001
0000
,
0001
0000
0001
0000
0020
0000
0000
0000
0031
0000
0001
0000
1000
0100
1000
0000
,
0001
0000
1000
0010
1000
0000
0100
0000
0100
0000
0010
0000
0001
0000
1000
0000
,
0001
1000
0200
0000
2300
0000
3002
0000
,
1003
0200
0000
1300
0010
0010
0100
0100
,
0100
0000
0100
0000
0001
1000
0000
0000
0001
1000
0000
0000
0010
0000
1000
0001
,
0000
0000
0100
0000
0010
0100
0000
0000
0001
0000
0001
0000
1000
0000
0001
0100
,
0001
0000
1000
0100
0010
0000
0100
0010
0100
0000
0010
0100
0001
0000
1000
0100
,
1000
0000
0001
0000
1000
0000
0010
1000
0010
0000
0010
0000
1000
0000
1000
0000
,
1000
0000
1000
0000
0010
0100
0010
0000
0100
0001
0100
0000
1000
0000
0002
0000
,
0003
0000
0100
0000
0002
0000
0003
0000
1000
0000
1000
0000
0010
0000
1000
0100
,
1000
0000
0001
0100
0002
0000
2003
0000
3020
0000
0230
0000
0301
0000
1000
0100
,
1000
0000
0000
0000
0000
0000
0001
0000
0000
0010
0000
0000
0001
0000
0000
0000
0000
0000
1000
0000
0000
0000
0000
0000
0010
0000
0000
0000
0000
0000
0010
0000
0000
0000
0000
0000
2002
0000
3003
0000
0000
0000
0000
0000
0000
0100
0000
0000
,
0000
0000
0010
0000
1000
0001
0000
0000
0000
0000
0100
0000
0100
0000
0100
0000
,
0100
1001
1000
1000
,
1000
0001
0001
0001
,
1000
0001
0110
0000
0010
0000
0010
0000
,
0010
0100
0100
0100
,
0100
1001
1000
1000
,
1000
0001
0001
0001
,
1000
0000
0001
0000
1000
0000
0000
0000
0010
0000
0100
0000
0010
1000
0001
0000
,
1000
0001
1000
0000
0010
0000
1000
0000
0010
0000
1000
0000
0001
0000
0100
0000
,
0001
0100
1001
0000
0000
0100
0000
0100
,
0000
0100
1001
0000
0000
0010
0000
0010
,
0000
0010
1001
0100
0000
0100
1001
0010
,
0000
0010
1001
0100
0000
0100
1001
0010
,
0000
0010
1001
0000
1001
0000
1001
0000
,
1000
0001
0110
0000
0110
0000
0110
0000
,
0100
0000
0010
0000
1000
0000
0000
1000
0000
0000
1000
0000
0000
0001
0000
0000
,
0001
0000
0000
0001
0000
0000
1000
0000
0001
0000
1000
0000
0001
0000
1000
0000
0001
0000
1000
0000
0000
0010
0000
0000
,
0200
0300
0000
0000
1001
0000
0000
0000
1000
0000
0100
0000
0010
0000
0100
0000
,
1000
0100
0010
0000
0001
1000
0100
0000
,
0010
0001
1000
0000
0001
0100
0010
0100
,
0001
0100
0010
0000
1000
0001
0010
0000
,
0001
1000
0100
0000
0010
0001
1000
0100
,
1000
0010
0100
0000
0001
1000
0001
0000
,
0100
0010
0100
0000
0001
1000
0010
0100
,
0001
0000
1000
0000
0001
0000
0010
0001
0010
0000
0100
0010
0100
0000
0001
1000
,
0001
1000
0001
1000
0001
0000
0000
0000
0100
0000
0001
0000
1000
0000
0100
0000
,
0010
0000
0001
0000
1000
0000
0000
0000
0010
0000
1000
0000
0100
0000
1000
0001
,
1000
0000
0100
0000
0010
0000
0000
0000
0001
0000
1000
0000
0100
0010
0100
0010
,
0100
0010
0100
0010
0001
0000
0000
0000
1000
0000
0010
0000
0100
0000
0000
0000
,
0110
0000
0000
0000
1000
0000
0000
0000
0001
0000
0100
0000
0010
0000
1000
0001
,
0100
0100
1000
0000
0010
0100
0001
0001
,
0001
0001
1000
0000
0001
0100
0010
1000
,
0001
0000
0000
0000
2000
0000
0000
0000
3002
0000
0000
0000
0203
0300
0000
0000
,
1000
0000
0010
0100
0010
1000
0010
0100
,
0010
0000
0000
0000
1000
0000
0001
0010
0001
0000
0000
0000
1000
0000
0000
0000
,
0001
1000
0100
1000
0010
0100
0001
1000
,
0001
0000
0001
0000
1000
0010
1000
0000
0100
0000
0010
0000
0001
0000
0100
0001
,
1000
0000
1000
0010
0100
0001
1000
1000
,
0001
0000
0100
0000
0010
1000
0010
0000
0100
0000
0100
0000
0100
0000
0000
0000
,
0001
0010
0001
0000
1000
0001
1000
0000
0100
0000
0010
0000
0001
0000
0010
0000
,
1000
0000
0001
0000
0100
0000
0100
0000
0010
0000
1000
0000
0001
0000
1000
0001
,
0100
0000
0100
0000
0001
0000
1000
0001
1000
0000
1000
0000
0010
0000
0100
0010
,
0100
0000
0001
0000
1000
0000
0001
0000
0200
0300
0000
0000
0020
0030
0000
0000
,
2000
3000
0000
0000
0002
0003
0000
0000
0100
0000
0010
0000
0100
0000
0000
0000
,
0001
0000
1000
0000
0001
0000
1000
0000
0010
0000
0000
0000
0100
0010
0100
0000
,
0001
0000
1000
0010
0100
0001
0100
0100
,
0001
0000
0001
0000
1000
0000
0010
0000
0100
0010
0100
0010
1000
0000
0001
0000
,
1000
0000
0010
0000
0100
0010
1000
0000
0001
0000
0100
0000
0001
0000
1000
0000
,
0010
0000
0010
0000
1000
0001
1000
0000
0010
0000
0100
0000
0001
0000
0100
0000
,
2002
3003
0000
0000
0001
1000
0001
1000
0020
0030
0000
0000
1000
0001
1000
0001
,
0200
0300
0000
0000
0020
0030
0000
0000
1000
0000
1000
0000
0001
0100
0001
0000
,
1000
0001
1000
0000
0010
1000
0010
0000
0100
0000
0010
0100
0010
0000
1000
0001
,
2000
0000
3002
0000
1003
0100
1000
0000
,
0001
1000
0001
0001
0100
0100
0100
0100
,
0010
0100
0010
0100
0010
0100
0010
0100
0001
0000
0001
0000
0100
0000
0100
0000
,
0010
1000
0010
0000
1000
0001
1000
0000
0010
0000
0100
0000
0001
0000
1000
0000
,
0010
0000
0100
0000
0001
0010
0001
0000
1000
0000
0000
0000
0001
0000
0100
0000
,
0010
1000
0010
1000
0010
1000
0010
1000
0001
0000
0000
0000
1000
0000
0001
0000
,
1000
0000
0010
0100
0001
0010
0100
1000
,
0001
0010
0100
1000
0001
0100
0010
1000
,
0001
0100
0010
1000
0001
1000
0001
1000
,
0010
0100
0010
0100
0010
0000
1000
0000
,
0001
0000
1000
0010
1000
0100
0010
0001
,
1000
0100
0010
0001
1000
0010
0100
0001
,
1000
0010
0100
0001
1000
0001
0100
0010
,
1000
0001
0100
0010
1000
0000
0001
0000
,
0100
0000
0010
0100
0001
0010
0100
1000
,
0001
0010
0100
1000
0001
0100
0010
1000
,
0001
0100
0010
1000
0100
0010
0001
1000
,
0100
0010
0001
1000
0010
1000
0001
1000
,
0010
0100
0001
1000
0002
0000
0000
0000
,
0000
0000
0000
0000
,
0003
0000
0000
0000
;

//---------------dance-single - ----------------
#NOTES:
     dance-single:
     :
     Medium:
     9:
     0.701238,0.704287,0.110662,0.347796,0.039522,621.000000,607.000000,14.000000,44.000000,0.000000,0.000000,0.701238,0.704287,0.110662,0.347796,0.039522,621.000000,607.000000,14.000000,44.000000,0.000000,0.000000:
0000
0000
0000
0000
,
0000
0000
0000
0000
,
0000
0000
0000
0000
,
0000
0000
0000
0000
,
0000
0000
0000
0000
,
0000
0000
0000
0000
,
2002
3003
0000
0000
1001
0000
0000
0000
0100
0000
0010
0000
0100
0000
0010
0000
,
0100
0010
1000
0010
0100
0010
0001
0100
,
0001
0000
1000
0000
0220
0330
0000
0000
1000
0000
0100
0000
0010
0000
0001
0000
,
2000
3000
0000
0000
0010
0000
0100
0000
0010
0000
0100
0000
0002
0000
0000
0000
,
0023
0000
0230
0000
2300
0000
3001
0010
,
0001
1000
0001
1000
0100
1000
0001
0010
,
0100
1000
0100
0010
0001
1000
0001
0010
,
0100
1000
0010
1000
0100
0010
0001
1000
,
0100
0010
0100
0010
0100
0010
0001
0001
,
0001
0001
0020
0000
0031
0001
1000
1000
,
0010
1000
1000
0100
0100
0010
0001
1000
,
0001
1000
0200
0000
2300
0000
3002
0000
,
1003
0200
0000
1300
0010
0010
0100
0100
,
0100
0000
0100
0000
0001
1000
0000
0000
0001
1000
0000
0000
0010
0000
1000
0000
,
0000
0010
0100
0000
0001
0001
1000
0001
,
1000
0100
1000
0100
0010
0001
0010
0100
,
1000
0001
0100
0010
0100
0010
1000
1000
,
1000
1000
0010
0100
0001
1000
1000
0002
,
0003
0100
0002
0003
1000
1000
0010
1000
,
0001
1000
0001
1000
0010
0100
0001
1000
,
0100
0000
0000
0000
0000
0000
0010
0000
0000
0000
0000
0000
0001
0000
0000
0000
0000
0000
1000
0000
0000
0000
0000
0000
0010
0000
0000
0000
0000
0000
0010
0000
0000
0000
0000
0000
2002
0000
3003
0000
0000
0000
0000
0000
0000
0100
0000
0000
,
0000
0000
0010
0000
1000
0001
0000
0000
0000
0000
0100
0000
0100
0000
0100
0000
,
0100
1001
1000
1000
,
1000
0001
0001
0001
,
1000
0001
0010
0000
0010
0000
0010
0000
,
0010
0100
0100
0100
,
0100
1001
1000
1000
,
1000
0001
0001
0001
,
1000
0001
1000
0000
0010
0100
0010
1000
,
0001
1000
0010
1000
0010
1000
0001
0100
,
0001
0100
1001
0000
0000
0100
0000
0100
,
0000
0100
1001
0000
0000
0010
0000
0010
,
0000
0010
0001
0100
0000
0100
1000
0010
,
0000
0010
0001
0100
0000
0100
1000
0010
,
0000
0010
0001
0000
1001
0000
1001
0000
,
1000
0001
0100
0000
0110
0000
0110
0000
,
0100
0000
0010
0000
1000
0000
0000
1000
0000
0000
1000
0000
0000
0001
0000
0000
,
0001
0000
0000
0001
0000
0000
1000
0000
0001
0000
1000
0000
0001
0000
1000
0000
0001
0000
1000
0000
0000
0010
0000
0000
,
0200
0300
0000
0000
1001
0000
0000
0000
1000
0000
0100
0000
0010
0000
0100
0000
,
1000
0100
0010
0000
0001
1000
0100
0000
,
0010
0001
1000
0000
0001
0100
0010
0100
,
0001
0100
0010
0000
1000
0001
0010
0000
,
0001
1000
0100
0000
0010
0001
1000
0100
,
1000
0010
0100
0000
0001
1000
0001
0000
,
0100
0010
0100
0000
0001
1000
0010
0100
,
0001
1000
0001
0010
0001
0100
0010
1000
,
0001
1000
0001
0000
0100
0001
1000
0100
,
0010
0001
1000
0000
0010
1000
0100
1000
,
0001
0100
0010
0000
1000
0001
0100
0010
,
0100
0010
1000
0000
0001
0010
0100
0000
,
0100
0000
1000
0000
0001
0100
0010
1000
,
0001
0100
0001
0000
0100
0010
1000
1000
,
1000
1000
0001
0000
0001
0100
0010
1000
,
0001
0000
0000
0000
2000
0000
0000
0000
3002
0000
0000
0000
0203
0300
0000
0000
,
0001
0000
0010
0100
0010
0001
0010
0100
,
0010
0000
0001
1000
0001
0000
1000
0000
,
0001
1000
0100
1000
0010
0100
0001
1000
,
0001
0001
1000
0010
0100
0010
0001
0100
,
0001
0000
1000
0010
0100
0001
1000
1000
,
0001
0100
0010
1000
0100
0100
0100
0000
,
0001
0010
0001
1000
0100
0010
0001
0010
,
0001
1000
0100
0010
0010
0001
1000
0001
,
1000
0100
1000
0001
1000
0001
0010
0100
,
0010
0000
0001
0000
1000
0000
0001
0000
0200
0300
0000
0000
0020
0030
0000
0000
,
2000
3000
0000
0000
0002
0003
0000
0000
0100
0000
0010
0000
0100
0000
0000
0000
,
0001
1000
0001
1000
0010
0000
0100
0010
,
1000
0000
1000
0010
0100
0001
0100
0100
,
0001
0001
1000
0010
0100
0010
1000
0001
,
1000
0010
0100
0010
1000
0100
1000
0001
,
0010
0010
0001
1000
0010
0100
0001
0100
,
2002
3003
0000
0000
0001
0000
1000
0000
0020
0030
0000
0000
1000
0000
0001
0000
,
0200
0300
0000
0000
0020
0030
0000
0000
1000
0000
1000
0000
0001
0000
0100
0000
,
0001
1000
0010
0100
0010
0100
0010
1000
,
0002
0000
2003
0000
3001
0100
0001
0000
,
1000
0001
1000
0010
0100
0100
0100
0100
,
0010
0100
0010
0100
0001
0001
0100
0100
,
0010
1000
0001
1000
0010
0100
0001
1000
,
0010
0100
0001
0010
0001
0000
1000
0001
,
1000
0010
1000
0010
1000
0000
0001
1000
,
0001
0000
0010
0100
2000
0000
3001
0100
,
0002
0000
1003
0001
0020
0000
0031
1000
,
0200
0000
0310
0001
2000
0000
0000
3100
,
0010
0100
0010
0100
0010
0000
0001
0000
,
1000
0000
0001
0010
0002
0000
0103
0001
,
0020
0000
0031
1000
0002
0000
1003
0010
,
2000
0000
3001
0100
0002
0000
0000
0013
,
0001
1000
0100
0010
0001
0000
1000
0000
,
0100
0000
0010
0100
0001
0010
0100
1000
,
0001
0010
0100
1000
0001
0100
0010
1000
,
0001
0100
0010
1000
0100
0010
0001
1000
,
0100
0010
0001
1000
0010
1000
0001
1000
,
0010
0100
0001
1000
0002
0000
0000
0000
,
0000
0000
0000
0000
,
0003
0000
0000
0000
;

//---------------dance-single - ----------------
#NOTES:
     dance-single:
     :
     Easy:
     8:
     0.510402,0.547778,0.094853,0.418936,0.015809,452.000000,440.000000,12.000000,53.000000,0.000000,0.000000,0.510402,0.547778,0.094853,0.418936,0.015809,452.000000,440.000000,12.000000,53.000000,0.000000,0.000000:
0000
0000
0000
0000
,
0000
0000
0000
0000
,
0000
0000
0000
0000
,
0000
0000
0000
0000
,
0000
0000
0000
0000
,
0000
0000
0000
0000
,
2002
3003
0000
0000
1001
0000
0000
0000
0100
0000
0000
0000
0100
0000
0000
0000
,
0100
0000
1000
0001
1000
0001
0100
0010
,
0100
0000
0010
0000
0200
0300
0000
0000
0001
0000
0000
0000
1000
0000
0000
0000
,
0002
0003
0000
0000
0010
0000
0000
0000
0100
0000
0000
0000
1000
0000
0000
0000
,
0010
0000
0100
0000
0001
0000
1000
0010
,
1000
0000
0001
0100
0001
0000
1000
0000
,
0010
0000
0100
0000
0001
0000
1000
0010
,
0100
0000
0010
0000
1000
0000
0001
1000
,
0001
0100
0100
0001
,
0001
0000
0010
0000
0001
0100
0001
0000
,
1000
0000
0010
0000
0100
0010
0100
0010
,
0100
0010
1000
0000
0001
0000
1000
0000
,
0001
1000
0000
0010
0100
0000
0010
0100
,
0010
0100
0001
0000
0001
0000
0010
0001
,
0000
0100
0010
0000
1000
0001
1000
0000
,
1001
0000
1000
0100
1000
0100
1000
0000
,
0001
0000
0100
0010
0100
0000
0001
1000
,
0001
1000
0001
0000
1001
0000
0010
0001
,
1000
0100
0000
0000
1000
0001
1000
0000
,
0001
0000
0100
0000
0010
0100
0010
0000
,
1000
0000
0000
0000
0000
0000
0001
0000
0000
0000
0000
0000
1000
0000
0000
0000
0000
0000
0000
0000
0000
0000
0000
0000
0010
0000
0000
0000
0000
0000
0000
0000
0000
0000
0000
0000
2002
0000
3003
0000
0000
0000
0000
0000
0000
0100
0000
0000
,
0000
0000
0010
0000
1000
0001
0000
0000
0000
0000
0100
0000
0010
0000
0100
0000
,
0010
1001
1000
1000
,
1000
0001
0001
0001
,
0001
0010
0010
0010
,
0010
0100
0100
0100
,
0100
1001
1000
1000
,
1000
0001
0001
0001
,
0001
0000
1000
0000
0010
0100
0010
0000
,
0001
1000
0001
0000
0001
0000
1000
0000
,
1000
0000
1001
0000
0000
0100
0000
0100
,
0000
0000
1001
0000
0000
0010
0000
0010
,
0000
0000
0001
0100
0000
0000
1000
0010
,
0000
0000
0001
0100
0000
0000
1000
0010
,
0000
0001
1000
0001
,
1000
0010
0100
0010
,
0100
0000
0000
0000
0001
0000
0000
0001
0000
0000
0001
0000
0000
1000
0000
0000
,
1000
1000
2002
0000
0000
0000
3003
0000
,
0200
0300
0000
0000
1001
0000
0000
0000
1000
0000
0100
0000
1000
0000
0000
0000
,
0001
0100
0001
0000
1000
0001
1000
0000
,
0001
0000
1000
0000
0010
0100
0010
0000
,
1000
0010
1000
0000
0001
1000
0001
0000
,
0100
0000
0010
0000
0001
0010
0001
0000
,
1000
0010
1000
0000
0001
1000
0001
0000
,
0100
0000
0001
0000
1000
0001
1000
0000
,
0001
1000
0002
0000
0023
0000
0230
0000
,
2300
0000
3001
0000
0100
0001
0100
0000
,
0010
0100
0010
0000
1000
0001
2000
0000
,
3020
0000
1030
0000
1000
0001
1000
0001
,
1000
0000
0010
0100
0010
0100
0010
0000
,
0100
0000
0001
0000
1000
0100
1000
0000
,
0001
0100
0001
0000
0100
0000
0001
1000
,
0001
1000
0010
0000
0200
0000
0300
0000
,
0001
0000
0000
0000
2000
0000
0000
0000
3002
0000
0000
0000
0203
0300
0000
0000
,
0001
0000
0100
0010
0100
0000
0001
1000
,
0001
0000
0100
0001
0200
0000
0302
0000
,
1003
0000
0100
1000
0100
0000
1000
0001
,
2000
0000
0002
0000
,
3003
0000
1000
0010
1000
0000
0001
0100
,
0001
0000
0010
0100
0010
0000
0010
0000
,
0001
0010
0001
0000
1000
0010
1000
0000
,
0001
1000
0001
0000
0100
0000
0001
0000
,
1000
0001
0000
0000
0100
0010
0000
0000
,
1000
0000
0001
0000
1000
0000
0000
0000
0020
0030
0000
0000
0200
0300
0000
0000
,
0002
0003
0000
0000
2000
3000
0000
0000
0100
0000
0010
0000
0100
0000
0000
0000
,
1000
0001
1000
0000
0010
0000
0100
0000
,
0001
0000
0001
0010
0001
0000
1000
0100
,
1000
0100
1000
0000
0010
0100
0010
0000
,
1000
0010
1000
0000
0001
0100
0001
0000
,
0010
0100
0010
0000
0001
0010
0001
0000
,
2002
3003
0000
0000
0001
0000
0000
0000
2000
3000
0000
0000
0001
0000
0000
0000
,
0200
0300
0000
0000
0020
0030
0000
0000
1000
0000
0000
0000
0001
0000
0100
0000
,
0001
0000
0100
0010
0100
0000
0001
0000
,
2000
3002
0103
0100
,
0010
0000
0010
0000
0010
0100
0010
0100
,
0010
1000
0001
0100
,
0010
0000
1000
0000
0010
0100
0010
0000
,
1000
0100
1000
0000
0001
0000
1000
0001
,
1000
0000
0010
0100
0010
0000
1000
0100
,
1000
0000
0001
0010
0002
0000
0000
0000
,
2003
0000
3020
0000
,
0230
0000
0302
0000
,
0023
0230
2300
0000
,
3002
0000
2003
0000
,
3020
0000
0230
0000
,
0302
0000
2003
0000
,
3020
0230
0302
0000
,
2003
0000
0000
0000
3001
0100
0001
0000
,
1000
0010
1000
0000
0001
0010
0001
0000
,
1000
0100
1000
0000
0001
1000
0001
0000
,
1000
0001
1000
0000
0010
0100
0010
0000
,
0100
0010
0100
0000
0002
0000
0000
0000
,
0000
0000
0000
0000
,
0003
0000
0000
0000
;

//---------------dance-single - ----------------
#NOTES:
     dance-single:
     :
     Beginner:
     6:
     0.377155,0.430397,0.102758,0.205516,0.007904,334.000000,321.000000,13.000000,26.000000,0.000000,0.000000,0.377155,0.430397,0.102758,0.205516,0.007904,334.000000,321.000000,13.000000,26.000000,0.000000,0.000000:
// measure 0
0000
0000
0000
0000
,  // measure 1
0000
0000
0000
0000
,  // measure 2
0000
0000
0000
0000
,  // measure 3
0000
0000
0000
0000
,  // measure 4
0000
0000
0000
0000
,  // measure 5
0000
0000
0000
0000
,  // measure 6
2002
3003
0000
0000
1001
0000
0000
0000
0100
0000
0000
0000
0100
0000
0000
0000
,  // measure 7
0100
1000
1000
0001
,  // measure 8
0001
0000
0000
0000
0200
0300
0000
0000
0001
0000
0000
0000
0001
0000
0000
0000
,  // measure 9
0002
0003
0000
0000
0010
0000
0000
0000
0010
0000
0000
0000
1000
0000
0000
0000
,  // measure 10
1000
1000
0001
1000
,  // measure 11
1000
0001
0001
1000
,  // measure 12
0010
0100
0001
1000
,  // measure 13
0100
0010
0001
1000
,  // measure 14
1000
0100
0100
0001
,  // measure 15
0001
0010
0001
0001
,  // measure 16
1000
0010
0100
0010
,  // measure 17
0010
1000
0001
1000
,  // measure 18
0001
0000
0000
0010
0000
0000
0010
0000
,  // measure 19
0010
0001
0001
0010
,  // measure 20
0000
0100
0000
0000
1000
0000
1000
0000
,  // measure 21
0001
1000
1000
1000
,  // measure 22
0001
0100
0100
0001
,  // measure 23
0001
0001
1000
0010
,  // measure 24
1000
0000
1000
1000
,  // measure 25
0001
0100
0010
0010
,  // measure 26
1000
0000
0000
0000
0000
0000
1000
0000
0000
0000
0000
0000
0010
0000
0000
0000
0000
0000
2002
3003
0000
0000
0000
0000
,  // measure 27
0000
0000
0000
0000
1000
0001
0000
0000
0000
0000
0200
0000
0000
0000
0000
0000
,  // measure 28
0300
1001
1000
1000
,  // measure 29
0000
0001
0001
0001
,  // measure 30
0000
0010
0010
0010
,  // measure 31
0000
0100
0100
0100
,  // measure 32
0000
1001
1000
1000
,  // measure 33
0000
0001
0001
0001
,  // measure 34
0000
1000
0010
0010
,  // measure 35
0000
0001
0001
1000
,  // measure 36
1000
1001
0000
0000
,  // measure 37
0000
1001
0000
0000
,  // measure 38
0000
1001
0000
1001
,  // measure 39
0000
1001
0000
1001
,  // measure 40
0000
0001
1000
0001
,  // measure 41
1000
0010
0100
0010
,  // measure 42
0100
0000
0000
0000
0002
0000
0000
0000
0000
0000
0000
0000
0000
2003
0000
0000
,  // measure 43
0000
0002
0000
3003
,  // measure 44
0200
0300
0000
0000
1001
0000
0000
0000
1000
0000
0000
0000
1000
0000
0000
0000
,  // measure 45
0001
0001
1000
1000
,  // measure 46
0001
1000
0010
0010
,  // measure 47
1000
1000
0001
0001
,  // measure 48
0100
0010
1000
1000
,  // measure 49
0001
0001
1000
1000
,  // measure 50
0100
0001
1000
1000
,  // measure 51
0001
0001
0010
0100
,  // measure 52
1000
0001
0100
0100
,  // measure 53
0010
0010
1000
1000
,  // measure 54
0010
1000
0001
1000
,  // measure 55
0001
0010
0100
0010
,  // measure 56
0100
0001
1000
1000
,  // measure 57
0001
0001
0100
0001
,  // measure 58
0001
0010
0100
0000
,  // measure 59
1000
0000
0000
0000
0001
0000
0000
0000
1000
0000
0000
0000
0200
0300
0000
0000
,  // measure 60
0001
0100
0100
0001
,  // measure 61
0001
0100
0100
0001
,  // measure 62
1000
0100
0100
1000
,  // measure 63
2000
0000
0002
0000
,  // measure 64
3003
0010
0010
0100
,  // measure 65
0100
0010
0010
0010
,  // measure 66
0001
0001
1000
1000
,  // measure 67
0001
0001
0100
0001
,  // measure 68
2000
3000
0000
0000
0200
0300
0000
0000
,  // measure 69
1000
0000
0000
0000
0001
0000
0000
0000
0200
0300
0000
0000
0020
0030
0000
0000
,  // measure 70
2000
3000
0000
0000
0002
0003
0000
0000
0100
0000
0000
0000
0100
0000
0000
0000
,  // measure 71
0001
0001
0010
0100
,  // measure 72
1000
1000
0010
1000
,  // measure 73
0100
1000
0010
0010
,  // measure 74
1000
1000
0001
0001
,  // measure 75
0010
0010
0001
0001
,  // measure 76
2002
3003
0000
0000
0001
0000
0000
0000
2000
3000
0000
0000
0001
0000
0000
0000
,  // measure 77
0200
0300
0000
0000
0020
0030
0000
0000
1000
0000
0000
0000
0001
0000
0000
0000
,  // measure 78
0001
0100
0100
0001
,  // measure 79
1000
0001
0100
0100
,  // measure 80
0010
0010
0010
0100
,  // measure 81
0010
1000
0001
0100
,  // measure 82
0010
1000
0010
0010
,  // measure 83
1000
1000
0001
1000
,  // measure 84
1000
0010
0010
1000
,  // measure 85
1000
0001
0001
0000
,  // measure 86
1000
0000
0010
0000
,  // measure 87
0100
0000
0001
0000
,  // measure 88
0010
0100
1000
0000
,  // measure 89
0001
0000
1000
0000
,  // measure 90
0010
0000
0100
0000
,  // measure 91
0001
0000
1000
0000
,  // measure 92
0010
0100
0001
0000
,  // measure 93
1000
0000
0001
0001
,  // measure 94
1000
1000
0010
0010
,  // measure 95
0100
0100
0001
0001
,  // measure 96
1000
1000
0010
0010
,  // measure 97
0100
0100
0002
0000
,  // measure 98
0000
0000
0000
0000
,  // measure 99
0003
0000
0000
0000
;
