#VERSION:0.83;
#TITLE:Stardust Vox;
#SUBTITLE:;
#ARTIST:DJ Laugh a.k.a. uno from IOSYS;
#TITLETRANSLIT:;
#SUBTITLETRANSLIT:;
#ARTISTTRANSLIT:;
#GENRE:;
#ORIGIN:;
#CREDIT:;
#BANNER:[ROUND K] - Stardust Vox.png;
#BACKGROUND:[ROUND K] - Stardust Vox-bg.png;
#PREVIEWVID:;
#JACKET:;
#CDIMAGE:;
#DISCIMAGE:;
#LYRICSPATH:;
#CDTITLE:;
#MUSIC:[ROUND K] - Stardust Vox.ogg;
#OFFSET:-0.920000;
#SAMPLESTART:92.446838;
#SAMPLELENGTH:11.184975;
#SELECTABLE:YES;
#BPMS:0.000=173.000;
#STOPS:;
#DELAYS:;
#WARPS:;
#TIMESIGNATURES:0.000=4=4;
#TICKCOUNTS:0.000=4;
#COMBOS:0.000=1;
#SPEEDS:0.000=1.000=0.000=0;
#SCROLLS:0.000=1.000;
#FAKES:;
#LABELS:0.000=Song Start;
#BGCHANGES:;
#KEYSOUNDS:;
#ATTACKS:
;

//---------------dance-single - ----------------
#NOTEDATA:;
#CHARTNAME:;
#STEPSTYPE:dance-single;
#DESCRIPTION:;
#CHARTSTYLE:;
#DIFFICULTY:Beginner;
#METER:1;
#RADARVALUES:0.088245,0.106814,0.000000,0.137271,0.000000,72.000000,72.000000,0.000000,16.000000,0.000000,0.000000,0.000000,0.000000,0.000000,0.088245,0.106814,0.000000,0.137271,0.000000,72.000000,72.000000,0.000000,16.000000,0.000000,0.000000,0.000000,0.000000,0.000000;
#CREDIT:;
#NOTES:
0000
0000
0000
0000
,
0000
0000
0000
0000
,
0000
0000
0000
0000
,
0000
0000
0000
0000
,
1000
0000
0000
0000
,
0001
0000
0000
0000
,
0100
0000
0000
0000
,
0000
0000
0000
0000
,
0020
0000
0000
0000
,
0230
0000
0000
0000
,
0302
0000
0000
0000
,
2003
0000
0000
0000
,
3200
0000
0000
0000
,
0320
0000
0000
0000
,
0032
0000
0000
0000
,
0203
0000
0000
0000
,
0310
0000
0000
0000
,
0010
0000
0000
0000
,
0010
0000
0000
0000
,
1000
0000
0000
0000
,
0001
0000
0000
0000
,
0000
0000
0000
0000
,
0000
0000
0000
0000
,
0000
0100
0000
0000
,
0000
0001
0000
0000
,
0000
1000
0000
0000
,
0000
0100
0000
0000
,
0000
0010
0000
0000
,
0000
0001
0000
0000
,
0000
1000
0000
0000
,
0000
0010
0000
0000
,
0000
0100
0000
0000
,
0000
0001
0000
0000
,
0000
1000
0000
0000
,
0000
0100
0000
0000
,
0000
0010
0000
0000
,
0000
0001
0000
0000
,
0100
0000
0000
0000
,
0000
0000
0000
0000
,
0010
0000
0000
0000
,
1000
0000
0000
0000
,
0001
0000
0000
0000
,
0010
0000
0000
0000
,
0100
0000
0000
0000
,
1000
0000
0000
0000
,
0001
0000
0000
0000
,
0000
0000
0000
0000
,
0010
0000
0000
0000
,
0100
0000
0000
0000
,
0001
0000
0000
0000
,
0010
0000
0000
0000
,
0100
0000
0000
0000
,
1000
0000
0000
0000
,
0010
0000
0000
0000
,
0000
0000
0000
0000
,
0200
0000
0000
0000
,
0320
0000
0000
0000
,
2030
0000
0000
0000
,
3200
0000
0000
0000
,
0310
0000
0000
0000
,
0010
0000
0000
0000
,
0010
0000
0000
0000
,
0001
0000
0000
0000
,
0100
0000
0000
0000
,
0010
0000
0000
0000
,
0000
0000
0000
0000
,
1000
0000
0000
0000
,
0001
0000
0000
0000
,
0100
0000
0000
0000
,
0020
0000
0000
0000
,
1030
0000
0000
0000
,
0100
0000
0000
0000
,
0010
0000
0000
0000
,
0002
0000
0000
0000
,
0103
0000
0000
0000
,
0001
0000
0000
0000
,
1000
0000
0000
0000
,
0020
0000
0000
0000
,
0130
0000
0000
0000
,
0100
0000
0000
0000
,
0100
0000
0000
0000
,
0001
0000
0000
0000
,
2000
0000
0000
0000
,
3000
0000
0000
0000
;

//---------------dance-single - ----------------
#NOTEDATA:;
#CHARTNAME:;
#STEPSTYPE:dance-single;
#DESCRIPTION:;
#CHARTSTYLE:;
#DIFFICULTY:Easy;
#METER:4;
#RADARVALUES:0.256157,0.427255,0.171588,0.437550,0.000000,209.000000,189.000000,20.000000,51.000000,0.000000,0.000000,0.000000,0.000000,0.000000,0.256157,0.427255,0.171588,0.437550,0.000000,209.000000,189.000000,20.000000,51.000000,0.000000,0.000000,0.000000,0.000000,0.000000;
#CREDIT:;
#NOTES:
0000
0000
0000
0000
,
0000
0000
0000
0000
,
0000
0000
0000
0000
,
0000
0000
0000
0000
,
2000
0000
0000
0000
,
3200
0000
0000
0000
,
0320
0000
0000
0000
,
0032
0000
0000
0000
,
1003
0001
0100
0100
,
0010
1000
0100
0100
,
0010
0001
1000
1000
,
0100
0010
0100
0100
,
2200
0000
0000
3300
,
0220
0000
0000
0330
,
0022
0000
0000
0033
,
0202
0000
0000
0303
,
0001
0000
0000
0000
,
1000
0000
0000
0000
,
0001
0000
1000
0000
,
0001
0000
1000
0000
,
0001
1000
0001
1000
,
0001
0000
0000
0000
,
0100
0000
0000
0000
,
0110
1000
0100
0010
,
0010
0200
2300
3002
,
0103
0020
0230
0320
,
2030
3200
0320
0031
,
0000
0100
0001
0010
,
0010
0200
2300
3002
,
0103
0100
0010
0200
,
0302
0000
0000
2003
,
3000
0100
0010
0001
,
0001
2000
3020
0230
,
0310
2000
3200
0310
,
0200
2300
3002
0203
,
0320
0130
0001
1000
,
1000
0200
0320
0230
,
2300
0000
0000
3002
,
0003
0000
0000
0000
,
1000
1010
0000
0110
,
0001
0011
0000
0110
,
0000
1100
0000
0101
,
0001
0110
0000
1001
,
0001
0011
0000
0110
,
1000
1010
0000
0110
,
0000
0101
0000
1100
,
1000
0000
0000
0000
,
0001
0010
0100
1000
,
0001
0010
0100
1000
,
0001
0100
0010
1000
,
0001
0100
0010
1000
,
0001
0001
0001
0001
,
0100
0100
0100
0100
,
0010
1000
0001
0100
,
0010
0000
0000
0000
,
0200
0000
0000
0000
,
0302
0000
0000
0000
,
0023
0000
0000
0000
,
0230
0000
0000
0000
,
1300
0000
0000
0000
,
0001
0000
0000
0000
,
0100
0000
0010
0000
,
0100
0000
0010
0000
,
0100
0010
0100
0010
,
0100
0000
0000
0000
,
0000
0000
0000
0000
,
0001
0010
1000
0010
,
0100
0000
1000
0000
,
0010
0000
1000
0000
,
0002
0000
0000
0000
,
1003
0010
0001
0010
,
0100
0000
0001
0000
,
0010
0000
0001
0000
,
2000
0000
0000
0000
,
3001
0010
1000
0010
,
0001
0010
1000
0010
,
0001
0000
0100
0000
,
0020
0000
0000
0000
,
1030
0000
0000
0000
,
0001
0000
0000
0000
,
0100
0000
0000
0000
,
0010
0000
0000
1000
,
2002
0000
0000
0000
,
3003
0000
0000
0000
;

//---------------dance-single - ----------------
#NOTEDATA:;
#CHARTNAME:;
#STEPSTYPE:dance-single;
#DESCRIPTION:;
#CHARTSTYLE:;
#DIFFICULTY:Medium;
#METER:8;
#RADARVALUES:0.512314,0.640883,0.085794,0.377494,0.154430,418.000000,408.000000,10.000000,44.000000,0.000000,0.000000,0.000000,0.000000,0.000000,0.512314,0.640883,0.085794,0.377494,0.154430,418.000000,408.000000,10.000000,44.000000,0.000000,0.000000,0.000000,0.000000,0.000000;
#CREDIT:;
#NOTES:
0000
0000
0000
0000
,
0000
0000
0000
0000
,
0000
0000
0000
0000
,
0000
0000
0000
0000
,
0100
0000
0000
0010
0000
0000
0000
0000
,
0100
0000
0000
0001
0000
0000
1000
0000
,
0200
0000
0000
0000
,
0320
0000
0000
0000
,
0032
0000
0000
0000
,
2003
0000
0000
0000
,
3020
0000
0000
0000
,
0230
0000
0000
0000
,
0320
0000
0000
0000
,
2030
0000
0000
0000
,
3002
0000
0000
0000
,
0023
0000
0000
0000
,
0130
1000
0000
0010
0000
0001
0000
0010
,
0000
1000
0000
0100
0000
0001
0000
0100
,
0000
1000
0000
0010
0000
0001
0000
0100
,
0000
1000
0000
0100
0000
0001
0000
0010
,
1000
0100
0010
0100
1000
0100
0010
0100
,
2000
3020
0230
0302
,
1003
0000
0001
0100
0010
0000
0001
0010
,
0100
0001
1000
0000
0100
0100
0100
0010
,
0100
1000
0002
0000
0203
0000
0310
0000
,
1000
1000
0001
0100
1000
0100
0020
0000
,
2030
0000
3001
2000
0000
3001
0000
1000
,
0100
0000
0010
0000
0001
0001
0001
0010
,
0100
0010
0002
0000
0103
0000
0020
0000
,
1030
0010
1000
0001
1000
0010
0200
0000
,
0301
0100
1000
0100
0001
0100
0020
0000
,
0230
0000
0301
0000
0010
0010
0010
0100
,
0010
0001
2000
0000
3020
0000
0130
0000
,
0001
0001
1000
0100
0001
0100
0020
0000
,
0032
0000
1003
0002
0000
1003
0000
0001
,
0100
0000
0010
0000
1000
1000
1000
0100
,
0010
0100
2000
0000
3020
0000
0130
0000
,
0001
0010
0001
1000
0001
0010
0200
0000
,
0310
0001
1000
0100
0010
0001
0100
0010
,
1000
0010
0200
0000
1300
0100
0010
0000
,
1010
0000
1100
0000
1000
0100
0010
0000
,
0001
0010
0200
0000
0301
0100
0010
0000
,
0011
0000
0101
0000
1000
0001
0100
0100
,
0001
0100
0020
0000
0031
0010
0100
0000
,
0101
0000
0011
0000
0001
0010
0100
0000
,
1000
0100
0020
0000
1030
0010
0100
0000
,
1100
0000
1010
0000
0001
0100
0010
1000
,
0001
0000
0000
0100
0010
0000
0000
0010
1000
0000
0010
0000
0001
0000
0010
0000
,
0100
0000
0000
0010
1000
0000
0000
1000
0100
0000
0010
0000
0100
0000
1000
0000
,
0001
0100
1000
0100
0001
0010
0100
1000
,
0010
0100
0010
0001
0010
0100
0001
1000
,
0100
0000
0100
0000
0100
0000
0100
0010
,
0001
0000
0001
0000
0001
0010
0100
1000
,
0001
0100
1000
0100
0010
1000
0100
0010
,
0001
0000
0000
0011
,
0200
0000
0000
0000
,
0320
0000
0000
0000
,
2030
0000
0000
0000
,
3002
0000
0000
0000
,
0103
0000
0000
0000
0001
0100
0000
0001
0000
0000
0000
0000
0000
0000
0000
0000
,
1000
0000
0100
1000
0000
0100
0000
1000
0000
0000
0000
0000
0000
0000
0000
0000
,
0001
1000
0000
0000
0001
1000
0000
0010
0100
0000
0000
0000
0010
0100
0000
0010
,
1000
0000
0000
0000
0001
1000
0000
0001
0010
0000
0000
0000
0100
0010
0000
0100
,
1000
0010
0001
0010
1000
0100
0001
0100
,
1000
0000
0010
0000
0001
0010
1000
0000
,
0010
0000
0010
0000
1000
0000
0000
0100
0000
0000
0010
0000
0100
0000
1000
0000
,
0001
0000
0100
0000
1000
0000
0000
1000
0000
1000
0000
0000
0100
0000
0010
0000
,
0001
0010
0100
0001
0010
0100
0001
0100
,
0010
0001
1000
0010
,
0200
0000
1000
0000
0010
0010
0001
0301
,
1000
0000
0100
0000
0001
0000
0000
0001
0000
0001
0000
0000
0100
0000
0010
0000
,
1000
0010
0100
1000
0010
0100
1000
0100
,
0010
1000
0001
0010
,
0200
0000
0001
0000
0001
0000
0000
0010
0000
0000
1000
0000
1300
0000
0001
0000
,
1000
0010
0000
0000
1000
0010
0000
1000
0000
0010
1000
0000
0010
0000
0100
0000
,
0001
0000
0100
0001
0000
0100
0000
0001
0000
0100
0000
0000
0001
0000
0010
0000
,
0100
0000
0010
0100
0000
0010
0000
0100
0000
0000
0010
0000
0100
0000
1000
0000
,
0020
0001
0001
0100
0100
1000
1030
0001
,
0010
0000
0010
0000
0010
0000
0010
0100
,
1000
0000
1000
0000
1000
0100
0010
0001
,
1000
0010
0001
0010
0100
0001
0010
0100
,
1000
0000
0100
0000
0010
0000
0000
0001
1000
0000
0010
0000
0110
0000
0000
0000
,
0002
0000
0000
0000
,
0003
0000
0000
0000
;

//---------------dance-single - ----------------
#NOTEDATA:;
#CHARTNAME:;
#STEPSTYPE:dance-single;
#DESCRIPTION:;
#CHARTSTYLE:;
#DIFFICULTY:Hard;
#METER:10;
#RADARVALUES:0.808917,0.925719,0.197327,0.265962,0.853652,660.000000,637.000000,23.000000,31.000000,0.000000,0.000000,0.000000,0.000000,0.000000,0.808917,0.925719,0.197327,0.265962,0.853652,660.000000,637.000000,23.000000,31.000000,0.000000,0.000000,0.000000,0.000000,0.000000;
#CREDIT:;
#NOTES:
// measure 0
0000
0000
0000
0000
,  // measure 1
0000
0000
0000
0000
,  // measure 2
0000
0000
0000
0000
,  // measure 3
0000
0000
0000
0000
,  // measure 4
0100
0000
0000
0010
0000
0000
0000
0000
,  // measure 5
0100
0000
0000
0001
0000
0000
1000
0000
,  // measure 6
0200
0000
0000
0000
,  // measure 7
0320
0000
0000
0000
,  // measure 8
0031
0010
0001
0000
0010
0001
0000
0010
0000
0001
0010
0001
0000
0010
0001
0010
,  // measure 9
0100
0000
0010
0100
0000
0010
0100
0010
0000
0100
0010
0000
0100
0010
0100
0010
,  // measure 10
0001
0000
0010
0001
0000
0010
0001
0010
0001
0000
0010
0000
0100
0000
1000
0000
,  // measure 11
0001
0000
0100
0001
0000
0100
0000
0010
0000
0100
0010
1000
0000
0100
0000
0010
,  // measure 12
0100
0010
0100
0000
0010
0100
0000
1000
0000
0000
0000
0000
0000
0000
0000
0000
,  // measure 13
0001
0000
0100
0010
0000
0100
0000
0001
0000
0000
0000
0000
0000
0000
0000
0000
,  // measure 14
1000
0100
1000
0000
0100
0010
0000
0001
0000
0000
0000
0000
0000
0000
0000
0000
,  // measure 15
0010
0000
0001
0100
0000
0010
0000
1000
0000
0000
0000
0000
0000
0000
0000
0000
,  // measure 16
0010
0000
1000
0100
0000
0010
0000
0100
0000
1000
0010
1000
0000
0100
0000
0010
,  // measure 17
0100
0000
1000
0010
0000
0100
0000
0010
0000
1000
0100
1000
0000
0010
0000
0100
,  // measure 18
0010
0000
0100
0001
0000
1000
0000
0100
0010
0000
0100
1000
0000
0001
0000
0100
,  // measure 19
0010
0000
0100
0001
0000
1000
0000
0100
0010
0000
0100
1000
0000
0001
0000
0100
,  // measure 20
0010
0000
1000
0000
0001
0000
1000
0000
0010
1000
0010
1000
0001
1000
0001
1000
,  // measure 21
0020
0000
0230
0000
0320
0000
2030
0000
3100
1000
0100
1000
0100
0010
0001
0000
,  // measure 22
0011
0000
0101
0010
0100
0000
0110
0001
,  // measure 23
1000
0100
0010
0001
1000
0000
0010
0000
0100
0000
0100
0000
0010
0000
1000
0100
,  // measure 24
1000
0000
0100
0010
0100
1000
0010
0000
0100
0001
0010
0000
0100
1000
0001
0000
,  // measure 25
1000
0000
1000
0000
0010
1000
0010
1000
0001
1000
0001
1000
0020
0000
0000
0000
,  // measure 26
2030
0000
0000
0000
3010
0000
0200
0000
0000
0000
0310
0100
0001
0000
0010
0000
,  // measure 27
0110
0000
0000
0000
0011
0000
0000
0000
0001
0000
0001
0000
0010
0000
0100
0010
,  // measure 28
0100
0000
0010
0001
1000
0010
0100
0000
0001
0000
0000
0000
0101
0000
0000
0000
,  // measure 29
0100
0000
0100
0010
1000
0000
1000
0001
0100
0001
0100
0001
2000
0000
0000
0000
,  // measure 30
3010
0000
1000
0100
0010
0000
0010
0001
0100
0000
0010
0000
2000
0000
0000
0000
,  // measure 31
3001
0100
0010
1000
0001
0000
0100
0000
0010
0000
0010
0000
0100
0000
0001
0010
,  // measure 32
0001
0000
0010
0100
0010
0001
0100
0000
0010
1000
0100
0000
0010
0001
1000
0000
,  // measure 33
0001
0000
0001
0000
0100
0001
0100
0001
1000
0001
1000
0001
0200
0000
0000
0000
,  // measure 34
0320
0000
0000
0000
1030
0000
0020
0000
0000
0000
0130
0010
1000
0000
0100
0000
,  // measure 35
0110
0000
0000
0000
1100
0000
0000
0000
1000
0000
1000
0000
0100
0000
0010
0100
,  // measure 36
0010
0001
0100
0000
0010
1000
0100
0000
0010
0001
0100
0000
0010
1000
0001
0000
,  // measure 37
0100
0000
0001
0100
0010
0000
0010
1000
0100
0000
0010
0000
0002
0000
0000
0000
,  // measure 38
0013
0001
0010
0001
0100
0001
0100
0001
1000
0010
1000
0010
0100
0000
0010
0000
,  // measure 39
1000
0001
0021
0000
0031
0020
0130
0000
,  // measure 40
0110
0000
0011
0000
0001
0100
0010
0100
,  // measure 41
0000
0000
0201
0000
0301
0200
0310
0000
,  // measure 42
0110
0000
0101
0000
0001
0010
0100
1000
,  // measure 43
0001
1000
1020
0000
1030
0020
0130
0000
,  // measure 44
0110
0000
1010
0000
1000
0100
0010
0100
,  // measure 45
0000
0000
1200
0000
1300
0200
0310
0000
,  // measure 46
0110
0000
1100
0000
1000
0010
0100
0001
,  // measure 47
1000
0000
0010
0100
0001
0000
0001
1000
0001
0000
0100
0000
0010
0000
0100
0000
,  // measure 48
0001
0000
0100
0010
1000
0000
1000
0001
1000
0000
0010
0000
0100
0000
0010
0000
,  // measure 49
1000
0000
0010
1000
0100
0000
0010
0001
0100
0000
0010
0000
0100
0000
0001
0000
,  // measure 50
1000
0100
0010
0001
1000
0100
0010
0001
,  // measure 51
1000
0000
1000
0000
1000
0000
1000
0010
,  // measure 52
0100
0000
0100
0000
0100
0010
1000
0100
,  // measure 53
0010
0000
0001
0010
0100
0000
0010
0100
1000
0000
0100
1000
0001
1000
0001
1000
,  // measure 54
0001
0000
0100
0000
0010
0000
0000
0100
0010
0100
0001
0000
2000
0000
0000
0000
,  // measure 55
3200
0000
0000
0000
,  // measure 56
0320
0000
0000
0000
,  // measure 57
0032
0000
0000
0000
,  // measure 58
0203
0000
0000
0000
,  // measure 59
0310
0100
0010
0000
0100
0010
0000
1000
0000
0000
0000
0000
0000
0000
0000
0000
,  // measure 60
0001
0000
0100
0010
0000
0100
0000
0001
0000
0000
0000
0000
0000
0000
0000
0000
,  // measure 61
1000
0100
1000
0000
0100
0010
0000
0001
1000
0100
1000
0000
0100
0010
0000
0001
,  // measure 62
1000
0100
1000
0000
0100
0010
0000
0001
1000
0100
1000
0000
0100
0010
0000
0001
,  // measure 63
1000
0100
0010
0000
0100
0010
0001
0000
0100
0001
1000
0000
0001
1000
0010
0000
,  // measure 64
1000
0000
0101
0000
0110
0100
0001
0000
,  // measure 65
1000
0000
0100
0000
0010
0000
0001
0100
0010
0100
0001
0000
0010
0100
1000
0001
,  // measure 66
1000
0010
0100
0000
0010
0000
1000
0100
0010
0000
0100
0000
1000
0000
0010
0000
,  // measure 67
0100
0010
1000
0000
0100
0000
0010
0100
1000
0000
0001
0000
0100
0000
0010
0000
,  // measure 68
0100
0000
0001
0010
0000
0100
0010
0001
1000
0000
0010
1000
0010
0100
0001
1000
,  // measure 69
0020
0000
0001
0000
0100
0100
1000
1030
,  // measure 70
0001
0010
0100
0000
0010
0000
0001
0100
0010
0000
0100
0000
0001
0000
0010
0000
,  // measure 71
0100
0010
0001
0000
0100
0000
0010
0100
0001
0000
1000
0000
0100
0000
0010
0000
,  // measure 72
0100
0000
1000
0010
0000
0100
0010
1000
0001
0000
0100
0001
0100
0010
1000
0001
,  // measure 73
0200
0000
0010
0000
0010
0000
0000
0001
0000
0000
0301
0000
1000
0100
0010
0001
,  // measure 74
1000
0100
0000
0000
1000
0100
0000
0010
0000
0100
1000
0010
0000
0100
0010
1000
,  // measure 75
0001
0000
0100
0010
0000
0100
0000
0001
0000
1000
0010
0000
0100
0010
1000
0100
,  // measure 76
0010
0000
0001
0010
0000
0100
0010
0001
1000
0000
0001
0000
0010
0000
0100
0000
,  // measure 77
1000
0010
0100
0001
1000
0010
0100
0001
,  // measure 78
1000
0000
1000
0000
1000
0000
1000
0100
,  // measure 79
0010
0000
0010
0000
0010
0100
1000
0010
,  // measure 80
0100
0000
0001
0100
0010
0000
0100
0010
1000
0000
0100
1000
0001
1000
0001
1000
,  // measure 81
0001
0000
0010
0000
0100
0000
0000
0010
0100
0010
1000
0000
1100
0000
0000
0000
,  // measure 82
0002
0000
0000
0000
,  // measure 83
0003
0000
0000
0000
;
