#TITLE:Regret Breaker;
#SUBTITLE:;
#ARTIST:プラズマジカ;
#TITLETRANSLIT:;
#SUBTITLETRANSLIT:;
#ARTISTTRANSLIT:Plasmagica;
#GENRE:J-POP;
#CREDIT:;
#BANNER:[ROUND K] - Regret Breaker.png;
#BACKGROUND:[ROUND K] - Regret Breaker-bg.png;
#LYRICSPATH:;
#CDTITLE:cdtitle.png;
#MUSIC:[ROUND K] - Regret Breaker.ogg;
#OFFSET:-0.602000;
#SAMPLESTART:73.880043;
#SAMPLELENGTH:14.633735;
#SELECTABLE:YES;
#BPMS:0.000000=131.000000
;
#STOPS:
;
#BGCHANGES:;
#KEYSOUNDS:;
#ATTACKS:;

//---------------dance-single - ----------------
#NOTES:
     dance-single:
     :
     Hard:
     7:
     0.413488,0.449733,0.072562,0.193498,0.036281,359.000000,350.000000,9.000000,24.000000,0.000000,0.000000,0.413488,0.449733,0.072562,0.193498,0.036281,359.000000,350.000000,9.000000,24.000000,0.000000,0.000000:
0000
0000
0000
0000
,
0000
0000
0000
0000
,
0000
0000
0000
0000
,
0000
0000
0000
0000
0000
0000
1000
0002
,
0000
1003
0100
0001
0100
1000
0000
0020
,
0000
0130
0001
0010
0000
0100
0000
2000
,
0000
3001
0100
1000
0100
0001
0010
0100
,
0000
1000
0010
0100
0000
0001
0010
0002
,
0000
1003
0010
0001
0010
1000
0000
0200
,
0000
0310
0001
0100
0000
0010
0000
2000
,
0000
3001
0010
1000
0010
0001
0100
0010
,
0000
1000
0100
0010
0001
1001
0000
0000
,
1000
1000
0000
0000
0001
0001
0000
0000
,
0100
0000
0010
0000
1000
1000
0000
0000
,
0001
0001
0000
0000
1000
1000
0000
0000
,
0100
0000
0010
0000
0001
1000
0001
0000
,
1000
0010
1000
0010
0100
0001
0100
0001
,
0010
0100
0010
0100
1000
0010
0100
0001
,
1000
0100
1000
0100
0010
0001
0010
0001
,
1000
0010
0100
0010
1000
0000
1001
0002
,
0000
1003
0100
0001
0100
1000
0000
0020
,
0000
1030
0100
0010
0000
0001
0000
2000
,
0000
3001
0100
1000
0100
0001
1000
0100
,
0000
0010
0001
1000
0000
0001
0100
0000
,
0001
0000
1000
0000
0000
0000
1000
0100
1000
0000
0010
0000
0000
0000
1000
0000
,
0100
0010
0100
1000
0001
0100
0000
0000
,
0001
0000
1000
0000
0000
0000
1000
0010
1000
0000
0100
0000
0000
0000
0010
0000
,
0001
0100
1000
0100
0001
1000
1001
0000
,
0001
1000
0000
1000
0100
0010
0000
0010
,
0001
0100
1000
0100
0001
1000
0000
0000
,
0001
0000
1000
0000
0000
0000
1000
0000
0010
0100
0010
0000
0000
0000
1000
0000
,
0100
0010
0001
0100
0010
0000
1000
0100
,
0010
0000
0010
0100
1000
0000
1000
0010
,
0001
0000
0001
0010
1000
0000
1000
0100
,
0001
0000
0001
0100
1000
0000
1000
0010
,
0100
0000
0100
0010
1000
0000
0001
0010
,
0100
0000
0100
0010
0001
0000
0001
0100
,
1000
0000
1000
0100
0001
0000
0001
1000
,
0001
0000
0000
1001
0000
0000
0000
1000
0000
0000
0100
0000
0010
0000
0001
0000
,
0100
0100
0010
0010
,
1000
0000
0001
0010
0000
0001
1000
0001
,
0000
1000
0100
0010
0000
0001
0100
0010
,
0100
0000
0001
1000
0000
0100
0010
0100
,
0000
1000
0010
0001
0010
1000
0000
0000
,
0001
0000
0001
0100
0000
0010
0000
1000
,
0100
0000
0100
0010
0000
0001
0000
1000
,
0002
0000
0000
0000
0000
0000
0103
0010
0200
0000
0000
0000
0000
0000
0300
0000
,
0002
0023
0230
2300
,
3001
0000
1000
0010
0000
1000
0001
1000
,
0000
0001
0100
0010
0000
1000
0100
0000
,
1000
0000
0001
1000
0000
0010
0100
0010
,
0000
1000
0100
0001
0100
1000
0000
0000
,
0001
0000
0001
0010
0000
0100
0000
1000
,
0010
0000
0010
0100
0000
0001
0000
1000
,
0001
0000
0001
1000
0000
1000
0002
0000
,
0000
0000
1003
0100
1000
0000
0010
0000
0100
0000
0001
0000
0000
0000
0000
0000
,
1000
0000
1000
0001
0000
0001
2000
0000
,
0000
0000
0000
0000
3001
0000
0010
0002
,
0000
1003
0010
0001
0010
1000
0000
0200
,
0000
0310
0001
1000
0000
0010
0000
2000
,
0000
3001
0010
1000
0010
0001
0100
0010
,
0000
0000
1000
0000
0100
0000
0010
0000
0000
0000
0001
0000
1000
0010
1000
0010
,
0200
0000
0320
0000
,
1030
1100
0101
0001
,
2000
0000
3002
0100
,
1003
0000
1010
0000
0011
1001
0000
0000
;

//---------------dance-single - ----------------
#NOTES:
     dance-single:
     :
     Medium:
     5:
     0.274123,0.291004,0.032250,0.104812,0.004031,238.000000,234.000000,4.000000,13.000000,0.000000,0.000000,0.274123,0.291004,0.032250,0.104812,0.004031,238.000000,234.000000,4.000000,13.000000,0.000000,0.000000:
0000
0000
0000
0000
,
0000
0000
0000
0000
,
0000
0000
0000
0000
,
0000
0000
0000
0000
,
0001
0000
0001
0000
1000
0010
0000
0000
,
1000
0100
0010
0001
,
1000
0000
1000
0000
0001
0100
0001
0000
,
0010
0100
1000
0001
,
1000
0000
1000
0000
0001
0010
0000
0000
,
0001
0100
0010
1000
,
0001
0000
0001
0000
1000
0010
1000
0000
,
0100
0000
0010
0000
0001
0001
0000
0000
,
2000
3000
0020
0030
,
1000
0100
0010
0000
,
0002
0003
0200
0300
,
0001
0010
0100
1000
,
0001
0001
1000
1000
,
0010
0010
0100
0100
,
0001
0001
1000
1000
,
0100
0100
0010
0001
,
1000
0000
1000
0000
0001
0010
0000
0000
,
0001
0100
0010
1000
,
0001
0000
0001
0000
1000
0010
1000
0000
,
0100
0010
0001
1000
,
0001
0000
1000
0000
,
0001
0010
0100
0000
,
1000
0000
0001
0000
,
1000
0010
0100
0000
,
0001
0000
1000
0000
,
0001
0100
0010
0000
,
1000
0000
0001
0000
,
1000
0100
0010
0001
,
1000
0000
0010
0100
0010
0000
1000
0000
,
0001
0000
0010
0100
0010
0000
0001
0000
,
1000
0000
0100
0010
0100
0000
1000
0000
,
0001
0000
0100
0010
0100
0000
0001
0000
,
1000
0000
0001
0010
0001
0000
1000
0000
,
0001
0000
1000
0010
1000
0000
0001
0000
,
1000
0000
0000
0000
0000
0000
0000
0100
0000
0000
0000
0000
0010
0000
0000
0000
,
0002
0000
0000
1003
,
0001
0100
0010
0100
,
0001
0000
0010
0000
0001
1000
0001
0000
,
1000
0010
0100
0010
,
1000
0000
0100
0000
1000
0001
1000
0000
,
0001
0000
0001
0100
0000
0100
0000
0010
,
1000
0000
1000
0100
0000
0100
0000
0010
,
0001
0000
0000
1000
0001
0000
0000
0000
,
2000
3020
0230
0302
,
1003
0100
0010
0100
,
1000
0000
0010
0000
1000
0001
1000
0000
,
0001
0010
0100
0010
,
0001
0000
0100
0000
0001
1000
0001
0000
,
1000
0000
1000
0100
0000
0100
0000
0010
,
0001
0000
0001
0100
0000
0100
0000
0010
,
1000
0000
0000
0001
0000
0000
2002
0000
,
0000
0000
3003
0000
,
0001
0000
0000
1000
0000
0000
2002
0000
,
0000
3003
1000
0001
,
1000
0000
1000
0000
0001
0010
0000
0000
,
0001
0100
0010
1000
,
0001
0000
0001
0000
1000
0010
1000
0000
,
0100
0000
0010
0000
0001
0000
1000
0001
,
1000
0000
1001
0000
,
0001
0100
0010
0000
,
1000
0000
1001
0000
,
0001
0000
1000
0000
0001
0001
0000
0000
;

//---------------dance-single - ----------------
#NOTES:
     dance-single:
     :
     Easy:
     2:
     0.188891,0.237640,0.000000,0.000000,0.000000,164.000000,164.000000,0.000000,0.000000,0.000000,0.000000,0.188891,0.237640,0.000000,0.000000,0.000000,164.000000,164.000000,0.000000,0.000000,0.000000,0.000000:
0000
0000
0000
0000
,
0000
0000
0000
0000
,
0000
0000
0000
0000
,
0000
0000
0000
0000
,
1000
1000
0001
0000
,
0001
0001
1000
0000
,
1000
1000
0010
0000
,
0010
0010
0100
0000
,
0001
0001
1000
0000
,
1000
1000
0001
0000
,
0001
0001
0010
0000
,
0010
0010
0100
0000
,
1000
0000
0001
0000
,
0100
0010
0100
0000
,
0001
0000
1000
0000
,
0100
0010
0100
0000
,
1000
0000
0010
0000
,
1000
0100
0010
0001
,
1000
0000
0001
0000
,
0100
0010
1000
0001
,
1000
1000
0001
0000
,
0001
0001
1000
0000
,
1000
1000
0100
0000
,
0100
0100
0010
0000
,
0001
0000
1000
0000
,
0100
0010
0001
0000
,
1000
0000
0001
0000
,
0100
0010
1000
0000
,
0001
0000
1000
0000
,
0100
0010
0001
0000
,
1000
0000
0001
0000
,
0100
0010
1000
0001
,
1000
1000
0100
0100
,
0010
0010
0001
0001
,
0100
0100
0010
0010
,
1000
1000
0001
0001
,
0010
0010
0100
0100
,
1000
1000
0010
0010
,
0100
0000
0001
0000
,
1000
0000
0000
0000
,
0001
0000
1000
0000
,
0100
0000
0010
0000
,
0001
0000
1000
0000
,
0010
0000
0100
0000
,
0001
0000
0010
0000
,
0100
0000
1000
0000
,
0001
0000
0100
0000
,
0001
0001
1000
1000
,
0001
0000
1000
0000
,
0100
0000
0010
0000
,
0001
0000
1000
0000
,
0010
0000
0100
0000
,
0001
0000
0010
0000
,
0100
0000
1000
0000
,
0001
0000
0000
1000
0000
0000
0001
0000
,
0000
0000
0000
0000
,
1000
0000
0000
0001
0000
0000
1000
0000
,
0000
0000
0000
0000
,
0001
0001
1000
0000
,
1000
1000
0001
0000
,
0001
0001
0100
0000
,
0100
0100
0010
0000
,
1000
0000
0001
0000
,
1000
0100
0010
0000
,
0001
0000
1000
0000
,
0001
0100
0010
0000
;

//---------------dance-single - ----------------
#NOTES:
     dance-single:
     :
     Beginner:
     1:
     0.101356,0.132022,0.008062,0.000000,0.000000,88.000000,87.000000,1.000000,0.000000,0.000000,0.000000,0.101356,0.132022,0.008062,0.000000,0.000000,88.000000,87.000000,1.000000,0.000000,0.000000,0.000000:
// measure 0
0000
0000
0000
0000
,  // measure 1
0000
0000
0000
0000
,  // measure 2
0000
0000
0000
0000
,  // measure 3
0000
0000
0000
0000
,  // measure 4
1000
0000
0000
0000
,  // measure 5
1000
0000
0000
0000
,  // measure 6
0001
0000
0000
0000
,  // measure 7
0001
0000
0000
0000
,  // measure 8
0100
0000
0000
0000
,  // measure 9
0100
0000
0000
0000
,  // measure 10
0010
0000
0000
0000
,  // measure 11
0010
0000
0000
0000
,  // measure 12
1000
0000
0000
0000
,  // measure 13
0001
0000
0001
0000
,  // measure 14
0001
0000
0000
0000
,  // measure 15
1000
0000
1000
0000
,  // measure 16
1000
0000
1000
0000
,  // measure 17
0010
0000
0010
0000
,  // measure 18
0100
0000
0100
0000
,  // measure 19
0001
0000
0001
0000
,  // measure 20
1000
0000
0000
0000
,  // measure 21
1000
0000
0000
0000
,  // measure 22
0100
0000
0000
0000
,  // measure 23
0100
0000
0000
0000
,  // measure 24
1000
0000
0000
0000
,  // measure 25
0001
0000
0000
0000
,  // measure 26
0100
0000
0000
0000
,  // measure 27
0010
0000
0000
0000
,  // measure 28
1000
0000
0000
0000
,  // measure 29
0001
0000
0000
0000
,  // measure 30
0010
0000
0000
0000
,  // measure 31
0100
0000
0000
0000
,  // measure 32
1000
0000
0001
0000
,  // measure 33
1000
0000
0000
0000
,  // measure 34
0010
0000
0100
0000
,  // measure 35
0010
0000
0000
0000
,  // measure 36
1000
0000
0001
0000
,  // measure 37
1000
0000
0000
0000
,  // measure 38
0100
0000
0010
0000
,  // measure 39
0100
0000
0000
0000
,  // measure 40
1000
0000
1000
0000
,  // measure 41
0001
0000
0001
0000
,  // measure 42
0100
0000
0100
0000
,  // measure 43
0010
0000
0010
0000
,  // measure 44
1000
0000
1000
0000
,  // measure 45
0001
0000
0001
0000
,  // measure 46
0010
0000
0010
0000
,  // measure 47
0100
0000
0100
0000
,  // measure 48
1000
0000
1000
0000
,  // measure 49
0010
0000
0010
0000
,  // measure 50
0100
0000
0100
0000
,  // measure 51
0001
0000
0001
0000
,  // measure 52
1000
0000
1000
0000
,  // measure 53
0100
0000
0100
0000
,  // measure 54
1000
0000
0000
0001
,  // measure 55
0000
0000
0000
0000
,  // measure 56
1000
0000
0000
0001
,  // measure 57
0000
0000
0000
0000
,  // measure 58
1000
0000
0000
0000
,  // measure 59
1000
0000
0000
0000
,  // measure 60
0010
0000
0000
0000
,  // measure 61
0010
0000
0000
0000
,  // measure 62
0100
0000
0000
0000
,  // measure 63
0100
0000
0000
0000
,  // measure 64
0001
0000
0000
0000
,  // measure 65
0001
0000
1001
0000
;
