#TITLE:Poinsettia;
#SUBTITLE:;
#ARTIST:ARM;
#TITLETRANSLIT:;
#SUBTITLETRANSLIT:;
#ARTISTTRANSLIT:;
#GENRE:;
#CREDIT:;
#BANNER:[ROUND K] - Poinsettia-bn.png;
#BACKGROUND:[ROUND K] - Poinsettia-bg.png;
#LYRICSPATH:;
#CDTITLE:;
#MUSIC:[ROUND K] - Poinsettia.ogg;
#OFFSET:-0.007632;
#SAMPLESTART:10.658693;
#SAMPLELENGTH:10.666666;
#SELECTABLE:YES;
#BPMS:0.000000=180.000000
,368.000000=175.000000
,368.666656=170.000000
,369.333344=156.000000
,370.000000=144.000000
,370.666656=136.000000
,371.333344=134.000000
,372.000000=132.000000
,372.666656=104.500000
,373.333344=102.000000
,374.000000=86.500000
,374.666656=72.000000
,375.333344=41.500000
;
#STOPS:
;
#BGCHANGES:;
#KEYSOUNDS:;
#ATTACKS:;

//---------------dance-single - ----------------
#NOTES:
     dance-single:
     :
     Hard:
     10:
     0.735571,0.934349,0.349858,0.220563,0.650279,602.000000,46.000000,29.000000,0.000000,0.000000,0.000000,0.735571,0.934349,0.349858,0.220563,0.650279,602.000000,46.000000,29.000000,0.000000,0.000000,0.000000:
0000
0000
0000
0000
,
0000
0000
0000
0000
,
0000
0000
0000
0000
,
0000
0000
0000
0000
,
1000
0100
1000
0001
0000
0010
0000
1000
,
0000
0010
0001
0010
0100
1000
0010
1000
,
0001
0100
0001
1000
0000
0010
0000
0001
,
0000
0000
0010
0100
0010
0000
1000
0001
1000
0000
0100
0000
0010
0001
0010
0001
,
1000
0000
0000
0100
0000
0000
1000
0000
0010
0000
0000
1000
0000
0000
0010
0000
,
0100
0000
0000
0001
0000
0000
0100
0000
0010
0000
0000
1000
0000
0000
0001
0000
,
1000
0000
0000
0100
0000
0000
0010
0000
0001
0000
0000
1000
0000
0000
0001
0000
,
0200
0000
0010
0000
0300
0000
0100
0000
0010
0000
0000
0010
0000
0000
0010
0000
,
1000
0000
0000
0001
0000
0000
0100
0000
0001
0000
0000
0010
0000
0000
0001
0000
,
1000
0000
0000
0100
0000
0000
1000
0000
0010
0000
0000
0100
0000
0000
1000
0000
,
0100
0000
0000
0001
0000
0000
1000
0000
0100
0000
0000
0001
0000
0000
0100
0000
,
2000
0010
0001
3100
,
0010
0010
0002
0000
2003
0000
3010
2000
,
0000
0000
3010
0000
0100
0010
0100
0000
0001
0000
0010
0000
0100
1000
0100
1000
,
0001
0100
0001
0010
0000
0100
1000
0001
,
1000
0100
1000
0010
0000
0100
0010
1000
,
0001
0000
0100
0000
0001
0000
0010
0000
0000
0000
0100
0000
0010
0000
0001
1000
,
0001
0100
0010
0000
,
1000
0100
1000
0001
0000
0010
0100
0010
,
0001
0100
0001
1000
0000
0010
0100
0010
,
1000
0000
0010
0000
1000
0000
0001
0000
0000
0000
0010
0000
0001
0000
0100
0010
,
0100
0010
1000
0001
0200
0000
0310
0000
,
1000
0100
0010
0001
0000
0001
1000
0000
,
0001
0010
0100
1000
0000
1000
0001
0000
,
1000
0010
0100
0001
0000
1000
0001
0000
,
0000
0100
0001
0010
0100
0010
0001
0100
,
0010
1000
0001
0100
0000
0100
0010
0000
,
2000
0000
3001
0000
1000
0001
1000
0100
,
0010
0000
0001
0100
0010
0100
0001
0100
,
0010
0000
1000
0001
1000
0001
1000
0001
0100
0000
0001
1000
0001
1000
0001
1000
,
0100
0000
0000
0100
0010
0000
0001
0000
2000
0000
0000
3020
0000
0000
0100
0000
,
0130
0000
0000
0100
0010
0000
1000
0000
0200
0000
0000
0320
0000
0000
0001
0000
,
0032
2003
3020
0230
,
0302
0010
1000
0103
,
0010
1000
0100
0010
0000
0010
0001
0100
,
0010
0001
0000
0001
0010
0100
0001
1000
,
0100
0010
0100
0000
0010
0000
0001
1000
0001
0000
0100
0000
0010
0100
0010
0000
,
1000
0000
0000
0100
0000
0000
0010
0000
0001
0000
0000
0000
1001
0000
0000
0000
,
0001
0000
0000
0010
0000
0000
0001
0000
0100
0000
0000
0001
0000
0000
0100
0000
,
0010
0000
0000
1000
0000
0000
0010
0000
0100
0000
0000
0001
0000
0000
1000
0000
,
0001
0000
0000
0010
0000
0000
0100
0000
1000
0000
0000
0001
0000
0000
1000
0000
,
0020
0000
0100
0000
0030
0000
0010
0000
0100
0000
0000
0100
0000
0000
0100
0000
,
0001
0000
0000
1000
0000
0000
0010
0000
1000
0000
0000
0100
0000
0000
1000
0000
,
0001
0000
0000
0010
0000
0000
0001
0000
0100
0000
0000
0010
0000
0000
0001
0000
,
0010
0000
0000
1000
0000
0000
0001
0000
0010
0000
0000
1000
0000
0000
0010
0000
,
0002
0100
1000
0013
,
0001
0000
0100
0000
0010
0000
1010
0000
1001
0000
1100
0000
,
1000
0000
0100
0000
0010
0000
0011
0000
1001
0000
0101
0000
,
0001
0000
0100
0000
0010
0000
1010
0000
1001
0000
1100
0000
,
1000
0001
1000
0001
1000
0001
0100
0010
1000
0100
0010
0001
,
0011
0000
1000
0000
0100
0000
0110
0000
0011
0000
0101
0000
,
0110
0000
1000
0000
0010
0000
1010
0000
0110
0000
0101
0000
,
0011
0000
0010
0000
0100
0000
1100
0000
1001
0000
0011
0000
,
0010
0001
0010
0001
0010
0001
0010
0001
1000
0001
0100
0001
1000
0001
0100
0001
,
1000
0010
0100
0002
0000
0103
0010
1000
,
0001
0010
0100
1000
0001
1000
0010
0100
,
0001
1000
0001
0100
0000
0110
0000
2010
,
0000
3100
0010
0001
1000
0010
0001
0010
,
0200
0000
0301
2000
0000
3001
0010
0100
,
1000
0010
0100
0002
0000
1003
0000
0100
,
1000
0010
1000
0100
0010
0001
0100
0020
,
0000
0000
0130
0000
0001
0000
2000
0000
0000
0000
3100
0000
0010
0100
0010
0100
,
1000
1000
1000
1000
,
1000
1000
1000
1000
,
0001
0001
0001
0001
,
0001
0001
0001
0001
,
0100
0000
0000
0010
0000
0000
0100
0000
0000
0010
0000
0000
1000
0000
0000
0000
0000
0000
0000
0000
0000
0000
0000
0000
0001
0000
0000
0000
0000
0000
0000
0000
0010
0000
0000
0000
0000
0000
0000
0000
0100
0000
0000
0000
0000
0000
0000
0000
,
1000
0000
0000
0010
0000
0000
1000
0000
0000
0010
0000
0000
0100
0000
0000
0000
0000
0000
0000
0000
0000
0000
0000
0000
0010
0000
0000
0000
0000
0000
0000
0000
1000
0000
0000
0000
0000
0000
0000
0000
0100
0000
0000
0000
0000
0000
0000
0000
,
0010
0000
0000
0001
0000
0000
0010
0000
0000
0001
0000
0000
1000
0000
0000
0000
0000
0000
0000
0000
0000
0001
0000
0000
0100
0000
0000
0000
0000
0000
0000
0000
0010
0000
0000
0000
0000
0000
0000
0000
1000
0000
0000
0000
0000
0000
0000
0000
,
0100
0000
0000
0010
0000
0000
0100
0000
0000
0010
0000
0000
0001
0000
0000
0000
0000
0000
0000
0000
0000
0000
0000
0000
1000
0000
0000
0000
0000
0000
0000
0000
0010
0000
0000
0000
0000
0000
0000
0000
0100
0000
0000
0000
0000
0000
0000
0000
,
0000
0000
0100
0000
0001
0000
0100
0000
0010
0000
1000
0000
0100
0000
0010
0001
,
0010
0000
0000
0001
1000
0000
0010
0000
0000
0010
1000
0000
0001
0100
0001
0100
,
0010
0000
0000
1000
0000
0000
0001
0000
0100
0000
0000
0001
0000
0000
0010
0000
,
0001
0000
0000
0100
0000
0000
0010
0000
1000
0000
0000
0100
0000
0000
0010
0000
,
0001
0000
0000
0100
0000
0000
1000
0000
0001
0000
0000
0010
0000
0000
1000
0000
,
0002
0000
0010
0000
0000
0000
1003
0000
0001
0000
0000
0001
0000
0000
0001
0000
,
1000
0000
0000
0100
0000
0000
0001
0000
0100
0000
0000
0010
0000
0000
0001
0000
,
0100
0000
0000
1000
0000
0000
0100
0000
0010
0000
0000
1000
0000
0000
0001
0000
,
0100
0000
0000
0001
0000
0000
0010
0000
1000
0000
0000
0010
0000
0000
0001
0000
,
0200
0010
1000
0301
,
1000
0000
0010
0000
0100
0000
0101
0000
1001
0000
0011
0000
,
0001
0000
0010
0000
0100
0000
1100
0000
1001
0000
1010
0000
,
1000
0000
0010
0000
0100
0000
0101
0000
1001
0000
0011
0000
,
0001
1000
0001
1000
0001
1000
0010
0100
0001
0010
0100
1000
,
1100
0000
0001
0000
0010
0000
0110
0000
1100
0000
1010
0000
,
0110
0000
0001
0000
0100
0000
0101
0000
0110
0000
1010
0000
,
1100
0000
0100
0000
0010
0000
0011
0000
1001
0000
1100
0000
,
0110
0000
0010
0000
0010
0000
0001
0000
0001
0000
0001
1000
,
0010
0000
1000
0000
0100
0000
0010
0000
0001
0000
0100
0000
,
0010
0000
1000
0000
0001
0000
0010
0000
0001
0000
0200
0000
,
0020
0000
0330
0000
;

//---------------dance-single - ----------------
#NOTES:
     dance-single:
     :
     Challenge:
     10:
     0.953960,1.000000,0.752955,0.387886,0.798588,728.000000,99.000000,51.000000,0.000000,0.000000,0.000000,0.953960,1.000000,0.752955,0.387886,0.798588,728.000000,99.000000,51.000000,0.000000,0.000000,0.000000:
// measure 0
0000
0000
0000
0000
,  // measure 1
0000
0000
0000
0000
,  // measure 2
0000
0000
0000
0000
,  // measure 3
0000
0000
0000
0000
,  // measure 4
1000
0000
0100
0000
1000
0000
0001
0100
0001
0000
0010
0000
0000
0000
1100
0000
,  // measure 5
0000
0000
1000
0000
0010
0000
1000
0000
0001
0000
1000
0000
0010
0000
0100
0010
,  // measure 6
0100
0000
0001
0000
1000
0000
0100
0010
0100
0000
0010
0000
0000
0000
0011
0000
,  // measure 7
0000
0000
1000
0010
1000
0000
0001
0010
0001
0100
0001
0100
0010
1000
0010
1000
,  // measure 8
0001
0000
0000
0001
0010
0000
0100
0000
1000
0000
0000
1000
0010
0000
0100
0000
,  // measure 9
0001
0000
0000
0001
1000
0000
0100
0000
0010
0000
0000
0010
0001
0000
0100
0000
,  // measure 10
1000
0000
0000
1000
0100
0000
0001
0000
1000
0000
0000
1000
0100
0000
0010
0000
,  // measure 11
0200
0000
0010
0000
0300
0000
0010
0000
0001
0000
0000
0011
0000
0000
1001
0000
,  // measure 12
0001
0000
0000
0001
0100
0000
0010
0000
1000
0000
0000
1000
0100
0000
0010
0000
,  // measure 13
0001
0000
0000
0001
0100
0000
0010
0000
1000
0000
0000
1000
0100
0000
0010
0000
,  // measure 14
0001
0000
0000
0001
0100
0000
0010
0000
1000
0000
0000
0100
0010
0000
0001
0000
,  // measure 15
2000
0010
3001
0000
0002
0010
1003
0000
,  // measure 16
1100
1000
1001
0000
1020
0000
0130
0210
,  // measure 17
0000
0000
0301
0000
1000
0100
0010
0000
0001
0010
0001
0010
0100
1000
0100
1000
,  // measure 18
0002
0103
0010
2000
3100
0010
0100
1000
,  // measure 19
0002
0103
0010
2000
3100
0010
0100
1000
,  // measure 20
0002
0000
0103
0000
0010
0000
2000
0000
3100
0000
0010
0000
0100
0000
1000
0001
,  // measure 21
1000
0000
0000
0000
0001
0000
0000
0000
0100
0000
0001
0100
0010
1000
0001
0000
,  // measure 22
2000
3100
0010
0002
0103
1000
0100
0001
,  // measure 23
2000
3100
0010
0002
0103
1000
0100
0001
,  // measure 24
2000
0000
3100
0000
0010
0000
0002
0000
0103
0000
1000
0000
0100
0000
0001
0010
,  // measure 25
0001
0000
0010
0000
0100
0000
1000
0000
0001
0100
0001
0100
0010
1000
0001
0100
,  // measure 26
0010
1000
0100
0001
0000
0100
0010
0000
,  // measure 27
0010
0001
0100
1000
0000
0100
0010
0000
,  // measure 28
1000
0100
0010
0001
0000
0001
1000
0000
,  // measure 29
0000
0010
0100
0001
0010
1000
0010
0100
,  // measure 30
1000
0001
0100
1000
0000
0100
0010
0000
,  // measure 31
2000
0000
0010
0000
3100
0010
0100
1000
,  // measure 32
0002
0100
0103
0010
0100
0010
1000
0100
,  // measure 33
0010
0000
0001
0010
0001
0010
0100
1000
0010
0000
1000
0010
1000
0010
0100
0001
,  // measure 34
0010
0000
0000
0010
0100
0000
0010
0000
0001
0000
1000
0001
0000
0000
0100
0000
,  // measure 35
0010
0000
0000
0010
0100
0000
0001
0000
1000
0000
0100
0010
0000
0000
0010
0000
,  // measure 36
0001
0000
0000
0001
0100
0000
0000
0100
1000
0000
0000
1000
0100
0000
0000
0100
,  // measure 37
0002
0000
1000
0000
1000
0000
0000
0010
0000
0000
0013
0000
0100
0000
0000
0100
,  // measure 38
1000
0010
0100
0110
0100
0001
0011
0010
,  // measure 39
0100
1100
1000
0001
0101
0010
1010
1000
,  // measure 40
0100
0010
0100
0000
0100
0000
1000
0001
1000
0000
1000
0000
0010
0100
0010
0000
,  // measure 41
1000
0000
0000
0100
0000
0000
0010
0000
0001
0010
0001
0010
0100
1000
0100
1000
,  // measure 42
0001
0000
0000
0001
0010
0000
0100
0000
1000
0000
0000
1000
0010
0000
0100
0000
,  // measure 43
0001
0000
0000
0001
1000
0000
0100
0000
0010
0000
0000
0010
0001
0000
0100
0000
,  // measure 44
1000
0000
0000
1000
0100
0000
0001
0000
1000
0000
0000
1000
0100
0000
0010
0000
,  // measure 45
0200
0000
0010
0000
0300
0000
0010
0000
0001
0000
0000
0011
0000
0000
1001
0000
,  // measure 46
0001
0000
0000
0001
0100
0000
0010
0000
1000
0000
0000
1000
0100
0000
0010
0000
,  // measure 47
0001
0000
0000
0001
0100
0000
0010
0000
1000
0000
0000
1000
0100
0000
0010
0000
,  // measure 48
0001
0000
0000
0001
0100
0000
0010
0000
1000
0000
0000
0100
0010
0000
0001
0000
,  // measure 49
2000
0010
3001
0000
0002
0010
1003
0000
,  // measure 50
1010
0000
1001
0000
1100
0000
0011
0000
1001
0000
0101
0000
,  // measure 51
1010
0000
1100
0000
1001
0000
0011
0000
0101
0000
1001
0000
,  // measure 52
1010
0000
0110
0000
0101
0000
0011
0000
0110
0000
1100
0000
,  // measure 53
1000
0100
0010
0001
0100
0010
1000
0001
0100
0001
0010
0100
,  // measure 54
1100
0000
1001
0000
1010
0000
0101
0000
1001
0000
0001
0010
,  // measure 55
1100
0000
1010
0000
1001
0000
0001
0010
0100
1000
0010
0100
,  // measure 56
0101
0000
1010
0000
1100
0000
0011
0000
0101
0000
1010
0000
,  // measure 57
1000
0010
0100
0010
0100
0010
1000
0100
0010
0001
1000
0100
0010
0001
1000
0100
,  // measure 58
0010
0001
0100
0020
1000
0130
1000
0100
,  // measure 59
0001
0020
0230
2300
3002
2003
3020
0230
,  // measure 60
0302
2003
3100
0220
0330
2200
3300
0102
,  // measure 61
0000
0000
1003
0000
0010
0000
0000
0000
0100
0000
0001
0100
0001
0100
0010
1000
,  // measure 62
0002
0010
1003
0200
0010
1300
0010
1000
,  // measure 63
0001
0000
0100
0001
0100
0000
0020
0000
0100
0000
1030
0000
0001
0000
1000
0100
,  // measure 64
1000
0000
0010
0100
0010
0000
1000
0100
1000
0000
1100
0000
0010
0000
0012
0000
,  // measure 65
0000
0000
1003
0000
0001
0000
0102
0000
1003
0000
0001
0010
0001
0010
0100
1000
,  // measure 66
0001
0100
0001
0010
0100
1000
0100
0001
,  // measure 67
0100
1000
0010
1000
0001
0100
1000
0100
,  // measure 68
0010
1000
0100
0001
0100
1000
0010
0100
,  // measure 69
1000
0100
0001
0100
0010
1000
0001
0010
,  // measure 70
0001
0000
0000
0100
0000
0000
0010
0000
0000
1000
0000
0000
0001
0000
0000
0000
0000
0000
0000
0000
0000
0000
0000
0000
0011
0000
0000
0000
0000
0000
0000
0000
0110
0000
0000
0000
0000
0000
0000
0000
1100
0000
0000
0000
0000
0000
0000
0000
,  // measure 71
1000
0000
0000
0010
0000
0000
0100
0000
0000
0001
0000
0000
1000
0000
0000
0000
0000
0000
0000
0000
0000
0000
0000
0000
1010
0000
0000
0000
0000
0000
0000
0000
0110
0000
0000
0000
0000
0000
0000
0000
0101
0000
0000
0000
0000
0000
0000
0000
,  // measure 72
1000
0000
0000
0001
0000
0000
0010
0000
0000
0100
0000
0000
1000
0000
0000
0000
0000
0000
0000
0000
0000
0001
0000
0000
1000
0000
0000
0000
0000
0000
0000
0000
1100
0000
0000
0000
0000
0000
0000
0000
0011
0000
0000
0000
0000
0000
0000
0000
,  // measure 73
0001
0000
0000
0100
0000
0000
0001
0000
0000
0100
0000
0000
0010
0000
0000
1000
0000
0000
0010
0000
0000
1000
0000
0000
0001
0000
0000
0000
0000
0000
0000
0000
0011
0000
0000
0000
0000
0000
0000
0000
2200
0000
0000
0000
0000
0000
0000
0000
,  // measure 74
3300
0000
1000
0000
0100
0000
1000
0000
0001
0000
0100
0000
0010
0000
1000
0001
,  // measure 75
0100
0000
0000
0010
1000
0000
1001
0000
0000
0010
0001
0000
1000
0100
0010
0001
,  // measure 76
1000
0000
0000
1000
0100
0000
0010
0000
0001
0000
0000
0001
0100
0000
0010
0000
,  // measure 77
1000
0000
0000
1000
0001
0000
0010
0000
0100
0000
0000
0100
1000
0000
0010
0000
,  // measure 78
0001
0000
0000
0001
0010
0000
1000
0000
0001
0000
0000
0001
0010
0000
0100
0000
,  // measure 79
0020
0000
0100
0000
0030
0000
0100
0000
1000
0000
0000
1100
0000
0000
1001
0000
,  // measure 80
1000
0000
0000
1000
0010
0000
0100
0000
0001
0000
0000
0001
0010
0000
0100
0000
,  // measure 81
1000
0000
0000
1000
0010
0000
0100
0000
0001
0000
0000
0001
0010
0000
0100
0000
,  // measure 82
1000
0000
0000
1000
0010
0000
0100
0000
0001
0000
0000
0010
0100
0000
1000
0000
,  // measure 83
0002
0100
1003
0000
2000
0100
3001
0000
,  // measure 84
0011
0000
1001
0000
0101
0000
1010
0000
1001
0000
1100
0000
,  // measure 85
0011
0000
0101
0000
1001
0000
1010
0000
1100
0000
1001
0000
,  // measure 86
0011
0000
0110
0000
1100
0000
1010
0000
0110
0000
0101
0000
,  // measure 87
0001
0100
0010
1000
0100
0010
0001
1000
0100
1000
0010
0100
,  // measure 88
0101
0000
1001
0000
0011
0000
1100
0000
1001
0000
1000
0010
,  // measure 89
0101
0000
0011
0000
1001
0000
1000
0010
0100
0001
0010
0100
,  // measure 90
1100
0000
0011
0000
0101
0000
1010
0000
1100
0000
0011
0000
,  // measure 91
0001
0000
0001
0000
0001
0000
1000
0000
1000
0000
0010
0100
,  // measure 92
0120
0000
0100
0000
1000
0000
0001
0000
0100
0000
1000
0000
,  // measure 93
0100
0000
0100
0000
0100
0000
0001
0000
0100
0000
2030
0000
,  // measure 94
0002
0000
3003
0000
;

//---------------dance-single - ----------------
#NOTES:
     dance-single:
     :
     Medium:
     8:
     0.579112,0.574984,0.174929,0.319435,0.289013,468.000000,23.000000,42.000000,0.000000,0.000000,0.000000,0.579112,0.574984,0.174929,0.319435,0.289013,468.000000,23.000000,42.000000,0.000000,0.000000,0.000000:
0000
0000
0000
0000
,
0000
0000
0000
0000
,
0000
0000
0000
0000
,
0000
0000
0000
0000
,
1000
0000
0100
1000
0000
0010
0000
1001
,
0000
0001
0100
0000
0010
1000
0010
0000
,
1000
0000
0100
1000
0000
0010
0000
1001
,
0000
0001
0010
0000
0110
0000
1100
0000
,
0001
0001
1000
0000
1000
1000
0010
0000
,
0010
0010
0100
0000
0100
0100
0001
0000
,
0001
0001
1000
0000
1000
1000
0100
0000
,
0100
0000
0010
0000
0000
0000
0001
0000
1000
0000
0000
0001
0000
0000
1000
0000
,
0001
0100
0010
0000
0010
1000
0001
0000
,
1000
0001
0100
0000
0100
0010
1000
0000
,
0001
0010
0100
0000
1000
0001
0100
0000
,
0020
1000
0001
0130
,
1000
0100
0010
0000
0012
0000
1003
0002
,
0000
0103
0020
0000
2030
0000
3002
0000
,
0013
0000
0100
0010
0000
0010
0001
0000
,
1000
0000
0010
1000
0000
1000
0001
0000
,
0010
0000
0001
0100
0000
0100
0010
1000
,
0001
0010
0100
0110
,
0001
0000
1000
0010
0000
0010
0100
0000
,
0001
0000
1000
0100
0000
0100
0010
0000
,
0001
0000
1000
0010
0000
0010
0100
0000
,
0001
0010
0001
0100
0020
0000
1000
0000
,
0130
0000
0001
0010
0000
0010
0100
0000
,
1000
0000
0010
1000
0000
1000
0001
0000
,
0010
0000
0001
0100
0000
0100
0010
0000
,
0000
0100
0001
0000
1000
0001
0100
0000
,
0001
0000
0010
0100
0000
0100
1000
0000
,
0020
0000
1030
0000
0100
0010
0100
0000
,
2000
3020
0230
0302
,
1003
0001
0100
0000
0001
1000
0100
0000
,
0020
0000
0000
0000
0031
0000
0000
0000
1000
0000
0000
0010
0000
0000
0100
0000
,
0200
0000
0000
0000
0310
0000
0000
0000
1000
0000
0000
0100
0000
0000
0010
0000
,
0020
0230
2300
3002
,
0203
0010
0010
0310
,
2010
0000
0000
0000
3010
0000
0000
0000
0101
0000
0000
0001
0000
0000
0010
0000
,
0200
0000
0000
0000
1300
0000
0000
0000
1000
0000
0000
0010
0000
0000
1000
0000
,
0002
0023
2030
3020
,
0031
0000
0000
0001
0000
0000
1000
0000
0010
0000
0000
0000
0110
0000
0000
0000
,
0001
0001
1000
0000
1000
1000
0010
0000
,
0010
0010
0100
0000
0100
0100
0001
0000
,
0001
0001
1000
0000
1000
1000
0100
0000
,
0100
0000
0010
0000
0000
0000
0001
0000
1000
0000
0000
0001
0000
0000
1000
0000
,
0001
0100
0010
0000
0010
1000
0001
0000
,
1000
0001
0100
0000
0100
0010
1000
0000
,
0001
0010
0100
0000
1000
0001
0100
0000
,
0020
1000
0001
0130
,
0001
0000
0010
0000
0100
0000
1000
0000
0010
0000
1000
0000
,
0001
0000
0100
0000
0001
0000
1000
0000
0100
0000
1000
0000
,
0001
0000
0010
0000
0001
0000
1000
0000
0010
0000
1000
0000
,
0002
0000
1000
0000
1000
0000
1000
0000
1000
0000
1003
0000
,
1010
0000
0010
0000
0100
0000
0001
0000
1000
0000
0100
0000
,
1100
0000
1000
0000
0001
0000
0100
0000
0010
0000
1000
0000
,
1001
0000
1000
0000
0100
0000
0010
0000
0001
0000
1000
0000
,
0002
0000
2000
3003
,
0001
0000
0010
0100
0000
0100
0010
0000
,
0001
0000
1000
0000
0100
1000
0100
0000
,
0010
0000
0001
1000
0000
1010
0000
0101
,
0000
0001
1000
0000
0001
0010
0100
1000
,
0001
0000
0001
0100
0000
0100
0010
1000
,
0100
0010
0100
2000
0000
3010
0000
1000
,
0200
0000
2300
0000
3010
0100
0001
1000
,
0000
0100
0000
0011
0000
0001
1000
0001
,
0200
0010
0010
0010
,
0010
0010
0010
0010
,
0302
1000
1000
1000
,
1000
0000
1000
0000
1000
0000
1000
0003
,
1000
0000
0000
0100
0000
0000
0010
0000
0000
0000
0000
0000
0100
0000
0000
0000
0100
0000
0000
0000
0100
0000
0000
0000
,
1000
0000
0000
0010
0000
0000
0100
0000
0000
0000
0000
0000
0001
0000
0000
0000
0001
0000
0000
0000
0001
0000
0000
0000
,
1000
0000
0000
0001
0000
0000
0100
0000
0000
0000
0000
0000
0010
0000
0000
0000
0010
0000
0000
0000
0010
0000
0000
0000
,
1000
0000
0000
0100
0000
0000
0010
0000
0000
0000
0000
0000
0100
0000
0000
0000
0100
0000
0000
0000
0220
0000
0000
0000
,
0000
0000
0330
0000
1000
0001
1000
0000
,
0010
0000
0000
1010
0000
0000
0101
0000
,
0011
0000
0001
0010
0100
0000
1000
0010
,
0100
0000
0001
1000
0001
0000
1000
0100
,
1000
0000
0010
1000
0001
0000
0100
0001
,
0010
0000
0100
0000
0000
0000
0010
0000
0001
0000
0000
1000
0000
0000
0001
0000
,
1000
0000
0100
1000
0010
0000
0100
0001
,
0010
0000
0001
1000
0010
0000
1000
0001
,
0100
0000
0001
0010
0100
0000
0010
0001
,
0200
0010
1000
0301
,
0010
0000
1000
0000
0100
0000
1000
0000
0010
0000
0100
0000
,
0001
0000
0010
0000
0001
0000
0100
0000
0010
0000
1000
0000
,
0001
0000
0100
0000
0001
0000
0010
0000
0100
0000
1000
0000
,
0020
0000
0100
0000
0100
0000
0100
0000
0100
0000
0100
0030
,
0101
0000
0001
0000
0010
0000
0100
0000
1000
0000
0010
0000
,
1010
0000
0010
0000
0100
0000
0001
0000
0010
0000
0100
0000
,
1100
0000
1000
0000
0001
0000
0100
0000
0001
0000
0010
0000
,
0200
0000
0010
0000
0010
0000
0320
0000
0100
0000
0130
0000
,
0220
0000
0000
0000
,
0000
0000
0000
0000
,
0000
0000
0330
0000
;

//---------------dance-single - ----------------
#NOTES:
     dance-single:
     :
     Easy:
     4:
     0.283580,0.395301,0.121690,0.182535,0.076056,221.000000,16.000000,24.000000,0.000000,0.000000,0.000000,0.283580,0.395301,0.121690,0.182535,0.076056,221.000000,16.000000,24.000000,0.000000,0.000000,0.000000:
0000
0000
0000
0000
,
0000
0000
0000
0000
,
0000
0000
0000
0000
,
0000
0000
0000
0000
,
1000
0000
0000
0100
0000
0001
0000
0100
,
0000
1000
0001
0001
,
0100
0000
0000
0010
0000
1000
0000
0001
,
0000
1000
0100
1000
,
0001
0000
0100
0000
,
0010
0000
1000
0000
,
0001
0000
0010
0000
,
0200
0000
0000
0300
,
1000
0000
0001
0000
,
0010
0000
0001
0000
,
0100
0000
0010
0000
,
2000
0000
0000
3000
,
0001
0000
0000
0000
0010
0000
0000
0100
,
0000
0100
1000
0000
,
0001
0000
0000
0001
0000
0000
0000
0000
,
1000
0000
0000
1000
0000
0000
0000
0000
,
0010
0000
0000
0010
0000
0000
0000
0000
,
0100
0010
0100
0000
,
0001
0000
0000
0001
0000
0000
0000
0000
,
0010
0000
0000
0010
0000
0000
0000
0000
,
0100
0000
0000
0100
0000
0000
0000
0000
,
1000
0001
2000
3010
,
0200
0000
0000
0301
0000
0000
0000
0000
,
0020
0000
0000
0130
0000
0000
1000
0000
,
0002
0000
0000
0103
0000
0000
0000
0000
,
0000
0010
1000
0000
0001
0000
1000
0000
,
0200
0000
0000
0310
0000
0000
0001
0000
,
2000
0000
3010
0010
,
0100
0001
0000
0001
,
1000
0000
1001
0000
,
0110
0000
0001
1000
,
0001
0000
0100
0010
,
1000
1000
0001
0001
,
0020
0000
0000
0000
,
0130
0000
0000
0100
0000
0000
1000
0000
,
0000
1000
0000
0000
0001
0000
1000
0000
,
0001
0000
0000
0001
0000
0000
1000
0000
,
0020
0000
0130
0110
,
0001
0000
0100
0000
,
0010
0000
1000
0000
,
0001
0000
0010
0000
,
0200
0000
0000
0300
,
1000
0000
0001
0000
,
0010
0000
0001
0000
,
0100
0000
0010
0000
,
2000
0000
0000
3000
,
0001
0000
0001
0000
,
1000
0000
1000
0000
,
0010
0000
0010
0000
,
0200
0000
0000
0000
0000
0000
0301
0000
0100
0000
0001
0000
,
0101
0000
0000
0000
0000
0000
1000
0000
0100
0000
1000
0000
,
1100
0000
0000
0000
0000
0000
0001
0000
0010
0000
0001
0000
,
0011
0000
0000
0000
0000
0000
1000
0000
0001
0000
1000
0000
,
1002
0000
2000
3003
,
0001
1000
0100
0000
,
1000
0010
0100
0000
,
0001
0000
0000
1000
0000
0100
0000
1000
,
0000
0010
0100
0001
,
0010
0000
0001
0000
,
1000
0100
1000
0000
,
0010
0000
1000
0000
0000
0100
0000
0010
,
0000
0000
0000
0001
0000
0000
0000
0000
,
2000
0000
0000
0000
,
0000
0000
0000
0000
,
3002
0000
0000
0000
,
0000
0000
0000
0000
,
0103
0110
1000
0000
,
0001
0110
2000
0000
,
3010
1010
0002
0000
,
0013
0011
2000
0000
,
0000
3010
0100
0001
,
1000
0000
0000
1100
0000
0000
0101
0000
,
0001
0000
1000
0000
,
0010
0000
0100
0000
,
0001
0000
0010
0000
,
0200
0000
0000
0000
,
1300
0000
0001
0000
,
0100
0000
0010
0000
,
1000
0000
0001
0000
,
0020
0000
0000
0000
,
0031
0000
0001
0000
,
1000
0000
1000
0000
,
0010
0000
0010
0000
,
0200
0000
0000
0000
0000
0000
0301
0000
0100
0000
0001
0000
,
0101
0000
0000
0000
0000
0000
1000
0000
0100
0000
1000
0000
,
1100
0000
0000
0000
0000
0000
0001
0000
0010
0000
0001
0000
,
0011
0000
0000
0000
0000
0000
1000
0000
0010
0000
1000
0000
,
0001
0000
0010
0000
0001
0000
0010
0000
0100
0000
1000
0000
,
0002
0000
0000
0000
,
0000
0000
0000
0000
,
0000
0000
0003
0000
;

//---------------dance-single - ----------------
#NOTES:
     dance-single:
     :
     Beginner:
     1:
     0.115171,0.142985,0.000000,0.098873,0.000000,93.000000,0.000000,13.000000,0.000000,0.000000,0.000000,0.115171,0.142985,0.000000,0.098873,0.000000,93.000000,0.000000,13.000000,0.000000,0.000000,0.000000:
0000
0000
0000
0000
,
0000
0000
0000
0000
,
0000
0000
0000
0000
,
0000
0000
0000
0000
,
1000
0000
0000
0000
,
0000
0000
0000
0000
,
0001
0000
0000
0000
,
0000
0000
0000
0000
,
0100
0000
0000
0000
,
0010
0000
0000
0000
,
1000
0000
0000
0000
,
0002
0000
0003
0000
,
0010
0000
0000
0000
,
0001
0000
0000
0000
,
1000
0000
0000
0000
,
0020
0000
0030
0000
,
0100
0000
0100
0000
,
0100
0000
0000
0000
,
0001
0000
0000
0000
,
1000
0000
0000
0000
,
0010
0000
0000
0000
,
0100
0100
0100
0000
,
0001
0000
0000
0000
,
1000
0000
0000
0000
,
0001
0000
0000
0000
,
0010
0010
0010
0000
,
0100
0000
0000
0000
,
1000
0000
0000
0000
,
0001
0000
0000
0000
,
0100
0000
0000
0000
,
0010
0000
0000
0000
,
1000
0000
0001
0000
,
1000
0000
0000
0000
,
0100
0000
0100
0000
,
0100
0000
0000
0000
,
1000
0000
0000
0000
,
0001
0000
0001
0000
,
0100
0000
0000
0000
,
0010
0000
0000
0000
,
1000
0000
0000
0000
,
0001
0000
1000
0000
,
0001
0000
0000
0000
,
1000
0000
0000
0000
,
0001
0000
0000
0000
,
0010
0000
0000
0000
,
0200
0000
0300
0000
,
1000
0000
0000
0000
,
0001
0000
0000
0000
,
0100
0000
0000
0000
,
0020
0000
0030
0000
,
1000
0000
0000
0000
,
0100
0000
0000
0000
,
0010
0000
0000
0000
,
0002
0000
0000
0000
,
1003
0000
0000
0000
,
0001
0000
0000
0000
,
0100
0000
0000
0000
,
0020
0000
0000
0030
,
1000
0000
0000
0000
,
1000
0000
0000
0000
,
0001
0000
0000
0000
,
0001
0000
0000
0000
,
0010
0000
0000
0000
,
0010
0000
0000
0000
,
0100
0000
0000
0000
,
1000
0000
0000
0000
,
0002
0000
0000
0000
,
0003
0000
0000
0000
,
2000
0000
0000
0000
,
3000
0000
0000
0000
,
0000
0010
0000
0000
,
0000
0100
0000
0000
,
0000
0010
0000
0000
,
0000
0000
0000
0000
,
0000
0000
0000
0000
,
0001
0000
0000
0001
,
1000
0000
0000
0000
,
0010
0000
0000
0000
,
0100
0000
0000
0000
,
0002
0000
0003
0000
,
0001
0000
0000
0000
,
0100
0000
0000
0000
,
0010
0000
0000
0000
,
2000
0000
3000
0000
,
0001
0000
0000
0000
,
0010
0000
0000
0000
,
0100
0000
0000
0000
,
2000
0000
0000
0000
,
3001
0000
0000
0000
,
0100
0000
0000
0000
,
0010
0000
0000
0000
,
2000
0000
0000
3000
,
0002
0000
0000
0000
,
0000
0000
0000
0000
,
0003
0000
0000
0000
;
