#TITLE:Na Na Na;
#SUBTITLE:;
#ARTIST:Pentatonix;
#TITLETRANSLIT:;
#SUBTITLETRANSLIT:;
#ARTISTTRANSLIT:;
#CREDIT:Lisek;
#BANNER:[ROUND K] - Na Na Na.png;
#BACKGROUND:[ROUND K] - Na Na Na-bg.png;
#LYRICSPATH:;
#CDTITLE:cdtitle.png;
#MUSIC:[ROUND K] - Na Na Na.ogg;
#OFFSET:0.016;
#SAMPLESTART:41.515;
#SAMPLELENGTH:13.000;
#SELECTABLE:YES;
#BPMS:0.000=103.980;
#STOPS:;
#BGCHANGES:;

//---------------dance-single - ----------------
#NOTES:
     dance-single:
     Lisek:
     Hard:
     8:
     0.518,0.487,0.464,0.323,0.544: // measure 1
0000
0000
0000
0000
,  // measure 2
0000
0000
0000
0000
,  // measure 3
2000
0000
3002
0000
0103
0010
1000
0001
,  // measure 4
2000
0000
3002
0000
0013
0100
1000
0001
,  // measure 5
2000
0000
3001
0000
0100
0010
1000
0100
,  // measure 6
0020
0032
0003
0000
,  // measure 7
1002
0000
0023
0000
0130
1000
0001
0010
,  // measure 8
0002
0000
2003
0000
3010
0100
0010
1000
,  // measure 9
0002
0000
1003
0000
0100
0010
0001
0010
,  // measure 10
0200
0320
0030
0000
,  // measure 11
1002
0200
0300
1003
,  // measure 12
2001
0000
0010
0000
3001
0010
0001
1000
,  // measure 13
0010
0100
0000
0010
0000
0000
0000
1000
0000
1000
0000
1000
0000
0001
0010
0000
,  // measure 14
2200
0000
3300
1100
0000
0000
0000
0001
0000
0100
0000
0001
1000
0000
0001
0000
,  // measure 15
1002
0200
0300
1003
,  // measure 16
2001
0000
3010
0000
1000
0100
0010
0001
,  // measure 17
1000
0001
0000
0100
0000
0000
0000
0001
0000
0001
0000
0001
0000
1000
0100
0000
,  // measure 18
0022
0000
0033
0011
0000
0000
0000
0001
0000
1000
0010
0100
0010
0000
0100
0000
,  // measure 19
1001
0000
0000
0001
1000
0001
0000
1000
0000
0001
0000
0100
0010
0000
0100
0000
,  // measure 20
0110
0000
0000
0010
0100
0001
0000
1001
0000
0000
1000
0100
0010
0000
0100
0000
,  // measure 21
0011
0000
0000
0001
0100
0001
0000
0010
0000
0100
0000
1000
0100
0000
1000
0000
,  // measure 22
1010
0000
0000
0010
0100
0001
0000
0011
0000
0000
0010
0100
1000
0000
0001
0000
,  // measure 23
1001
0000
0000
1000
0010
1000
0000
0001
0000
1000
0000
0010
0100
0000
0010
0000
,  // measure 24
0110
0000
0000
0100
0010
1000
0000
1001
0000
0000
0001
0010
0100
0000
0010
0000
,  // measure 25
1100
0000
0000
1000
0010
1000
0000
0010
0000
0100
0000
0001
0010
0000
0001
0000
,  // measure 26
0101
0000
0000
0100
0010
1000
0000
1100
0000
0000
0100
0010
0001
0000
1000
0000
,  // measure 27
2200
0000
0000
0010
0000
0000
0010
0000
0011
0000
0000
0001
0000
0000
0001
0000
,  // measure 28
3311
0000
0000
1000
0000
0000
0100
0000
0000
0010
0000
0000
0001
0000
0000
0000
,  // measure 29
0202
0000
0000
0010
0000
0000
0010
0000
1010
0000
0000
1000
0000
0000
1000
0000
,  // measure 30
1313
0000
0001
0100
0000
0100
0001
0000
1000
0100
0000
0100
1000
0000
0000
0000
,  // measure 31
2200
0000
0000
0010
0001
0000
0010
0000
0011
0000
0000
0001
0010
0000
0001
0000
,  // measure 32
3311
0000
0000
1000
0000
0000
0100
0000
0000
0010
0000
0000
0001
0000
0000
0000
,  // measure 33
0202
0000
0000
0010
1000
0000
0010
0000
1010
0000
0000
1000
0010
0000
1000
0000
,  // measure 34
1313
0000
0000
0000
,  // measure 35
1001
0000
0000
1000
0100
0010
0000
0100
0000
0010
0000
0001
0010
0000
0100
0000
,  // measure 36
0110
0000
0000
0100
0010
0001
0000
1001
0000
0000
0001
0010
0100
0000
0010
0000
,  // measure 37
1100
0000
0000
1000
0010
0100
0000
0001
0000
0010
0000
0100
1000
0000
0001
0000
,  // measure 38
0101
0000
0000
0100
0010
1000
0000
1100
0000
0000
0100
0010
0001
0000
1000
0000
,  // measure 39
1001
0000
0000
0001
0010
0100
0000
1000
0000
0001
0000
0010
0100
0000
0010
0000
,  // measure 40
0110
0000
0000
0010
0001
1000
0000
1001
0000
0000
1000
0100
0010
0000
0100
0000
,  // measure 41
0011
0000
0000
0001
0100
0010
0000
1000
0000
0010
0000
0100
0001
0000
1000
0000
,  // measure 42
1010
0000
0000
0010
0100
0001
0000
0011
0000
0000
0010
0100
1000
0000
0001
0000
,  // measure 43
1001
0000
0000
0000
;

//---------------dance-single - ----------------
#NOTES:
     dance-single:
     Lisek:
     Beginner:
     1:
     0.060,0.085,0.010,0.060,0.000:
0000
0000
0000
0000
,
0000
0000
0000
0000
,
1000
0000
0000
0000
,
0001
0000
0000
0000
,
1000
0000
0000
0000
,
0002
0000
0003
0000
,
0100
0000
0000
0000
,
0010
0000
0000
0000
,
0100
0000
0000
0000
,
0020
0000
0030
0000
,
1000
0000
0000
0000
,
0001
0000
0000
0000
,
1000
0000
0000
0000
,
0000
0000
0000
0000
,
0010
0000
0000
0000
,
0100
0000
0000
0000
,
0010
0000
0000
0000
,
0000
0000
0000
0000
,
1000
0000
0000
0000
,
0001
0000
0000
0000
,
0100
0000
0000
0000
,
0010
0000
0000
0000
,
1000
0000
0000
0000
,
0001
0000
0000
0000
,
0100
0000
0000
0000
,
0010
0000
0000
0000
,
2000
0000
0000
0000
,
3000
0000
0000
0000
,
0002
0000
0000
0000
,
0003
0000
0000
0000
,
0200
0000
0000
0000
,
0300
0000
0000
0000
,
0020
0000
0000
0000
,
0030
0000
0000
0000
,
1000
0000
0000
0000
,
0001
0000
0000
0000
,
0100
0000
0000
0000
,
0010
0000
0000
0000
,
1000
0000
0000
0000
,
0001
0000
0000
0000
,
0100
0000
0000
0000
,
0010
0000
0000
0000
,
1001
0000
0000
0000
;

//---------------dance-single - ----------------
#NOTES:
     dance-single:
     Lisek:
     Medium:
     5:
     0.331,0.339,0.504,0.282,0.000:
0000
0000
0000
0000
,
0000
0000
0000
0000
,
2000
0000
3002
0000
1003
0010
1000
0000
,
0002
0000
2003
0000
3001
0100
0001
0000
,
2000
0000
3001
0000
0100
0010
0100
0000
,
2002
0000
3003
0000
,
2001
0000
3002
0000
1003
0100
1000
0000
,
0002
0000
2003
0000
3001
0010
0001
0000
,
2000
0000
3001
0000
0100
0010
0100
0000
,
2002
0000
3003
0000
,
2000
3200
0000
0302
,
0203
0000
2300
0000
3001
1000
0001
1000
,
0010
0100
0010
0000
1000
0000
1000
0000
,
1001
0000
0001
0001
,
0002
0203
0000
2300
,
3200
0000
0302
0000
1003
0001
1000
0001
,
0100
0010
0100
0000
0001
0000
0001
0000
,
1001
0000
1000
1000
,
1001
0000
0110
0000
1000
0001
1000
0000
,
1001
0110
1001
0000
,
0101
0000
1010
0000
0001
0100
0001
0000
,
0101
1010
0101
0000
,
1100
0000
0011
0000
1000
0100
1000
0000
,
1100
0011
1100
0000
,
1001
0000
0110
0000
0001
1000
0001
0000
,
1001
0110
1001
0000
,
2100
0000
0100
0000
,
3100
0000
0100
0000
,
0021
0000
0001
0000
,
0031
0000
0001
0000
,
0210
0010
0010
0010
,
0310
0100
0010
0100
,
2001
0001
0001
0001
,
3001
0000
0000
0000
,
1001
0000
0110
0000
0001
1000
0001
0000
,
1001
0110
1001
0000
,
1010
0000
0101
0000
1000
0010
1000
0000
,
1010
0101
1010
0000
,
0011
0000
1100
0000
0001
0010
0001
0000
,
0011
1100
0011
0000
,
0110
0000
1001
0000
0100
0010
0100
0000
,
0110
1001
0110
0000
,
1001
0000
0000
0000
;

//---------------dance-single - ----------------
#NOTES:
     dance-single:
     Lisek:
     Easy:
     3:
     0.210,0.233,0.202,0.202,0.000:
0000
0000
0000
0000
,
0000
0000
0000
0000
,
2000
0000
3001
1000
,
0002
0000
0103
0001
,
0200
0300
0010
0100
,
0020
0000
0030
0000
,
2000
0000
3010
1000
,
0020
0000
0130
0001
,
0200
0300
0001
1000
,
0002
0000
0003
0000
,
2000
0000
0000
0000
,
3002
0000
0000
0000
,
1003
0000
0000
0000
,
1001
0000
0000
0000
,
0002
0000
0000
0000
,
2003
0000
0000
0000
,
3001
0000
0000
0000
,
1001
0000
0000
0000
,
1001
1000
0001
1000
,
1001
0001
1000
0000
,
0101
0001
0100
0001
,
0101
0100
0001
0000
,
1010
1000
0010
1000
,
1010
0010
1000
0000
,
1001
0001
1000
0001
,
1001
1000
0001
0000
,
2000
0000
0000
3000
0002
0000
0000
0003
,
0200
0000
0000
0300
0020
0000
0000
0030
,
2000
0000
0000
3000
0002
0000
0000
0003
,
0200
0000
0000
0300
0020
0000
0000
0030
,
1000
0001
0100
0010
,
1000
0001
0100
0010
,
1000
0001
0100
0010
,
0110
0000
0000
0000
,
1001
1000
0001
1000
,
1001
0001
1000
0000
,
0101
0001
0100
0001
,
0101
0100
0001
0000
,
1010
1000
0010
1000
,
1010
0010
1000
0000
,
1001
0001
1000
0001
,
1001
1000
0001
0000
,
1001
0000
0000
0000
;
