#TITLE:Monstrous Turtles!;
#SUBTITLE:;
#ARTIST:zircon;
#TITLETRANSLIT:;
#SUBTITLETRANSLIT:;
#ARTISTTRANSLIT:;
#CREDIT:;
#BANNER:;
#BACKGROUND:;
#LYRICSPATH:;
#CDTITLE:;
#MUSIC:Monstrous Turtles!.ogg;
#OFFSET:0.000;
#SAMPLESTART:37.182;
#SAMPLELENGTH:18.640;
#SELECTABLE:YES;
#BPMS:0.000=51.500,8.000=103.000,40.000=206.000,200.000=103.000,232.000=25.750,234.000=51.500;
#STOPS:;
#BGCHANGES:;

//---------------dance-single - ----------------
#NOTES:
     dance-single:
     :
     Hard:
     13:
     0.962,0.894,0.081,0.143,1.000: // measure 1
0000
0000
0002
0000
,  // measure 2
1003
0100
1000
0001
0100
0010
1000
0100
0001
0100
1000
0010
0100
0001
0100
0010
,  // measure 3
2000
0000
3010
0000
0100
0001
0100
0000
0010
1000
0010
0100
0001
0100
0010
1000
,  // measure 4
0100
0010
0001
0100
0010
1000
0100
1000
0001
0010
0100
0100
1000
0001
0100
0010
,  // measure 5
1000
0100
0010
0001
1000
0010
0100
0001
1000
0100
0010
0100
0010
0001
0100
0010
,  // measure 6
1000
1000
0010
0100
0001
0001
0100
0010
1000
0100
0010
0100
1000
0001
0100
0010
,  // measure 7
1000
1000
1000
0000
0010
0010
0000
0100
0000
0001
0100
0010
1000
0000
1010
0000
,  // measure 8
1000
0100
0010
0001
0100
0000
0010
1000
0000
1000
0010
0100
0100
0010
1000
0100
,  // measure 9
0010
0010
0010
0001
1000
1000
0010
0010
0100
0001
0100
0010
1000
0100
0010
0001
,  // measure 10
0101
0000
0000
0000
0000
0000
1000
0000
1001
0000
0000
0000
0000
0000
1000
0000
1010
0000
0010
0000
0100
0000
0001
0100
0010
0000
0010
0000
1000
0000
1000
0000
,  // measure 11
1001
0001
0100
1000
0100
0001
0010
1000
,  // measure 12
0010
0001
0100
0010
1000
0100
0001
0100
,  // measure 13
1000
0001
0100
1000
0001
0010
1000
0100
,  // measure 14
0010
0001
0100
1000
0001
0010
1000
0001
,  // measure 15
0100
0010
1000
0100
0010
0001
0100
0010
,  // measure 16
1000
0100
0001
1000
0010
0100
1000
0001
,  // measure 17
0100
0010
1000
0100
0001
0100
0010
0100
,  // measure 18
1000
0000
0010
0000
0100
0000
0001
1000
0010
0000
0100
0000
0001
0000
1000
0000
,  // measure 19
1002
1000
1003
0010
0100
0001
0100
0010
,  // measure 20
2000
3100
0010
0001
0200
0310
1000
0100
,  // measure 21
0020
0031
0100
0010
2000
3010
0100
0001
,  // measure 22
2000
0000
3020
0000
0130
0100
0001
0001
,  // measure 23
0010
0000
0000
0000
0000
0000
0000
0000
0100
0000
0000
0000
0000
0000
0000
0000
1000
0000
0000
0000
0000
0000
0000
0000
0001
0000
0000
0100
0000
0000
0010
0000
0000
1000
0000
0000
0100
0000
0000
0010
0000
0000
0100
0000
0000
1000
0000
0000
,  // measure 24
0001
0000
0100
0000
0010
0000
1000
0000
0001
0100
0010
1000
0100
1000
0001
0100
,  // measure 25
0020
1000
1000
1030
0001
0100
0010
1000
,  // measure 26
0200
0000
0000
0000
0000
0000
0000
0000
0310
0001
0010
0001
1000
0100
1000
0100
,  // measure 27
1000
0010
1000
0010
0100
0001
0100
0001
1000
0010
1000
0010
0100
0001
0100
0001
,  // measure 28
1000
0100
0010
0001
0010
0100
1000
0001
0100
0010
1000
0100
0010
0100
1000
0001
,  // measure 29
0100
0010
1000
0100
1000
0001
0100
0010
1000
0100
0010
0100
1000
0001
0100
0010
,  // measure 30
1000
0100
1000
0100
0010
0001
0010
0001
0100
0010
0100
0010
1000
0100
0010
0100
,  // measure 31
1000
0001
0100
0010
1000
0100
0010
0100
1000
0001
0100
0010
1000
0100
0010
0100
,  // measure 32
1000
0001
0100
0010
1000
0100
0010
0001
0100
0010
1000
0100
1000
0001
0010
0001
,  // measure 33
1000
0100
0010
0100
1000
0001
0100
0010
1000
0100
1000
0001
0100
0010
1000
0100
,  // measure 34
0010
0100
1000
0001
0100
0010
0100
0001
1000
0100
1000
0001
0100
0010
1000
0100
,  // measure 35
0010
0100
1000
0001
0100
0010
1000
0100
0010
0001
0100
0010
1000
0100
1000
0001
,  // measure 36
0100
0010
0100
0010
1000
0001
0100
0010
0100
0001
1000
0100
1000
0001
0100
0010
,  // measure 37
1000
0100
1000
0100
1000
0010
0100
0001
0100
0010
1000
0100
0010
0100
1000
0001
,  // measure 38
0100
0010
1000
0100
0010
0100
0010
0001
0100
0010
0100
0010
1000
0100
0010
0100
,  // measure 39
1000
0001
0100
0010
1000
0100
1000
0001
0100
0010
1000
0100
0010
0001
0010
0001
,  // measure 40
1000
0100
1000
0001
0100
0010
0100
0001
1000
0100
1000
0001
0100
0010
0100
0001
,  // measure 41
1000
0100
1000
0001
0100
0010
1000
0100
0010
0100
1000
0001
0100
0010
1000
0100
,  // measure 42
0010
0100
1000
0001
0100
0010
1000
0100
1000
0001
0010
0100
1000
0100
0010
0100
,  // measure 43
1000
0001
0100
0010
1000
0100
0010
0001
0100
0010
0100
0010
1000
0100
1000
0001
,  // measure 44
0100
0010
0100
0010
1000
0100
0010
0100
1000
0001
0100
0010
1000
0100
0010
0100
,  // measure 45
1000
0001
0100
0010
1000
0100
1000
0100
0010
0001
0010
0001
0100
0010
0100
0010
,  // measure 46
1000
0100
1000
0001
0100
0010
1000
0010
0100
0001
0100
0010
1000
0100
0010
0001
,  // measure 47
0010
0100
1000
0100
0010
0001
0100
0010
1000
0100
1000
0100
0010
0001
0010
0001
,  // measure 48
0100
0010
0100
0010
1000
0100
0010
0001
0100
0010
1000
0100
1000
0001
0100
0010
,  // measure 49
1000
0100
0010
0100
1000
0001
0100
0010
1000
0100
0010
0100
1000
0001
0100
0010
,  // measure 50
1000
0100
0010
0100
1000
0001
0100
0010
1000
0100
0010
0001
0100
0010
1000
0100
,  // measure 51
0010
0000
0001
0100
0001
0000
1000
0010
1000
0000
0001
0100
0001
0000
0100
0001
,  // measure 52
0100
0000
0010
1000
0100
0000
0010
0001
0100
0000
0010
1000
0100
0000
0010
0000
,  // measure 53
0101
0000
0010
1000
0100
0000
0010
0001
0100
0000
0010
1000
0100
0000
0010
0001
,  // measure 54
0100
0000
0010
1000
0100
0000
0001
0100
1000
0000
0010
0100
0001
0000
0100
0000
,  // measure 55
1010
0000
0100
0001
0100
0000
0010
1000
0010
0000
0100
0001
0100
0000
0010
1000
,  // measure 56
0100
0000
0010
0001
0100
0000
0010
1000
0100
0000
0010
0001
0100
0000
0010
0000
,  // measure 57
0000
1000
0000
0000
0000
0000
0000
0000
0000
0020
0000
0000
0000
0000
0000
0000
0000
2030
0000
0000
0000
0000
0000
0000
0000
0000
0000
0000
0000
0000
0000
0000
0000
3002
0000
0000
0000
0000
0000
0000
0000
0000
0000
0000
0000
0000
0000
0000
0000
0000
0000
2003
0000
0000
0000
0000
0000
0000
0000
0000
0000
0000
0000
0000
,  // measure 58
0000
0000
0000
0000
0000
0000
3002
0000
0000
0000
0000
0000
0000
0000
0000
0000
0000
0000
0000
0000
0000
0000
0000
0000
0000
0000
0000
0000
0000
0000
0000
0000
0000
0000
0000
0000
0000
0000
0000
0000
0000
0000
0000
1003
0000
0000
0000
0000
0000
0000
0000
0000
0000
0000
0000
0000
0000
0000
0000
0000
0000
0000
0000
0000
,  // measure 59
0000
0000
0000
0000
0000
0000
0000
0000
0000
0000
0000
0000
0000
0000
0000
0000
0000
0000
0000
0000
0000
0000
0000
0000
0000
1001
0000
0000
0000
0000
0000
0000
;

//---------------dance-single - Copied from----------------
#NOTES:
     dance-single:
     Copied from:
     Medium:
     10:
     0.608,0.710,0.045,0.197,0.282:
0000
0000
0002
0000
,
1003
0100
1000
0001
0100
0010
1000
0100
0001
0100
1000
0010
0100
0001
0100
0010
,
2000
3010
0100
0001
0200
0310
2000
3100
,
0020
0031
0200
0310
2000
3100
0010
0001
,
0100
0010
2000
3100
0020
0031
0200
0310
,
2000
3010
1000
0001
1001
1000
0010
1000
,
1000
0001
1000
0000
1000
0100
0000
0010
0000
0001
0100
0010
1000
0000
0010
0000
,
1000
0100
0010
0001
0100
0000
0010
1000
0000
1000
0010
0100
0010
1000
0100
0000
,
0001
0010
0001
0010
0100
0000
0000
1000
0000
0100
0010
0001
0010
0100
1000
0100
,
1100
0000
0000
1000
0001
0000
0000
1000
0010
0100
0001
0100
0010
1000
0001
1000
,
0001
0100
0001
0100
0001
1000
0100
1000
,
0100
0000
0000
0100
0000
0000
0010
0000
,
0001
0100
0001
0000
0100
0010
0000
0010
,
1000
0000
1000
0100
0000
0010
0001
0000
,
0100
0010
0100
0000
0010
1000
0000
1000
,
0100
0000
0010
0001
0000
0100
0010
0000
,
1000
0001
1000
0000
0001
0100
0000
0010
,
1000
0000
0100
0010
0000
0001
1000
0000
,
1000
0001
1000
0000
0100
0000
0010
0000
,
2000
0000
3020
0000
,
0230
0000
0302
0000
,
1003
0000
0001
0000
1000
0001
1000
0001
,
1000
0000
0000
0000
0100
0000
0000
0000
0010
0000
0000
0000
0001
0000
0000
0100
0000
0000
0001
0000
0000
0100
0000
0000
,
0001
0100
0010
1000
0001
0010
0100
1000
,
0020
0000
0000
0030
1000
0000
0010
0000
,
0200
0000
0000
0000
0310
0010
1000
1000
,
0001
0010
0100
1000
0001
0010
0100
1000
,
0001
0100
0010
1000
0001
0100
0010
1000
,
0100
0010
0001
0100
0010
1000
0100
1000
,
0001
0100
0010
0100
0001
1000
0100
0010
,
0100
1000
0001
0100
0010
1000
0100
1000
,
0001
0100
0010
1000
0100
1000
0001
0100
,
0001
0010
0001
0010
0100
1000
0100
1000
,
0001
0100
0001
0100
0010
1000
0010
1000
,
0001
0100
0010
1000
0001
0100
0001
1000
,
0100
0010
0001
0100
0010
1000
0100
0010
,
0001
0100
0010
1000
0100
0010
0001
0100
,
0010
1000
0100
1000
0001
0100
0010
1000
,
0100
0010
0001
0100
0010
1000
0100
1000
,
0001
0100
0010
1000
0100
1000
0001
0100
,
0010
1000
0010
1000
0001
0100
0001
1000
,
0010
0100
0001
0100
0010
1000
0100
0010
,
0001
0100
1000
0100
0001
0100
0010
1000
,
0100
0001
0100
1000
0001
0010
1000
0010
,
0001
0100
1000
0100
0001
0010
1000
0010
,
0001
0100
0010
1000
0100
0010
0001
0100
,
0010
1000
0100
0010
0001
0100
1000
0100
,
0010
1000
0100
0001
0100
1000
0010
0100
,
0001
0100
1000
0100
0001
0100
0010
1000
,
0100
0010
0001
0100
0010
1000
0100
0010
,
0001
0000
0001
0100
0001
0000
1000
0010
1000
0000
0001
0100
0001
0000
0100
0001
,
0100
0000
0010
1000
0100
0000
0010
0001
0100
0000
0010
1000
0100
0000
0010
0000
,
0101
0000
0010
1000
0100
0000
0010
0001
0100
0000
0010
1000
0100
0000
0010
0001
,
0100
0000
0010
1000
0100
0000
0001
0100
1000
0000
0010
0100
0001
0000
0100
0000
,
1010
0000
0100
0001
0100
0000
0010
1000
0010
0000
0100
0001
0100
0000
0010
1000
,
0100
0000
0010
0001
0100
0000
0010
1000
0100
0000
0010
0001
0100
0000
0010
0000
,
0000
1000
0000
0000
0000
0000
0000
0000
0000
0020
0000
0000
0000
0000
0000
0000
0000
2030
0000
0000
0000
0000
0000
0000
0000
0000
0000
0000
0000
0000
0000
0000
0000
3002
0000
0000
0000
0000
0000
0000
0000
0000
0000
0000
0000
0000
0000
0000
0000
0000
0000
2003
0000
0000
0000
0000
0000
0000
0000
0000
0000
0000
0000
0000
,
0000
0000
0000
0000
0000
0000
3002
0000
0000
0000
0000
0000
0000
0000
0000
0000
0000
0000
0000
0000
0000
0000
0000
0000
0000
0000
0000
0000
0000
0000
0000
0000
0000
0000
0000
0000
0000
0000
0000
0000
0000
0000
0000
1003
0000
0000
0000
0000
0000
0000
0000
0000
0000
0000
0000
0000
0000
0000
0000
0000
0000
0000
0000
0000
,
0000
0000
0000
0000
0000
0000
0000
0000
0000
0000
0000
0000
0000
0000
0000
0000
0000
0000
0000
0000
0000
0000
0000
0000
0000
1001
0000
0000
0000
0000
0000
0000
;

//---------------dance-single - ----------------
#NOTES:
     dance-single:
     :
     Easy:
     6:
     0.380,0.447,0.179,0.179,0.049:
0000
0000
0002
0000
,
1003
0100
0001
0100
,
2000
3000
0002
0203
,
0320
2030
3001
0000
,
0000
2000
3002
2003
,
3010
1000
1001
0001
,
1000
0000
0100
0000
1000
0000
0000
0001
0000
0000
0100
0000
0100
0000
0000
0000
,
0010
0000
1000
0000
0010
0000
0000
0100
0000
0000
0000
0000
0100
0000
0001
0000
,
0100
0000
0010
0000
1000
0000
0000
0010
0000
0000
1000
0000
0100
0000
0000
0000
,
0011
0000
1001
0000
0010
0100
0010
1000
,
1001
0001
0100
0010
,
1000
0100
0010
0100
,
1000
0001
0100
0010
,
1000
0100
0010
0001
,
0100
0010
1000
0100
,
0010
0100
1000
0001
,
0100
0010
1000
0100
,
0100
0010
0010
0001
,
0100
0001
0100
0010
,
2000
0000
3020
0000
,
0230
0000
0302
0000
,
1003
0001
1000
0001
,
1000
0000
0000
0000
0001
0100
0001
0100
,
0001
0100
0001
0100
0001
0010
0100
1000
,
0020
0000
0000
0030
1000
0000
0010
0000
,
0200
0000
0310
1000
,
0001
0100
0001
0100
,
0010
1000
0010
1000
,
0001
0100
0010
1000
,
0100
0010
0100
1000
,
0001
0100
0010
1000
,
0100
1000
0100
1000
,
0001
0100
0010
1000
,
0100
0010
0001
0100
,
1010
1000
0010
0110
,
0100
0001
1001
0001
,
0110
0010
1000
1010
,
1000
0001
1001
0010
,
0110
0100
0100
1010
,
1000
1000
1001
0010
,
1001
0100
0100
1001
,
0010
0010
1001
0100
,
1001
0001
0100
0101
,
0010
1000
1010
0001
,
1000
0100
0001
0100
,
1000
0010
0001
0010
,
1000
0100
0010
0100
,
1000
0001
0100
0010
,
1000
0100
0010
0100
,
1000
0001
0100
0010
,
1000
0100
1000
0100
0010
0001
0010
0001
,
0100
0010
0100
0010
1000
0100
1000
0100
,
0010
0001
0010
0001
0100
0010
0100
0010
,
1000
0100
1000
0100
0010
0001
0010
0001
,
0100
0010
0100
0010
1000
0100
1000
0100
,
0010
0001
0010
0001
1000
0100
1000
0100
,
0000
1000
0000
0000
0000
0000
0000
0000
0000
0020
0000
0000
0000
0000
0000
0000
0000
2030
0000
0000
0000
0000
0000
0000
0000
0000
0000
0000
0000
0000
0000
0000
0000
3002
0000
0000
0000
0000
0000
0000
0000
0000
0000
0000
0000
0000
0000
0000
0000
0000
0000
2003
0000
0000
0000
0000
0000
0000
0000
0000
0000
0000
0000
0000
,
0000
0000
0000
0000
0000
0000
3002
0000
0000
0000
0000
0000
0000
0000
0000
0000
0000
0000
0000
0000
0000
0000
0000
0000
0000
0000
0000
0000
0000
0000
0000
0000
0000
0000
0000
0000
0000
0000
0000
0000
0000
0000
0000
1003
0000
0000
0000
0000
0000
0000
0000
0000
0000
0000
0000
0000
0000
0000
0000
0000
0000
0000
0000
0000
,
0000
0000
0000
0000
0000
0000
0000
0000
0000
0000
0000
0000
0000
0000
0000
0000
0000
0000
0000
0000
0000
0000
0000
0000
0000
1001
0000
0000
0000
0000
0000
0000
;

//---------------dance-single - Copied from----------------
#NOTES:
     dance-single:
     Copied from:
     Beginner:
     3:
     0.158,0.316,0.143,0.054,0.036:
0000
0000
0002
0000
,
1003
0000
0001
0000
,
1000
0000
0001
0000
,
0010
0000
0001
0000
,
0000
1000
0000
0000
,
0001
0000
1000
0000
,
0010
0000
0000
0000
,
0100
0000
0000
0000
,
0001
0000
0000
0000
,
1000
0000
1000
0000
,
0001
0000
0000
0000
,
0000
0000
0000
0000
,
1000
0000
0000
0000
,
0000
0000
0000
0000
,
0010
0000
0000
0000
,
0000
0000
0000
0000
,
0100
0000
0000
0000
,
0000
0000
0000
0000
,
0001
0000
0000
0000
,
1000
0000
0010
0000
,
0100
0000
0001
0000
,
1000
0001
1000
0001
,
1000
0000
0001
0100
,
0001
0100
0001
0100
,
0001
0000
1000
0000
,
0100
0000
0010
0000
,
0001
0000
0001
0000
,
0010
0000
0010
0000
,
0001
0000
0010
0000
,
0100
0000
0100
0000
,
0001
0000
0010
0000
,
0100
0000
0100
0000
,
0100
0000
0010
0000
,
0001
0000
0001
0000
,
1001
0000
0000
0110
,
0000
0000
1001
0000
,
0110
0000
0000
1001
,
0000
0000
0110
0000
,
0110
0000
0000
1001
,
0000
0000
1001
0000
,
1001
0000
0000
1001
,
0000
0000
1001
0000
,
1001
0000
0000
0110
,
0000
0000
1001
0000
,
1000
0000
0001
0000
,
1000
0000
0001
0000
,
1000
0000
0010
0000
,
1000
0000
0100
0000
,
1000
0000
0010
0000
,
1000
0000
0100
0000
,
1000
0000
0010
0000
,
0100
0000
1000
0000
,
0010
0000
0100
0000
,
1000
0000
0010
0000
,
0100
0000
1000
0000
,
0010
0000
1000
0000
,
0000
1000
0000
0000
0000
0000
0000
0000
0000
0020
0000
0000
0000
0000
0000
0000
0000
2030
0000
0000
0000
0000
0000
0000
0000
0000
0000
0000
0000
0000
0000
0000
0000
3002
0000
0000
0000
0000
0000
0000
0000
0000
0000
0000
0000
0000
0000
0000
0000
0000
0000
2003
0000
0000
0000
0000
0000
0000
0000
0000
0000
0000
0000
0000
,
0000
0000
0000
0000
0000
0000
3002
0000
0000
0000
0000
0000
0000
0000
0000
0000
0000
0000
0000
0000
0000
0000
0000
0000
0000
0000
0000
0000
0000
0000
0000
0000
0000
0000
0000
0000
0000
0000
0000
0000
0000
0000
0000
1003
0000
0000
0000
0000
0000
0000
0000
0000
0000
0000
0000
0000
0000
0000
0000
0000
0000
0000
0000
0000
,
0000
0000
0000
0000
0000
0000
0000
0000
0000
0000
0000
0000
0000
0000
0000
0000
0000
0000
0000
0000
0000
0000
0000
0000
0000
1001
0000
0000
0000
0000
0000
0000
;

//---------------dance-single - ----------------
#NOTES:
     dance-single:
     :
     Challenge:
     13:
     1.000,1.000,0.555,0.197,1.000: // measure 1
0000
0000
0000
0000
0000
0000
0000
0000
0001
0100
0010
1000
0100
0010
0001
0100
,  // measure 2
1000
0000
0100
0000
0010
1000
0010
0000
0100
0010
1000
0100
0010
0001
0100
0010
1000
0100
0010
0001
0010
0100
1000
0100
0010
0001
0100
0010
1000
0010
0100
0001
,  // measure 3
1000
0000
0010
0000
0100
0000
0001
0000
0100
0000
0001
0000
0100
0000
0010
0000
2000
0000
3010
0000
0100
0001
0100
0001
0200
0000
0310
0000
1000
0000
1000
0000
,  // measure 4
0200
0000
0310
0000
0001
0000
0100
0000
0010
0000
1000
0000
0100
0000
1000
0000
0001
0000
0010
0000
0100
1000
0100
0000
1100
0000
1000
0000
0100
0000
0010
0000
,  // measure 5
0001
0000
0100
0000
0010
0000
1000
0000
0200
0000
0310
0000
0100
0000
0001
0000
2000
0000
3100
0000
0010
0100
0010
0000
0002
0000
0013
0000
0100
0000
1000
0000
,  // measure 6
1000
0000
1000
0000
0010
0000
0100
0000
0001
0000
0001
0000
0100
0000
0010
0000
1000
0000
0100
0000
0010
0100
1000
0100
1000
0000
0001
0000
0100
0000
0010
0000
,  // measure 7
1000
1000
1000
0100
0110
0010
0000
0100
0000
0001
0100
0010
1010
0000
1010
0000
,  // measure 8
1000
0000
0100
0000
0010
0000
0001
0000
0011
0000
0000
0000
0010
0000
0110
0000
0000
0000
1000
0000
0010
0000
0001
0010
1000
0000
0100
0000
0010
0000
0001
0000
,  // measure 9
0011
0010
0010
0001
1000
1000
0010
0010
0100
0001
0100
0010
1000
0100
0010
0001
,  // measure 10
0101
0000
0001
0000
1000
0000
0001
0000
1001
0000
0010
0000
1000
0000
0010
0000
1010
0000
0010
0000
0100
0000
0001
0100
0010
0000
0010
0000
1000
0000
1000
0000
,  // measure 11
1001
0001
0100
1000
1100
1000
0100
0001
,  // measure 12
0010
0001
0100
1000
1100
0100
0001
0100
,  // measure 13
1000
0001
0100
1000
1001
1000
0100
0010
,  // measure 14
0001
0010
0100
1000
1001
0010
0100
0010
,  // measure 15
1000
0100
1000
0100
1100
0010
0001
0010
,  // measure 16
1000
0100
0010
0001
0011
0100
1000
0001
,  // measure 17
0100
0010
1000
0100
1100
0100
0010
0100
,  // measure 18
1000
0000
0010
0000
0100
0000
0001
1000
0010
0000
0100
0000
0001
0000
1000
0000
,  // measure 19
0001
0010
0100
1000
0100
0010
0001
0100
0010
1000
0010
0100
0001
0010
0100
1000
,  // measure 20
0100
0010
0001
0010
0100
1000
0100
0010
0001
0010
0100
1000
0010
0100
0001
0100
,  // measure 21
0010
1000
0100
0010
0001
0100
0010
1000
0100
0010
0001
0100
0010
1000
0001
1000
,  // measure 22
2020
3030
2020
3030
1100
1100
0110
0110
,  // measure 23
0011
0000
0000
0000
0000
0000
0000
0000
0101
0000
0000
0000
0000
0000
0000
0000
1001
0000
0000
0000
0000
0000
0000
0000
0001
0000
0000
0100
0000
0000
0010
0000
0000
1000
0000
0000
0100
0000
0000
0010
0000
0000
0100
0000
0000
1000
0000
0000
,  // measure 24
0001
0000
0011
0000
0010
0000
0100
0000
1000
0100
0010
0001
0100
1000
0100
0010
,  // measure 25
1000
1000
1001
0001
0101
0100
0110
0010
,  // measure 26
1010
0000
0000
0000
MMMM
0000
0000
0000
0010
0001
0010
0001
1000
0100
1000
0100
,  // measure 27
1000
0010
1000
0010
0100
0001
0100
0001
1000
0010
1000
0010
0100
0001
0100
0001
,  // measure 28
1000
0100
0010
0001
0010
0100
1000
0001
0100
0010
1000
0100
0010
0100
1000
0001
,  // measure 29
0100
0010
1000
0100
1000
0001
0100
0010
1000
0100
0010
0100
1000
0001
0100
0010
,  // measure 30
1000
0100
1000
0100
0010
0001
0010
0001
0100
0010
0100
0010
1000
0100
0010
0100
,  // measure 31
1000
0001
0100
0010
1000
0100
0010
0100
1000
0001
0100
0010
1000
0100
0010
0100
,  // measure 32
1000
0001
0100
0010
1000
0100
0010
0001
0100
0010
1000
0100
1000
0001
0010
0001
,  // measure 33
1000
0100
0010
0100
1000
0001
0100
0010
1000
0100
1000
0001
0100
0010
1000
0100
,  // measure 34
0010
0100
1000
0001
0100
0010
0100
0001
1000
0100
1000
0001
0100
0010
1000
0100
,  // measure 35
0011
0000
0100
0000
1000
0000
0010
0000
0100
0000
0001
0000
0100
0000
0010
0000
1000
0000
0100
0000
0010
0000
0001
0000
1000
0001
1000
0000
0100
0000
0010
0000
,  // measure 36
0001
0100
0010
0100
0001
0100
0010
0100
0002
0103
0010
1000
0100
0010
0001
1000
,  // measure 37
0001
1000
0001
0000
1000
0000
0100
0000
1000
0000
0010
0000
0100
0000
0001
0000
0100
0000
0010
0000
1000
0000
0100
0000
0010
0100
0010
0000
0100
0000
1000
0000
,  // measure 38
0100
0000
0010
0000
0001
0000
0100
0000
0010
1000
0010
0000
1000
0000
0010
0000
1000
0010
1000
0000
0010
0000
1000
0000
0002
0000
1003
0000
0010
0000
0100
0000
,  // measure 39
1000
0000
0001
0000
1000
0000
0001
0000
1000
0000
0001
0000
1000
0000
0000
0100
0000
0000
1000
0000
0000
0001
0000
0000
0100
0000
0000
0010
0000
0000
1000
0000
0000
0100
0000
0000
0010
0000
0001
0000
0010
0000
0001
0000
0010
0000
0001
0000
,  // measure 40
1000
0100
1000
0001
0100
0010
0100
0001
1000
0100
1000
0001
0100
0010
0100
0001
,  // measure 41
1000
0100
1000
0001
0100
0010
1000
0100
0010
0100
1000
0001
0100
0010
1000
0100
,  // measure 42
0010
0100
1000
0001
0100
0010
1000
0100
1000
0001
0010
0100
1000
0100
0010
0100
,  // measure 43
1000
0100
1000
0100
0010
0100
0010
0100
0001
0100
0001
0100
0010
0100
1000
0100
,  // measure 44
1000
0010
1000
0010
1000
0010
0001
0010
0001
0010
0100
0010
0100
0010
1000
0010
,  // measure 45
1000
0100
0010
0001
1000
0100
0010
0100
0001
0100
0010
0100
1000
0010
0100
0010
,  // measure 46
1000
0100
0001
0100
0010
0100
1000
0010
0100
0001
0100
1000
0100
0001
0010
0001
,  // measure 47
0010
1000
0010
0001
0010
0001
0100
0010
1000
0100
1000
0001
0010
1000
0010
1000
,  // measure 48
0010
0001
0010
0100
1000
0100
0010
0001
0100
0010
1000
0100
1000
0001
0100
0010
,  // measure 49
1000
0100
0010
0100
1000
0001
0100
0010
1000
0100
0010
0100
1000
0001
0100
0010
,  // measure 50
1000
0000
0000
0100
0000
0000
0010
0000
0000
0100
0000
0000
1000
0000
0000
0001
0000
0000
0100
0000
0000
0010
0000
0000
1000
0000
0001
0000
1000
0000
0001
0000
1000
0000
0001
0000
1000
0000
0001
0000
1000
0000
0001
0000
1000
0000
0001
0000
,  // measure 51
1000
0000
0000
0000
0001
0000
0100
0000
1010
0000
0000
0000
1000
0000
0010
0000
0101
0000
0000
0000
0001
0000
0100
0000
1010
0000
0000
0000
0100
0001
0100
0010
,  // measure 52
1000
0000
0010
1000
0101
0000
0010
0100
1010
0000
1000
0100
0011
0000
0001
0010
,  // measure 53
1100
0000
0000
0000
1000
0000
0100
0000
0011
0000
0000
0000
0001
0000
0001
0000
0001
0000
0000
0000
0010
0000
0010
0000
0010
0000
0000
0000
0001
0100
0001
0000
,  // measure 54
0101
0000
1000
1000
1000
0000
0100
0100
0100
0000
0010
0010
0010
0000
0101
0000
,  // measure 55
1010
0000
0000
0000
0001
0000
0100
0000
1000
0000
0000
0000
0001
0000
0010
0000
1000
0000
0000
0000
0001
0000
0100
0000
1000
0000
0000
0000
1000
0100
1000
0000
,  // measure 56
1100
0000
0011
0011
0011
0000
1010
1010
1010
0000
0110
0110
0110
0000
1001
0000
,  // measure 57
0000
1000
0000
0000
0000
0000
0000
0000
0000
2020
0000
0000
0000
3030
0000
0000
0000
2020
0000
0000
0000
0000
0000
0000
0000
0000
0000
0000
3030
0000
0000
0000
0000
2002
0000
0000
0000
0000
0000
0000
0000
0000
0000
0000
0000
0000
3003
0000
0000
0000
0000
2002
0000
0000
0000
0000
0000
0000
0000
0000
0000
0000
0000
0000
,  // measure 58
0000
3003
0000
0000
0000
0000
0202
0000
0000
0000
0000
0000
0000
0000
0000
0000
0000
0000
0000
0000
0000
0000
0000
0000
0000
0000
0000
0000
0000
0000
0000
0000
0000
0000
0000
0000
0000
0000
0303
0000
0000
0000
0000
1001
0000
0000
0000
0000
0000
0000
0000
0000
0000
0000
0000
0000
MMMM
0000
0000
0000
0000
0000
0000
0000
,  // measure 59
MMMM
0000
0000
0000
MMMM
0000
0000
0000
MMMM
0000
0000
0000
MMMM
0000
0000
0000
MMMM
0000
0000
0000
MMMM
0000
0000
0000
0000
1001
0000
0000
MMMM
0000
0000
0000
;
