#VERSION:0.83;
#TITLE:Ignite;
#SUBTITLE:;
#ARTIST:藍井 エイル;
#TITLETRANSLIT:;
#SUBTITLETRANSLIT:;
#ARTISTTRANSLIT:Aoi Eir;
#GENRE:;
#ORIGIN:;
#CREDIT:SWORD ART ONLINE II;
#BANNER:;
#BACKGROUND:;
#PREVIEWVID:;
#JACKET:;
#CDIMAGE:;
#DISCIMAGE:;
#LYRICSPATH:;
#CDTITLE:;
#MUSIC:[ROUND K] - Ignite.ogg;
#OFFSET:1.237000;
#SAMPLESTART:53.615002;
#SAMPLELENGTH:11.600000;
#SELECTABLE:YES;
#BPMS:0.000=170.500,
8.000=171.000;
#STOPS:;
#DELAYS:;
#WARPS:;
#TIMESIGNATURES:0.000=4=4;
#TICKCOUNTS:0.000=4;
#COMBOS:0.000=1;
#SPEEDS:0.000=1.000=0.000=0;
#SCROLLS:0.000=1.000;
#FAKES:;
#LABELS:0.000=Song Start;
#BGCHANGES:2.000=Ignite.mpg=1.000=0=0=1=====,
99999=-nosongbg-=1.000=0=0=0 // don't automatically add -songbackground-
;
#KEYSOUNDS:;
#ATTACKS:
;

//---------------dance-single - ----------------
#NOTEDATA:;
#CHARTNAME:;
#STEPSTYPE:dance-single;
#DESCRIPTION:;
#CHARTSTYLE:;
#DIFFICULTY:Hard;
#METER:8;
#RADARVALUES:0.594909,0.727340,0.401254,0.206049,0.140981,384.000000,347.000000,37.000000,19.000000,0.000000,0.000000,0.000000,0.000000,0.000000,0.594909,0.727340,0.401254,0.206049,0.140981,384.000000,347.000000,37.000000,19.000000,0.000000,0.000000,0.000000,0.000000,0.000000;
#CREDIT:;
#NOTES:
0000
0000
0000
0000
,
0000
0000
0000
0000
,
0000
0000
0000
0000
,
0000
0000
0000
0000
,
0000
0000
0000
0000
,
0000
0000
0000
0000
,
2000
0000
3200
0000
,
0320
0000
0032
0000
,
0103
0010
0000
1000
0000
0001
0000
0100
,
0000
0000
0001
0000
0100
0000
0010
0000
1000
0000
0001
0000
0000
0000
1000
0001
,
1000
0000
0000
1100
0000
1000
1000
0100
,
0010
0000
0000
0000
0001
0000
0000
0000
0100
0010
0000
1000
0010
0000
0000
0000
,
2000
0000
0001
0000
3100
0010
0001
0010
,
0100
1000
0010
0100
0001
0010
0000
0100
,
2000
0000
3100
0000
0002
0000
0103
1000
,
0100
0000
0100
0010
0000
0001
0000
0100
,
0010
0000
0010
1000
0001
0000
0001
1000
,
0100
0000
0010
0000
0001
0000
0100
0010
,
0100
0010
0000
1001
0000
0100
0000
0010
,
1000
0000
1010
1000
0001
0000
0010
0000
,
0011
0000
0000
0000
0001
0000
1000
0100
1000
0000
0000
0100
0000
0000
0010
0000
,
0001
0000
0000
0010
0000
0000
0001
0000
1000
0000
0000
0000
0100
0000
0010
0000
,
0101
0000
1100
0000
0101
0000
1100
0001
,
0100
0000
1000
0100
0000
0010
0000
0001
,
1001
0000
1000
0001
1000
0001
1001
0000
,
1001
0000
0100
0010
0100
0010
0110
0000
,
0010
1000
0000
0100
0000
0010
0000
0002
,
0000
0000
0013
0000
0100
1000
0100
0010
,
0110
0000
0000
1100
0000
0001
0100
0000
,
0000
0010
0100
0010
1000
0010
0100
0001
,
0100
0010
0000
0010
1000
0000
1000
0100
,
0000
0100
0010
0000
0010
0001
0100
0001
,
1000
0100
0000
0100
0010
0000
0010
0001
,
0000
0000
0001
0000
0100
0000
0000
0010
0100
0000
1000
0000
0100
0000
0001
0000
,
0100
0000
0100
0010
1010
0000
1000
0001
,
0100
0010
0100
0001
0011
0000
0001
0010
,
0100
0000
1000
0010
1010
0000
0010
0100
,
0001
0100
0000
0110
0000
0010
1000
0001
,
1000
0000
0100
0010
0100
0000
0100
1000
0001
1000
0001
1000
0001
0000
0100
0000
,
0000
0010
0100
0100
0001
0100
0010
0100
,
0101
0000
0001
0100
0010
0000
0010
0100
,
0001
0000
1000
0100
0010
0001
0010
0100
,
1001
0000
0001
0100
0010
0000
0100
0010
,
1001
0000
0000
0000
1000
0000
0100
0000
0010
0000
0000
0000
0001
0000
1000
0001
,
2000
3100
0002
0103
,
2001
3010
1002
0013
,
0001
0010
0000
0100
0000
1000
0000
1010
,
0000
0000
1000
0000
0001
0000
1000
0000
0100
0000
1000
0100
1000
0100
1000
0100
,
1000
0000
1000
0100
1000
0000
0100
0010
,
0100
0000
0010
0001
0010
0100
1000
0100
,
0110
0000
0010
1000
1100
0000
0010
0001
,
0101
0000
0000
0000
0001
0000
1000
0000
1010
0000
0000
0000
1000
0000
0001
1000
,
0002
0013
2000
3010
,
0012
0000
0000
0000
1003
0000
0000
0000
1010
0000
0000
0000
1000
0010
1000
0000
,
0100
0010
0000
0001
0000
0100
0000
0020
,
0000
0000
0000
0000
0100
0000
0000
0000
1030
0000
0001
1000
0001
1000
0100
0000
,
0010
0000
0010
0100
0000
0101
0000
1100
,
0000
1010
0001
0010
0000
0000
0001
0100
,
0110
0000
0010
1000
0000
0100
0000
0010
,
0000
0011
1000
0010
0000
0010
0000
1000
,
0100
0000
0010
0000
0001
0000
0010
0000
0100
0000
1000
0000
0100
1000
0100
0000
,
0020
0000
0000
0032
0000
0000
0203
0000
0000
0310
0000
0000
1010
0000
0000
0000
,
0100
0000
1000
0100
1000
0000
0001
0000
0100
0001
0100
0000
0010
0000
1000
0010
,
1000
0000
0001
0000
0010
0001
0010
0000
0001
0000
0100
0000
0010
0000
1001
0000
;

//---------------dance-single - Copied from----------------
#NOTEDATA:;
#CHARTNAME:Copied from;
#STEPSTYPE:dance-single;
#DESCRIPTION:Copied from;
#CHARTSTYLE:;
#DIFFICULTY:Medium;
#METER:6;
#RADARVALUES:0.385761,0.519529,0.173515,0.206049,0.027112,249.000000,233.000000,16.000000,19.000000,0.000000,0.000000,27.000000,0.000000,0.000000,0.385761,0.519529,0.173515,0.206049,0.027112,249.000000,233.000000,16.000000,19.000000,0.000000,0.000000,27.000000,0.000000,0.000000;
#CREDIT:Copied from;
#NOTES:
0000
0000
0000
0000
,
0000
0000
0000
0000
,
0000
0000
0000
0000
,
0000
0000
0000
0000
,
0000
0000
0000
0000
,
0000
0000
0000
0000
,
2000
0000
3200
0000
,
0320
0000
0032
0000
,
0103
0001
0000
1000
0000
0001
0000
0400
,
0000
0000
0000
0000
0000
0300
0000
0010
,
0100
0000
0000
0110
0000
0000
1000
0002
,
0000
0103
0010
1000
,
0200
0000
0010
0000
1300
0100
1000
0002
,
0000
0000
0000
0000
0100
0103
0000
0000
,
4000
0000
3000
1000
,
0100
0000
0010
0001
0000
0100
0000
0020
,
0000
0000
1030
0400
0040
0000
0000
0000
,
0330
0010
0100
1000
,
0100
0010
0000
0001
0000
1000
0000
0200
,
0000
1300
0010
1001
,
0110
0000
0000
0000
0001
0000
1000
0000
0001
0000
0000
0100
0000
0000
0010
0000
,
1000
0000
0000
0100
0000
0000
0010
0000
0001
0000
0000
0000
0100
0000
0040
0000
,
0000
0000
0000
0000
0030
0000
1000
0100
,
1000
0000
0001
0100
0000
0010
0000
2000
,
0000
0000
3000
1000
0040
0000
0000
0000
,
0030
0100
0001
0100
,
0010
1000
0000
0100
0000
0010
0000
0001
,
0001
0100
0010
1000
,
1100
0000
0000
0100
0000
0010
0100
0000
,
1000
0000
0001
0100
0001
1000
0001
0100
,
0001
0100
0000
0100
0001
0000
0001
0010
,
0000
0010
0001
0000
0100
0010
0100
0010
,
1000
0100
0000
0100
1000
0000
1000
0010
,
0000
0010
1000
0000
1000
0001
1000
0001
,
0100
0000
0010
0000
1000
0000
0001
0100
,
0000
0010
0000
1000
0000
0000
0100
0000
,
0020
0000
0000
0001
0031
0000
0000
0100
,
1000
0100
0000
0110
0000
4000
0004
0000
,
0000
0000
0000
0000
0000
0000
0000
3003
,
0000
0000
0000
0000
,
0001
0400
1000
0000
0001
0000
1000
0000
,
0001
0000
1300
0100
0100
1000
0100
0200
,
0000
0000
0302
0000
,
0023
0000
0000
0000
0230
0000
0000
0300
,
0440
0330
4004
3003
,
0440
0330
4004
3003
,
1000
0100
0000
0010
0000
0001
0000
0100
,
0000
0010
1000
0100
1000
0010
1000
0400
,
0010
0000
0001
0000
0010
0000
1000
0300
,
0010
0001
0010
0001
0010
0001
1000
0200
,
0000
0000
0320
0000
,
0032
0000
0203
0300
,
0440
0330
4004
3003
,
0440
0330
4004
3003
,
1000
0100
0000
0010
0000
0001
0000
0400
,
0010
0000
0010
0000
0010
0300
0000
0010
,
1000
0000
1000
0100
0000
0010
0000
0001
,
0000
0100
0000
0101
0000
0001
0100
0010
,
1000
0000
1000
0100
0000
0010
0000
0001
,
0000
0100
0000
0110
0000
0010
0000
1000
,
0100
0000
0000
0000
1000
0000
0001
0000
0000
0000
1000
0000
0000
0100
0000
0000
,
0010
0000
0000
0001
0000
0000
0100
0000
0000
0010
0000
0000
1000
0000
0100
0000
,
0010
0001
0000
0010
0100
0000
0010
0001
,
0000
0010
0100
1000
0001
1000
0001
1001
;

//---------------dance-single - Copied from----------------
#NOTEDATA:;
#CHARTNAME:Copied from;
#STEPSTYPE:dance-single;
#DESCRIPTION:Copied from;
#CHARTSTYLE:;
#DIFFICULTY:Easy;
#METER:4;
#RADARVALUES:0.269568,0.415623,0.097602,0.314496,0.010845,174.000000,165.000000,9.000000,29.000000,0.000000,0.000000,0.000000,0.000000,0.000000,0.269568,0.415623,0.097602,0.314496,0.010845,174.000000,165.000000,9.000000,29.000000,0.000000,0.000000,0.000000,0.000000,0.000000;
#CREDIT:Copied from;
#NOTES:
// measure 0
0000
0000
0000
0000
,  // measure 1
0000
0000
0000
0000
,  // measure 2
0000
0000
0000
0000
,  // measure 3
0000
0000
0000
0000
,  // measure 4
0000
0000
0000
0000
,  // measure 5
0000
0000
0000
0000
,  // measure 6
2000
0000
3200
0000
,  // measure 7
0320
0000
0032
0000
,  // measure 8
1003
0001
0000
1000
0000
0010
0000
0200
,  // measure 9
0000
0000
0000
0000
0000
0000
0000
0300
,  // measure 10
0010
0000
0000
0010
0000
0000
0010
0000
,  // measure 11
1000
0010
1000
0010
,  // measure 12
0200
0000
0000
0000
0000
0000
0000
0001
,  // measure 13
0000
0000
0000
0001
0301
0000
0000
0000
,  // measure 14
0101
0000
0001
1000
,  // measure 15
0001
0000
0000
0001
0000
0000
0000
0002
,  // measure 16
0000
0000
2000
0000
,  // measure 17
3003
0000
1000
0001
,  // measure 18
1000
0100
1000
0000
,  // measure 19
0001
0010
0001
0000
,  // measure 20
0100
0010
0200
0000
,  // measure 21
0000
0000
0000
0000
0010
0000
0000
0010
,  // measure 22
0300
0100
0001
0010
,  // measure 23
0100
1000
0100
0010
,  // measure 24
0001
0100
0010
1000
,  // measure 25
0100
0010
0001
0100
,  // measure 26
1000
0100
0001
0010
,  // measure 27
1000
0010
0001
0100
,  // measure 28
0010
0000
0000
0010
0000
0000
0010
0000
,  // measure 29
0000
1000
0100
0010
,  // measure 30
0001
0000
0000
0100
0000
0000
0010
0000
,  // measure 31
0000
1000
0000
0000
0100
0000
0010
0000
,  // measure 32
0001
0000
0000
0100
0000
0000
0010
0000
,  // measure 33
0000
1000
0000
0000
0100
0000
0010
0000
,  // measure 34
0110
0000
0100
1000
,  // measure 35
0001
0000
0001
1000
,  // measure 36
0010
0000
0010
0000
,  // measure 37
0200
0300
0000
0010
0000
2000
0000
0000
,  // measure 38
0000
0000
0000
3000
,  // measure 39
0000
0000
0000
0000
,  // measure 40
0001
0100
0010
1000
,  // measure 41
1000
0000
0100
0000
0010
0000
0001
0200
,  // measure 42
0000
0000
0000
0300
0020
0000
0000
0000
,  // measure 43
2030
0000
3002
0000
,  // measure 44
0203
0000
0320
0000
,  // measure 45
2030
0000
3002
0000
,  // measure 46
0103
0001
0000
0010
0000
0100
0000
1000
,  // measure 47
0000
0100
0001
0010
,  // measure 48
0011
0001
0100
0010
,  // measure 49
1000
0000
0100
0000
0010
0000
0001
0200
,  // measure 50
0000
0000
0320
0000
,  // measure 51
2030
0000
3002
0000
,  // measure 52
0203
0000
0320
0000
,  // measure 53
2030
0000
3200
0000
,  // measure 54
0310
0001
0000
0100
0000
0010
0000
2000
,  // measure 55
0000
0000
0000
3000
,  // measure 56
1000
0000
0000
1000
0000
0100
0000
0010
,  // measure 57
0000
0100
0000
1000
0000
0000
0100
0000
,  // measure 58
0010
0000
0000
0001
0000
0100
0000
0010
,  // measure 59
0000
0100
0000
0001
0000
0010
0000
0100
,  // measure 60
2000
0000
0000
0000
0000
0000
0000
0000
0000
0000
0100
0000
0000
0100
0000
0000
,  // measure 61
0100
0000
0000
0100
0000
0000
0100
0000
3000
0000
0000
0000
1000
0000
0000
0000
,  // measure 62
1001
0000
0000
0110
0000
0000
1001
0000
,  // measure 63
0000
0110
0000
0000
1001
0000
0000
0110
;

//---------------dance-single - Copied from----------------
#NOTEDATA:;
#CHARTNAME:Copied from;
#STEPSTYPE:dance-single;
#DESCRIPTION:Copied from;
#CHARTSTYLE:;
#DIFFICULTY:Beginner;
#METER:1;
#RADARVALUES:0.102250,0.173176,0.043379,0.000000,0.000000,66.000000,62.000000,4.000000,0.000000,0.000000,0.000000,0.000000,0.000000,0.000000,0.102250,0.173176,0.043379,0.000000,0.000000,66.000000,62.000000,4.000000,0.000000,0.000000,0.000000,0.000000,0.000000,0.000000;
#CREDIT:Copied from;
#NOTES:
0000
0000
0000
0000
,
0000
0000
0000
0000
,
0000
0000
0000
0000
,
0000
0000
0000
0000
,
0000
0000
0000
0000
,
0000
0000
0000
0000
,
1000
0000
0001
0000
,
1000
0000
0001
0000
,
1000
0000
0000
0000
,
0000
0000
0000
0000
,
1000
0000
0000
0000
,
0001
0000
0000
0000
,
0100
0000
0000
0000
,
0010
0000
0000
0000
,
0010
0000
0000
0000
,
0000
0000
0000
0000
,
0100
0000
0000
0000
,
0000
0000
0000
0000
,
0001
0000
0000
0000
,
1000
0000
0000
0000
,
0100
0000
0000
0000
,
0000
0000
0000
0000
,
0010
0000
0000
0000
,
0010
0000
0000
0000
,
0001
0000
0000
0000
,
0001
0000
0000
0000
,
0100
0000
0000
0000
,
0100
0000
0000
0000
,
0010
0000
0000
0010
,
0000
0000
0000
0000
,
1001
0000
0000
0000
,
0000
0000
0000
0000
,
0110
0000
0000
0000
,
0000
0000
0000
0000
,
1000
0000
0001
0000
,
1000
0000
0001
0000
,
1000
0000
0000
0000
,
0001
0000
0000
0000
,
0000
0000
0000
0000
,
0000
0000
0000
0000
,
0010
0000
0000
0000
,
0000
0000
0000
0000
,
0010
0000
0100
0000
,
0010
0000
0100
0000
,
0010
0000
0000
0000
,
0100
0000
0000
0000
,
1000
0000
0001
0000
,
1000
0000
0000
0000
,
0100
0000
0000
0000
,
0000
0000
0000
0000
,
0100
0000
0010
0000
,
0100
0000
0010
0000
,
0100
0000
0100
0000
,
1000
0000
1000
0000
,
0001
0000
0000
0000
,
0001
0000
0000
0000
,
0001
0000
0001
0000
,
1000
0000
1000
0000
,
0100
0000
0100
0000
,
0010
0000
0010
0000
,
0001
0000
0000
0000
,
0000
0000
0000
0000
,
1001
0000
0000
0000
,
0000
0000
0000
0000
0000
0000
0000
1001
;

//---------------dance-double - Copied from----------------
#NOTEDATA:;
#CHARTNAME:Copied from;
#STEPSTYPE:dance-double;
#DESCRIPTION:Copied from;
#CHARTSTYLE:;
#DIFFICULTY:Hard;
#METER:9;
#RADARVALUES:0.686314,0.796610,0.466322,0.097602,0.146403,443.000000,400.000000,43.000000,9.000000,0.000000,0.000000,0.000000,0.000000,0.000000,0.686314,0.796610,0.466322,0.097602,0.146403,443.000000,400.000000,43.000000,9.000000,0.000000,0.000000,0.000000,0.000000,0.000000;
#CREDIT:Copied from;
#NOTES:
00000000
00000000
00000000
00000000
,
00000000
00000000
00000000
00000000
,
00000000
00000000
00000000
00000000
,
00000000
00000000
00000000
00000000
,
00000000
00000000
00000000
00000000
,
00000000
00000000
00000000
00000000
,
10000000
01000000
10000000
01000000
00010000
01000000
00010000
00001000
,
00000100
00001000
00000100
00000001
00000100
00000001
00000100
00000001
,
00000100
00001000
00000000
00010000
00000000
00100000
00000000
00010000
,
00001000
00000000
00000100
00000000
00001000
00000000
00010000
00000000
00001000
00000000
00011000
00000000
00000000
00000000
00001000
00100000
,
00010000
00000000
01000000
00000000
00100000
00000000
10000000
00000000
01000000
00100000
00000000
00010000
00100000
00000000
00001000
00000000
,
00010000
00000000
00000100
00000000
00001000
00000000
00000010
00000000
00000100
00000001
00000000
00000100
00000010
00000000
00010000
00000000
,
00001000
00000000
00100000
00000000
00010000
00000000
01000000
00000000
00100000
10000000
00000000
00010000
10000000
00000000
01000000
00000000
,
00010000
00001000
00000100
00000001
00000001
00000000
00000100
00002000
,
00010000
00000000
00100000
00000000
00013000
00000000
00001000
00100000
,
00010000
00000000
00010000
01000000
00000000
00100000
00000000
10100000
,
00000000
00000000
10000000
01000000
11000000
00000000
10000000
00010000
,
00100000
00000000
00100000
00001000
00010000
00000100
00001000
00000000
,
00001000
00000100
00000000
00000010
00000000
00000001
00000000
00000101
,
00000000
00000100
00000010
00001000
,
00000010
00000000
00000000
00000000
00000010
00000000
00001000
00000000
00000002
00000000
00000000
00000203
00000000
00000000
00002300
00000000
,
00023000
00000000
00000000
02030000
00000000
00000000
23000000
00000000
32000000
00000000
03000000
00000000
00010000
00000000
00001000
00000000
,
00010000
01000000
10000000
01000000
00010000
01000000
10000000
01000000
,
00010000
00001000
00000100
00000001
00000100
00001000
00000100
00000001
,
00000100
00001000
00010000
00100000
10000000
00100000
00010000
00100000
,
10000000
01000000
00010000
00001000
00000010
00000001
00000100
00000000
,
00000100
00000010
00000000
00001010
00000000
00011000
00000000
00001100
,
00000000
00000000
00000100
00000000
00011000
00001000
00010000
00000000
,
00011000
00000000
00000000
10010000
00000000
00010000
00001000
00000000
,
00000000
00001001
00000000
00000001
00000100
00000010
00001000
00000100
,
00010000
00001000
00000000
00001000
00100000
00000000
00100000
00010000
,
10000000
00010000
01000000
00000000
01000000
00100000
10000000
01000000
,
00010000
00001000
00000000
00001000
00000100
00000000
00000100
00000001
,
00000010
00000000
00000001
00000000
00000100
00000000
00000000
00000100
00000010
00000000
00001000
00000000
00000100
00000000
00000010
00000000
,
00000011
00000000
00001001
00000000
00001100
00000000
00000100
00010000
,
00000000
00011000
00000000
00110000
00000000
00000000
10000000
00000000
,
02000000
00000000
00000000
03010000
00010000
00000000
00010000
00001000
,
00010000
00001000
00000000
00010100
00000000
00001001
00001001
00000000
,
00000001
00000000
00000100
00001000
00010000
00000000
00001000
00010000
00001000
00010000
00001000
00010000
00001000
00000000
00100000
00000000
,
00000000
00010000
01000000
00100000
01000000
00010000
00100000
01000000
,
11000000
01000000
00100000
00001000
00010000
00000100
00001000
00000010
,
00000100
00000001
00000010
00000100
00001000
00000100
00010000
00001000
,
00011000
00000000
00001000
00100000
00110000
00000000
00010000
01000000
,
01010000
00000000
00000000
00000000
01000000
00000000
00100000
00000000
01100000
00000000
00000000
00000000
00100000
00000000
10000000
01000000
,
00100000
00001000
00010000
00001000
00000100
00000001
00000100
00001000
,
00000100
00000010
00000001
00000100
00000010
00001000
00000100
00010000
,
00001000
00010000
00000000
00110000
00000000
10100000
00000000
10010000
,
00000000
00000000
10000000
00000000
01000000
00000000
00100000
00000000
00001000
00000000
00010000
00000000
00001000
00010000
00001000
00010000
,
00000100
00010000
00001000
00010000
00001000
00100000
00010000
01000000
,
00100000
10000000
01000000
00100000
00001000
00010000
00000100
00000010
,
00000001
00000100
00000010
00001000
00000100
00000010
00000001
00000100
,
00000010
00000000
00001000
00000000
00000100
00000000
00001000
00000000
00010000
00000000
00100000
00000000
10000000
00000000
01000000
00100000
,
00001000
00010000
00011000
00000000
00010000
00000100
00001100
00000000
,
00001000
00000010
00001010
00000000
00000010
00000100
00000110
00000000
,
00000100
00000001
00000000
00000101
00000000
00001100
00000000
00011000
,
00000000
00000000
00001000
00000000
00010000
00000000
00100000
00000000
10000000
00000000
01000000
00100000
01000000
10000000
01000000
00000000
,
00100000
00001000
00000100
00000001
00000100
00001000
00000100
00000001
,
00000100
00001000
00000100
00000001
00000100
00001000
00010000
00100000
,
10000000
01000000
00010000
01000000
10000000
01000000
00010000
01000000
,
10000000
01000000
00010000
01000000
10000000
01000000
00010000
00001000
,
00000100
00000000
00000001
00000000
00000010
00000000
00000100
00000000
00001000
00000000
00001100
00000000
00000000
00011000
00000000
00000000
,
00110000
00000000
00000000
00011000
00000000
00000000
00001100
00000000
00000000
00011000
00000000
00000000
00110000
00000000
00000000
00000000
,
10010000
00000000
10000000
01000000
10000000
00000000
00010000
00000000
01000000
00001000
00010000
00000000
00000100
00000000
00001000
00000100
,
00001000
00000000
00000001
00000000
00000100
00000010
00001000
00000000
00000100
00000000
00010000
00000000
00001000
00000000
00011000
00000000
;

//---------------dance-single - ----------------
#NOTEDATA:;
#CHARTNAME:;
#STEPSTYPE:dance-single;
#DESCRIPTION:;
#CHARTSTYLE:;
#DIFFICULTY:Challenge;
#METER:9;
#RADARVALUES:0.708004,0.761975,0.271117,0.032534,0.162670,457.000000,432.000000,25.000000,3.000000,0.000000,0.000000,0.000000,0.000000,0.000000,0.708004,0.761975,0.271117,0.032534,0.162670,457.000000,432.000000,25.000000,3.000000,0.000000,0.000000,0.000000,0.000000,0.000000;
#CREDIT:;
#NOTES:
0000
0000
0000
0000
,
0000
0000
0000
0000
,
0000
0000
0000
0000
,
0000
0000
0000
0000
,
0000
0000
0000
0000
,
0000
0000
0000
0000
,
1000
0100
1000
0100
1000
0001
1000
0001
,
1000
0010
1000
0010
1000
0001
1000
0001
,
1000
0100
0000
0010
0000
0001
0000
0101
,
0000
0000
0001
0000
0100
0000
0010
0000
1000
0000
1001
0000
0000
0000
1000
0100
,
0010
0000
0100
0000
1000
0000
0100
0000
0010
0001
0000
1000
0001
0000
0100
0000
,
0010
0000
1000
0000
0100
0000
0010
0000
0001
0100
0000
0001
1000
0000
0010
0000
,
0100
0000
0001
0000
0010
0000
0100
0000
1000
0100
0000
1000
0001
0000
1000
0000
,
0100
0010
0001
0001
0100
0010
1000
0100
,
0110
0000
0010
0000
0001
0000
0100
0010
,
0110
0000
0010
1000
0000
0100
0010
0001
,
0011
0000
0001
0100
0010
0000
0010
1000
,
0100
0000
0100
0010
0100
0000
0010
0001
,
1001
1000
0100
0010
0000
1000
0000
0001
,
1001
1000
0010
0100
0001
0000
0001
0000
,
1001
0000
0000
0000
1000
0000
0001
0000
1000
0000
0000
0010
0000
0000
1000
0000
,
0001
0000
0000
0100
0000
0000
0010
0000
1000
0000
0000
0000
1000
0000
0001
0000
,
1000
0100
0001
0100
1000
0100
0001
0100
,
1000
0100
0001
0100
1000
0100
0001
0100
,
1000
0001
1000
0100
1000
0001
1000
0100
,
1000
0001
1000
0100
1000
0001
1000
0100
,
1000
0010
0001
0010
1000
0010
0001
0010
,
1000
0010
0001
0010
1000
0010
0001
0010
,
1000
0000
1000
0100
0000
0001
0100
0000
,
0100
0010
0000
0010
1000
0100
0010
0001
,
0100
0010
0000
0010
1000
0000
1000
0100
,
0010
0001
1001
0000
0001
0100
1000
0100
,
0001
0010
0000
0010
0100
0000
0100
1000
,
1000
0000
1000
0000
0010
0000
0000
0010
0100
0000
0001
0000
0010
0000
0100
0000
,
1100
0000
1000
0100
0110
0000
0010
0001
,
0000
0101
0000
1100
0000
1000
0010
0100
,
0001
0000
0000
0100
0110
0000
0000
0010
,
1000
0100
0000
0110
0000
0011
0001
0010
,
0100
0000
1000
0100
1000
0000
0010
0100
0001
1000
0001
1000
0001
0000
0100
0000
,
0010
1000
0100
0010
0001
0100
0010
0100
,
0110
0010
1000
0100
0010
0001
0100
0010
,
1000
0010
0100
0001
0010
0100
1000
0010
,
0100
0001
0010
1000
0010
0001
0100
1000
,
0100
0000
0001
0000
0010
0000
0100
0000
1000
0000
0010
0000
0100
0000
0001
0100
,
0001
0100
0010
1000
0100
1000
0010
0100
,
0001
0010
0001
0100
0010
1000
0100
0010
,
0001
0010
0000
0120
0000
0130
0000
1001
,
0000
0000
0001
0000
0100
0000
0010
0000
1000
0000
0100
1000
0100
1000
0100
0000
,
0010
0001
0100
0010
1000
0100
0001
0100
,
1000
0010
0100
0001
0010
1000
0010
0001
,
0100
0010
1000
0100
0001
0100
1000
0010
,
0001
0000
0010
0000
1000
0000
0100
0000
0010
0000
0001
0000
0100
0000
0010
0100
,
0001
0010
0100
1000
0010
0100
0001
0010
,
0100
0000
1000
0000
0010
0000
0100
0000
0001
0000
0100
0001
0100
0010
0100
0000
,
0001
1000
0000
2001
0000
3001
0000
0210
,
0000
0000
0310
0000
1000
0000
0100
0000
1000
0000
0010
0100
0010
0100
0001
0000
,
0010
0100
1000
0001
0010
0100
1000
0001
,
0010
0100
1000
0001
0010
0100
1000
0001
,
1000
0100
0010
0001
1000
0100
0010
0001
,
1000
0000
0100
0000
0010
0000
0001
0000
1000
0000
0001
0000
0100
0000
0010
0100
,
0010
0000
1000
0000
0100
0000
0001
0000
0100
0000
1000
0000
0000
1010
0000
0000
,
0001
0000
0000
0011
0000
0000
1000
0000
0000
1001
0000
0000
0001
0000
0100
0000
,
0010
0000
1000
0100
1000
0000
0001
0000
0100
0001
0100
0000
0010
0000
1000
0010
,
1000
0000
0001
0000
0010
0001
0010
0000
0001
0000
0100
0000
0010
0000
1001
0000
;

//---------------dance-double - ----------------
#NOTEDATA:;
#CHARTNAME:;
#STEPSTYPE:dance-double;
#DESCRIPTION:;
#CHARTSTYLE:;
#DIFFICULTY:Medium;
#METER:6;
#RADARVALUES:0.396606,0.484893,0.140981,0.173515,0.048801,256.000000,243.000000,13.000000,16.000000,0.000000,0.000000,26.000000,0.000000,0.000000,0.396606,0.484893,0.140981,0.173515,0.048801,256.000000,243.000000,13.000000,16.000000,0.000000,0.000000,26.000000,0.000000,0.000000;
#CREDIT:;
#NOTES:
00000000
00000000
00000000
00000000
,
00000000
00000000
00000000
00000000
,
00000000
00000000
00000000
00000000
,
00000000
00000000
00000000
00000000
,
00000000
00000000
00000000
00000000
,
00000000
00000000
00000000
00000000
,
20000000
00000000
32000000
00000000
,
03040000
00000000
00032000
00003000
,
00001000
00010000
00000000
01000000
00000000
10000000
00000000
04000000
,
00000000
00000000
00000000
00000000
00000000
03000000
00000000
01000000
,
00010000
00000000
00000000
00110000
00000000
00000000
00100000
00001000
,
00100000
00001000
00010000
00000100
,
00002000
00000000
00000000
00000000
00003000
00000100
00000010
00000001
,
00000000
00000001
00000100
00001000
00000100
00000000
00000100
00004000
,
00000000
00000000
00000000
00000000
00000000
00003000
00001000
00100000
,
00010000
00000000
00010000
01000000
00000000
00100000
00000000
20000000
,
00000000
00000000
30000000
01000000
04000000
00000000
00000000
00000000
,
03000000
00010000
00001000
00010000
,
00001000
00000100
00000000
00001000
00000000
00010000
00000000
00200000
,
00000000
10300000
01000000
00100000
,
00002000
00000000
00000000
00000000
00003000
00000000
00010000
00000000
00001000
00000000
00000000
00000100
00000000
00000000
00000001
00000000
,
00000100
00000000
00000000
00001000
00000000
00000000
00010000
00000000
00001000
00000000
00000000
00000000
00010000
00000000
00001000
00000000
,
00000100
00000000
00000000
00000100
00000001
00000000
00000000
00000000
00000010
00000000
00000000
00000000
00000100
00000000
00000000
00010000
,
00001000
00100000
00010000
00100000
,
01000000
00000000
00000000
10000000
01000000
00000000
00000000
00000000
00100000
00000000
00000000
00000000
00001000
00000000
00000000
00010000
,
00001000
00000000
00000100
00000000
00000001
00000100
00001000
00000000
,
00010000
00001000
00000000
00100000
00000000
00010000
00000000
00200000
,
00000000
00301000
00010000
00000100
,
00010000
00000000
00000000
00011000
00000000
00001000
00010000
00000000
,
00001000
00100000
00000000
00100000
00010000
00100000
01000000
10000000
,
01000000
00100000
00000000
00100000
00001000
00000000
00001000
00010000
,
00000000
00010000
00000100
00000000
00001000
00000100
00001000
00000100
,
00000010
00000001
00000000
00000001
00000010
00000000
00000100
00001000
,
00000000
00001000
00000100
00000000
00000100
00010000
00001000
00010000
,
00001000
00000000
00100000
00000000
00110000
00000000
00010000
01000000
,
00000000
00100000
00000000
10100000
00000000
00000000
10000000
00000000
,
02000000
00000000
00000000
03010000
00001000
00000000
00000000
00000000
,
00001000
00000100
00000000
00001000
00000000
00010000
00004000
00040000
,
00000000
00000000
00000000
00000000
00000000
00000000
00000000
00033000
,
00000000
00000000
00000000
00000000
00010000
00010000
00000000
00000000
,
00010000
04000000
10000000
00000000
00010000
00000000
10000000
00000000
,
03010000
01000000
10000000
00100000
00010000
00100000
10000000
02000000
,
00000000
00000000
03200000
00000000
,
00302000
00000000
00000000
00003000
00020000
00000000
00030000
00000000
,
00040400
00030300
00004040
00003030
,
00004004
00003003
00000440
00000330
,
00000100
00001000
00000000
00010000
00000000
00001000
00000000
00100000
,
00000000
00100000
00010000
00100000
00001000
00000010
00000001
00000040
,
00001000
00000001
00001000
00000001
,
00001030
00000010
00000001
00000100
00001000
00010000
01000000
20000000
,
00000000
30000000
02000000
00000000
,
03020000
00000000
00031000
00000000
,
00044000
00033000
00440000
00330000
,
40040000
30030000
40400000
30300000
,
10000000
01000000
00000000
00010000
00000000
00001000
00000000
00040000
,
00004000
00000000
00000000
00000000
00000000
00033000
00000000
00010000
,
00000100
00000000
00001000
00000100
00000000
00000010
00000000
00000001
,
00000000
00000100
00001000
00000100
00000000
00000000
00000100
00001000
,
00010000
00000000
00001000
00100000
00000000
00010000
00000000
01000000
,
00000000
00100000
10000000
01000000
00000000
01000000
00100000
00001000
,
00010000
00000000
00000000
00000000
00010000
00000000
00001000
00000000
00000000
00000000
00010000
00000000
00000000
00001000
00000000
00000000
,
00000100
00000000
00000000
00000010
00000000
00000000
00000001
00000000
00000000
00000100
00000000
00000000
00000010
00000000
00000000
00000000
,
00000010
00000000
00010000
00001000
00000000
00100000
00010000
00000000
,
10000000
00100000
00000000
10000000
00010000
01000000
00100000
10010000
;

//---------------dance-double - ----------------
#NOTEDATA:;
#CHARTNAME:;
#STEPSTYPE:dance-double;
#DESCRIPTION:;
#CHARTSTYLE:;
#DIFFICULTY:Easy;
#METER:5;
#RADARVALUES:0.343932,0.415623,0.227739,0.151826,0.016267,222.000000,201.000000,21.000000,14.000000,0.000000,0.000000,0.000000,0.000000,0.000000,0.343932,0.415623,0.227739,0.151826,0.016267,222.000000,201.000000,21.000000,14.000000,0.000000,0.000000,0.000000,0.000000,0.000000;
#CREDIT:;
#NOTES:
00000000
00000000
00000000
00000000
,
00000000
00000000
00000000
00000000
,
00000000
00000000
00000000
00000000
,
00000000
00000000
00000000
00000000
,
00000000
00000000
00000000
00000000
,
00000000
00000000
00000000
00000000
,
20000000
00000000
32000000
00000000
,
03020000
00000000
00032000
00000000
,
00013000
00001000
00000000
00000100
00000000
00001000
00000000
00020000
,
00000000
00000000
00000000
00000000
00000000
00030000
00000000
00000000
,
00011000
00000000
00000000
00001000
00000000
00000000
00100000
00000000
,
00010000
01000000
00100000
10000000
,
02000000
00000000
00000000
00000000
00000000
00010000
03000000
00001000
,
00000000
00000000
00000000
00000000
00011000
00000000
00000000
00010000
,
00000000
00000100
00001000
00000010
,
00000100
00000000
00000000
00000001
00000000
00000100
00000000
00000020
,
00000000
00000000
00001000
00000100
,
00001030
00000000
00010000
00001000
,
00010000
00001000
00000000
00100000
00000000
00010000
00000000
02000000
,
00000000
03100000
10000000
01000000
,
00010000
00000000
00000000
01000000
20000000
00000000
00000000
00000000
,
00000000
00000000
00000000
30000000
01000000
00000000
00000000
00010000
,
00000000
00001000
00000100
00000001
,
00000100
00001000
00000100
00000001
,
00000010
00001000
00000010
00000001
,
00000010
00001000
00010000
01000000
,
10000000
01000000
00010000
01000000
,
10000000
01000000
00010000
01000000
,
10010000
00000000
00000000
01100000
00000000
01000000
00002000
00000000
,
00000000
00010000
00000000
00000000
00010000
00000000
00013000
00000000
,
00010000
00000000
00000000
00000100
00000000
00000000
00000010
00000000
,
00000001
00000100
00000010
00001000
,
00000100
00000000
00000000
00010000
00000000
00000000
00001000
00000000
,
00000000
00100000
00000000
00000000
00010000
00000000
01000000
00000000
,
10000000
01000000
00010000
00001000
,
00000010
00000001
00000010
00001000
,
00000100
00000001
00000100
00001000
,
00010000
01000000
10000000
01000000
,
00010000
00000000
00001000
00000000
00010000
00000000
00022000
00033000
,
00000000
00000000
00000000
00000000
,
00010000
01000000
00100000
10000000
,
10010000
10000000
01000000
00100000
,
10010000
10000000
00100000
01000000
,
10010000
00010000
01000000
00000000
,
10010000
10000000
00010000
00000000
,
00011000
00010000
00000100
00000000
,
00001000
00000010
00000000
00000100
00000000
00000001
00000000
00000010
,
00000000
00000100
00010000
00000100
,
00001100
00000010
00000001
00000100
,
00001001
00000001
00000100
00000010
,
00001001
00001000
00000100
00000010
,
00001001
00000001
00000100
00000010
,
00001010
00001000
00000010
00000000
,
00011000
00010000
00001000
00000000
,
00100000
00010000
00000000
01000000
00000000
00100000
00000000
20000000
,
00000000
00000000
00000000
00000000
00000000
30000000
00000000
01000000
,
00100000
00000000
00010000
00100000
00000000
00001000
00000000
00010000
,
00000000
00000100
00000000
00001000
00000000
00000000
00001000
00000000
,
00001010
00000000
00000001
00000010
00000000
00000100
00000000
00001000
,
00000000
00010000
00000000
00100000
00000000
10000000
00000000
01000000
,
00010000
00000000
00000000
00000000
00001000
00000000
00020000
00000000
00000000
00000000
00001000
00000000
00000000
00001000
00000000
00000000
,
00001000
00000000
00000000
00001000
00000000
00000000
00001000
00000000
00000000
00001000
00000000
00000000
00031000
00000000
00000000
00000000
,
00011000
00000000
00000000
00001100
00000000
00000000
00011000
00000000
,
00000000
00110000
00000000
00000000
00001000
00010000
00001000
00010000
;
