#TITLE:裸の裸の裸のKISS;
#SUBTITLE:;
#ARTIST:Juice=Juice;
#TITLETRANSLIT:HADAKA NO HADAKA NO HADAKA NO KISS;
#SUBTITLETRANSLIT:;
#ARTISTTRANSLIT:;
#CREDIT:;
#BANNER:[ROUND K] - HADAKA NO HADAKA NO HADAKA NO KISS.png;
#BACKGROUND:[ROUND K] - HADAKA NO HADAKA NO HADAKA NO KISS-bg.png;
#LYRICSPATH:;
#CDTITLE:cdtitle.png;
#MUSIC:[ROUND K] - HADAKA NO HADAKA NO HADAKA NO KISS.ogg;
#OFFSET:-1.305;
#SAMPLESTART:66.808;
#SAMPLELENGTH:15.000;
#SELECTABLE:YES;
#BPMS:0.000=130.000;
#STOPS:;
#BGCHANGES:;

//---------------dance-single - ----------------
#NOTES:
     dance-single:
     :
     Hard:
     8:
     0.400,0.432,0.069,0.059,0.468:
0000
0000
0000
0000
,
0000
0000
0000
0000
,
0000
0000
0000
0000
,
0000
0000
0000
0000
,
1000
0000
0000
1000
0100
0000
0000
0001
0000
0001
0000
0001
0010
0000
0100
0000
,
1000
0000
0000
1000
0100
0000
0000
0010
0000
0010
0000
0010
0001
0000
1000
0000
,
0100
0000
0000
0100
0010
0000
0000
0001
0000
0001
0000
0001
1000
0000
0100
0000
,
0010
0000
0000
0001
1000
0000
0000
0100
0000
0100
0000
0100
0010
0000
0001
0000
,
1000
0000
0000
1000
0100
0000
0000
0010
0000
0010
0000
0010
0001
0000
1000
0000
,
0100
0000
0000
0100
0010
0000
0000
0001
0000
0001
0000
0001
1000
0000
0100
0000
,
0010
0000
0000
0001
1000
0000
0000
0100
0000
0100
0000
0100
0010
0000
0001
0000
,
1000
0000
0000
1000
0100
0000
0000
0010
0000
0010
0000
0010
0001
0000
1000
0000
,
0100
0000
0000
0001
0010
0001
0000
0001
0000
0000
0000
0000
0000
0000
0000
0000
,
0001
0000
0000
1000
0100
1000
0000
1000
0000
0000
0000
0000
0010
0000
0000
0100
,
0010
0100
0010
0000
0000
0000
0000
0000
1000
0000
0000
0000
0001
0000
0000
0000
,
1000
0001
1000
0001
,
0100
0000
0000
0010
0100
0010
0000
0010
0000
0000
0000
0000
0000
0000
0000
0000
,
1000
0000
1000
0100
1000
0100
0000
0100
0000
0000
0000
0000
0010
0000
0000
0000
,
0010
0000
0001
0001
1000
1000
0001
0001
,
0100
0010
1000
0100
,
0010
0000
0000
0001
1000
0001
0000
0001
0000
0000
0000
0000
0010
0000
0000
0000
,
1000
0000
0000
1000
0001
1000
0000
1000
0000
0000
0000
0000
0010
0000
0100
0010
,
0100
0010
0000
0000
1000
0000
0000
0000
0001
0000
0000
0000
1000
0000
0100
0000
,
0020
0000
0000
0130
0000
0000
0000
0000
,
0001
0000
0000
0000
0001
1000
0000
1000
0000
0000
0000
0000
0000
0000
0000
0000
,
0010
0000
0000
0000
0010
0100
0000
0100
0000
0000
0000
0000
1000
0000
0000
0000
,
0001
0100
0010
0100
,
0010
0100
1000
0010
,
1000
0000
1000
0000
1000
0000
0000
0000
0010
0000
0000
0010
0000
0000
0000
0000
,
0011
0000
0000
0000
0011
0000
0000
0000
1000
0000
0000
1000
0000
0000
0000
0000
,
0001
0000
0001
0000
0001
0000
0000
0000
0100
0000
0000
0100
0000
0000
0000
0000
,
1100
0000
0000
0000
1100
0000
0000
0000
0001
0000
0000
0001
0000
0000
0000
0000
,
0100
0010
0100
0010
0100
0010
0100
0010
,
0100
0000
1000
1010
,
2000
0000
0000
0000
0000
3000
0000
0000
0001
0000
0000
0001
0000
0000
0001
0000
,
0002
0000
0000
0000
0000
0000
0003
0000
0100
0000
0000
0100
0000
0000
0010
0000
,
0100
0010
0000
0000
0000
0000
0000
0000
1000
0000
0000
0000
0001
0000
0000
0000
,
0100
0010
0100
0000
0100
0010
0100
0000
0100
0010
0100
0000
0100
0000
0000
0000
,
1000
0000
0010
0000
0001
0000
0000
0000
1000
0000
1000
0010
1000
0000
0000
0000
,
0001
0010
0001
0010
0001
0000
0000
0000
0100
0000
0000
0000
0100
0000
0000
0000
,
1000
0010
1000
0000
1000
0000
0000
0000
0001
0000
0001
0010
0001
0000
0000
0000
,
0100
0010
0100
0010
0100
0000
0000
0000
0000
0000
0000
0000
1010
0000
0000
0000
,
2002
0000
0000
0000
,
3003
0000
0000
0000
,
1000
0000
0000
0000
0010
0000
0000
0100
0000
0100
0000
0100
0001
0000
0001
0000
,
1000
0000
0000
0000
1000
0000
0000
0010
0000
0010
0000
0010
0100
0000
0100
0000
,
0001
0000
0000
0000
0001
0000
0000
1000
0000
1000
0000
1000
0010
0000
0001
0000
,
0100
0000
0000
0000
0100
0000
0000
0010
0000
0010
0000
0010
0100
0000
0010
0000
,
0001
0000
0000
0000
0001
0000
0000
1000
0000
1000
0000
1000
0001
0010
0000
0000
,
0100
0000
0000
0000
0010
0000
0000
0100
0000
0100
0000
0100
0001
0000
0010
0000
,
0000
2000
0000
0000
0000
0000
0000
0000
0000
0000
0000
0000
0000
0000
0000
0000
,
0000
0000
0000
3000
0000
0001
0000
0000
;

//---------------dance-single - ----------------
#NOTES:
     dance-single:
     :
     Medium:
     5:
     0.281,0.305,0.089,0.118,0.364:
0000
0000
0000
0000
,
0000
0000
0000
0000
,
0000
0000
0000
0000
,
0000
0000
0000
0000
,
1000
0000
0000
1000
0000
0000
0000
0001
0000
0001
0000
0001
0000
0000
0000
0000
,
1000
0000
0000
1000
0000
0000
0000
0010
0000
0010
0000
0010
0000
0000
0000
0000
,
0100
0000
0000
0100
0000
0000
0000
0001
0000
0001
0000
0001
0000
0000
0000
0000
,
0010
0000
0000
0010
0000
0000
0000
0100
0000
0100
0000
0100
0000
0000
0000
0000
,
1000
0000
0000
1000
0000
0000
0000
0010
0000
0010
0000
0010
0000
0000
0000
0000
,
0100
0000
0000
0100
0000
0000
0000
0001
0000
0001
0000
0001
0000
0000
0000
0000
,
0001
0000
0000
0001
0000
0000
0000
0100
0000
0100
0000
0100
0000
0000
0000
0000
,
1000
0000
0000
1000
0000
0000
0000
0010
0000
0010
0000
0010
0000
0000
0000
0000
,
1000
0000
0000
0000
0010
0000
0000
1010
0000
0000
0000
0000
0000
0000
0000
0000
,
0001
0000
0000
0000
0100
0000
0000
0101
0000
0000
0000
0000
0010
0000
0000
0000
,
0110
0000
1000
0001
,
1000
0001
1000
0001
,
0100
0000
0000
0010
0000
0010
0000
0010
0000
0000
0000
0000
0000
0000
0000
0000
,
1000
0000
0000
0100
0000
0100
0000
0100
0000
0000
0000
0000
0110
0000
0000
0000
,
0110
0000
0002
0000
0000
0000
0000
0003
,
0100
0100
0100
0100
,
0010
0000
0000
0001
0000
0001
0000
0001
0000
0000
0000
0000
0000
0000
0000
0000
,
1000
0000
0000
1000
0000
1000
0000
1000
0000
0000
0000
0000
0010
0000
0000
0000
,
0110
1000
0001
1000
,
0020
0000
0000
0030
0000
0000
0000
0000
,
0001
0000
0000
0000
0001
0000
0000
1000
0000
0000
0000
0000
0000
0000
0000
0000
,
0100
0000
0000
0000
0010
0000
0000
0100
0000
0000
0000
0000
1000
0000
0000
0000
,
0001
0200
0000
0000
,
0000
0000
0000
0300
,
2000
0000
0000
0000
3000
0000
0000
0000
0010
0000
0000
0010
0000
0000
0000
0000
,
0002
0000
0000
0000
0003
0000
0000
0000
1000
0000
0000
1000
0000
0000
0000
0000
,
0020
0000
0000
0000
0030
0000
0000
0000
0001
0000
0000
0001
0000
0000
0000
0000
,
0200
0000
0000
0000
0300
0000
0000
0000
0001
0000
0000
0001
0000
0000
0000
0000
,
1000
0001
1000
0001
,
1000
0000
0100
0010
,
2000
0000
0000
0000
0000
3000
0000
0000
0001
0000
0000
0001
0000
0000
0001
0000
,
0002
0000
0000
0000
0000
0000
0003
0000
0100
0000
0000
0100
0000
0000
0100
0000
,
0100
0010
0000
0000
0000
0000
0000
0000
1000
0000
0000
0000
0001
0000
0000
0000
,
0110
0100
0110
0010
,
1000
1000
1000
0000
0001
0001
0001
0000
,
0100
0100
0100
0000
0000
0000
0010
0000
,
0010
0010
0010
0000
1000
1000
1000
0000
,
0100
0100
0100
0000
0000
0000
0001
0000
,
2002
0000
0000
0000
,
3003
0000
0000
0000
,
1000
0000
0000
0000
1000
0000
0000
0100
0000
0100
0000
0100
0000
0000
0000
0000
,
0000
0000
0000
0000
0100
0000
0000
0010
0000
0010
0000
0010
0000
0000
0000
0000
,
0001
0000
0000
0000
0001
0000
0000
1000
0000
1000
0000
1000
0000
0000
0000
0000
,
0100
0000
0000
0000
0100
0000
0000
0010
0000
0010
0000
0010
0000
0000
0000
0000
,
0001
0000
0000
0000
0001
0000
0000
1000
0000
1000
0000
1000
0000
0000
0000
0000
,
0010
0000
0000
0000
0010
0000
0000
0100
0000
0100
0000
0100
0000
0000
0000
0000
,
0000
2000
0000
0000
0000
0000
0000
0000
0000
0000
0000
0000
0000
0000
0000
0000
,
0000
0000
0000
3000
0000
0001
0000
0000
;

//---------------dance-single - ----------------
#NOTES:
     dance-single:
     :
     Easy:
     3:
     0.176,0.229,0.020,0.079,0.000:
0000
0000
0000
0000
,
0000
0000
0000
0000
,
0000
0000
0000
0000
,
0000
0000
0000
0000
,
0001
1000
0001
0001
,
0000
1000
0010
0010
,
0000
0100
0001
0001
,
0000
0010
1000
1000
,
0000
0100
0010
0010
,
0000
0100
0001
0001
,
0000
0010
1000
1000
,
0000
0010
0100
0100
,
1000
0001
1000
0000
,
0010
0100
0100
0010
,
0100
0000
0000
0000
,
0000
0000
0000
0000
,
1000
0100
0100
0000
,
0001
0010
0010
1000
,
0010
0000
0000
0000
,
0000
0000
0000
0000
,
1000
0001
0001
0000
,
0001
1000
1000
0100
,
0010
0000
0000
0000
,
0002
0000
0000
0003
0000
0000
0000
0000
,
1000
1000
0100
0000
,
0010
0010
0001
0100
,
0010
0000
0000
0000
,
0000
0000
0000
0000
,
1000
0010
2000
3000
,
0001
0000
0200
0300
,
0010
0000
0002
0003
,
1000
0000
0020
0030
,
0001
1000
0001
1000
,
0001
0000
0100
0000
,
0020
0030
0100
0000
,
0110
0000
0000
0000
,
1001
0000
0100
0010
,
0100
0100
0100
0100
,
0010
0000
1000
0000
,
0001
0000
0100
0000
,
0010
1000
0001
0100
,
0001
0100
0000
0000
,
0020
0000
0000
0000
,
0030
0000
0000
0000
,
1000
0010
1000
1000
,
0000
0001
0100
0001
,
0000
1000
0010
0010
,
0000
0001
0100
0100
,
0000
1000
0100
0100
,
0000
0010
0001
0001
,
0000
2000
0000
0000
0000
0000
0000
0000
,
0000
0000
0000
3000
0000
0001
0000
0000
;

//---------------dance-single - Copied from ----------------
#NOTES:
     dance-single:
     Copied from:
     Beginner:
     1:
     0.070,0.123,0.000,0.000,0.000: // measure 1
0000
0000
0000
0000
,  // measure 2
0000
0000
0000
0000
,  // measure 3
0000
0000
0000
0000
,  // measure 4
0000
0000
0000
0000
,  // measure 5
1000
0000
0000
0000
,  // measure 6
0001
0000
0000
0000
,  // measure 7
1000
0000
0000
0000
,  // measure 8
0001
0000
0000
0000
,  // measure 9
1000
0000
0000
0000
,  // measure 10
0001
0000
0000
0000
,  // measure 11
1000
0000
0000
0000
,  // measure 12
0001
0000
0000
0000
,  // measure 13
0100
0000
0000
0000
,  // measure 14
0100
0000
0000
0000
,  // measure 15
0100
0000
0000
0000
,  // measure 16
0000
0000
0000
0000
,  // measure 17
0010
0000
0000
0000
,  // measure 18
0010
0000
0000
0000
,  // measure 19
0010
0000
0000
0000
,  // measure 20
0000
0000
0000
0000
,  // measure 21
0100
0000
0000
0000
,  // measure 22
0100
0000
0000
0000
,  // measure 23
0100
0000
0000
0000
,  // measure 24
0010
0000
0000
0000
,  // measure 25
0010
0000
0000
0000
,  // measure 26
0010
0000
0000
0000
,  // measure 27
0010
0000
0000
0000
,  // measure 28
0000
0000
0000
0000
,  // measure 29
1000
0000
0001
0000
,  // measure 30
1000
0000
0001
0000
,  // measure 31
1000
0000
0001
0000
,  // measure 32
1000
0000
0001
0000
,  // measure 33
0100
0000
0100
0000
,  // measure 34
0100
0000
0010
0000
,  // measure 35
0010
0000
0010
0000
,  // measure 36
0010
0000
0000
0000
,  // measure 37
1000
0000
0000
0000
,  // measure 38
0001
0000
0000
0000
,  // measure 39
0001
0000
0000
0000
,  // measure 40
1000
0000
0000
0000
,  // measure 41
0001
0000
0000
0000
,  // measure 42
0001
0000
0000
0000
,  // measure 43
0100
0000
0000
0000
,  // measure 44
0000
0000
0000
0000
,  // measure 45
0010
0000
0000
0000
,  // measure 46
0100
0000
0000
0000
,  // measure 47
0010
0000
0000
0000
,  // measure 48
0100
0000
0000
0000
,  // measure 49
0010
0000
0000
0000
,  // measure 50
0100
0000
0000
0000
,  // measure 51
0000
1000
0000
0000
0000
0000
0000
0000
;
