#VERSION:0.83;
#TITLE:Go! Go! Sega Rally;
#SUBTITLE:;
#ARTIST:Tatsuhiko Fuyuno;
#TITLETRANSLIT:;
#SUBTITLETRANSLIT:;
#ARTISTTRANSLIT:;
#GENRE:;
#ORIGIN:;
#CREDIT:;
#BANNER:[ROUND K] - Go! Go! Sega Rally.png;
#BACKGROUND:[ROUND K] - Go! Go! Sega Rally-bg.png;
#PREVIEWVID:;
#JACKET:[ROUND K] - Go! Go! Sega Rally-jacket.png;
#CDIMAGE:;
#DISCIMAGE:;
#LYRICSPATH:;
#CDTITLE:;
#MUSIC:[ROUND K] - Go! Go! Sega Rally.ogg;
#OFFSET:-0.680000;
#SAMPLESTART:15.700000;
#SAMPLELENGTH:12.000000;
#SELECTABLE:YES;
#DISPLAYBPM:128.000000;
#BPMS:0.000=127.600,
16.000=128.020;
#STOPS:;
#DELAYS:;
#WARPS:;
#TIMESIGNATURES:0.000=4=4;
#TICKCOUNTS:0.000=4;
#COMBOS:0.000=1;
#SPEEDS:0.000=1.000=0.000=0;
#SCROLLS:0.000=1.000;
#FAKES:;
#LABELS:0.000=Song Start;
#LASTSECONDHINT:84.000000;
#BGCHANGES:;
#KEYSOUNDS:;
#ATTACKS:
;

//---------------dance-single - ----------------
#NOTEDATA:;
#CHARTNAME:;
#STEPSTYPE:dance-single;
#DESCRIPTION:;
#CHARTSTYLE:;
#DIFFICULTY:Beginner;
#METER:1;
#RADARVALUES:0.129915,0.166724,0.054131,0.064958,0.000000,84.000000,79.000000,5.000000,6.000000,0.000000,0.000000,0.000000,0.000000,0.000000,0.129915,0.166724,0.054131,0.064958,0.000000,84.000000,79.000000,5.000000,6.000000,0.000000,0.000000,0.000000,0.000000,0.000000;
#CREDIT:;
#DISPLAYBPM:128.000000;
#NOTES:
0000
0000
0000
0000
,
0000
0000
0000
0000
,
0000
0000
0000
0000
,
0000
0000
0000
0000
,
1000
0000
1000
0000
,
0001
0000
0001
0000
,
0010
0000
0010
0000
,
0200
0000
0300
0000
,
0000
1000
1000
0000
,
0001
0001
0000
0000
,
0010
0000
0100
0000
,
1000
0000
0001
0000
,
0000
0001
0001
0000
,
1000
1000
0000
0000
,
0010
0000
0100
0000
,
0001
0000
1000
0000
,
0000
0100
0100
0000
,
0010
0010
0000
0000
,
0001
0000
0010
0000
,
0100
0000
1000
0000
,
0000
0010
0010
0000
,
0100
0100
0000
0000
,
1000
0000
0100
0000
,
0020
0000
0030
0000
,
1000
0000
0100
0000
,
0100
0000
0010
0000
,
0001
0000
0100
0000
,
0100
0000
0010
0000
,
0010
0000
1000
0000
,
1000
0000
0100
0000
,
0010
0000
0001
0000
,
0001
0000
0100
0000
,
0002
0000
0100
0000
,
0103
0000
1001
0000
,
2000
0000
0100
0000
,
3100
0000
0110
0000
,
0020
0000
0001
0000
,
0031
0000
1001
0000
,
0200
0000
1000
0000
,
1300
0000
0110
0000
,
0001
0000
0100
0000
,
1000
0000
0100
0000
,
0001
0000
0010
0000
,
1000
0000
0010
0000
,
1001
0000
0000
0000
;

//---------------dance-single - ----------------
#NOTEDATA:;
#CHARTNAME:;
#STEPSTYPE:dance-single;
#DESCRIPTION:;
#CHARTSTYLE:;
#DIFFICULTY:Easy;
#METER:3;
#RADARVALUES:0.266017,0.285813,0.292309,0.075784,0.000000,172.000000,145.000000,27.000000,7.000000,0.000000,0.000000,0.000000,0.000000,0.000000,0.266017,0.285813,0.292309,0.075784,0.000000,172.000000,145.000000,27.000000,7.000000,0.000000,0.000000,0.000000,0.000000,0.000000;
#CREDIT:;
#DISPLAYBPM:128.000000;
#NOTES:
0000
0000
0000
0000
,
0000
0000
0000
0000
,
0000
0000
0000
0000
,
0000
0000
0000
0000
,
1000
0100
0001
0100
,
1000
0010
0100
0001
,
0001
0010
1000
0010
,
0002
0000
0003
0110
,
1000
1010
0110
0000
,
0100
0001
0001
0100
,
0001
0010
0100
1000
,
0010
1000
0100
0010
,
0001
0101
0110
0000
,
0010
1000
1000
0010
,
1000
0100
0010
0001
,
0010
1000
0001
0100
,
1000
1010
0011
0001
,
1000
0001
0100
0010
,
1000
1000
0001
0001
,
0010
0100
0010
0110
,
0001
0011
1010
1000
,
0001
1000
0010
0100
,
0001
0001
1000
1000
,
0020
0000
0030
1001
,
2000
0100
0000
0100
,
0000
3010
0110
0110
,
0002
0010
0000
0010
,
0000
0103
1001
1001
,
0020
1000
0000
1000
,
0000
0130
0110
0110
,
0200
0001
0000
0001
,
0000
0310
1001
1001
,
1000
1000
0100
0010
,
0001
0001
0110
0110
,
0001
0001
0100
0010
,
1000
1000
1001
1001
,
0010
0010
1000
0001
,
0100
0100
0110
0110
,
0100
0100
0001
1000
,
0020
0000
0030
1001
,
1000
0100
1000
1000
,
0001
0100
0001
0001
,
1000
0010
1000
1000
,
0001
0010
0001
0001
,
1001
0000
0000
0000
;

//---------------dance-single - ----------------
#NOTEDATA:;
#CHARTNAME:;
#STEPSTYPE:dance-single;
#DESCRIPTION:;
#CHARTSTYLE:;
#DIFFICULTY:Medium;
#METER:5;
#RADARVALUES:0.375826,0.428720,0.378919,0.129915,0.000000,243.000000,208.000000,35.000000,12.000000,0.000000,0.000000,0.000000,0.000000,0.000000,0.375826,0.428720,0.378919,0.129915,0.000000,243.000000,208.000000,35.000000,12.000000,0.000000,0.000000,0.000000,0.000000,0.000000;
#CREDIT:;
#DISPLAYBPM:128.000000;
#NOTES:
// measure 0
0000
0000
0000
0000
,  // measure 1
0000
0000
0000
0000
,  // measure 2
0000
0000
0000
0000
,  // measure 3
0000
0000
0000
0000
,  // measure 4
1000
0010
1000
0000
1001
0000
1001
0000
,  // measure 5
0001
0100
0001
0000
1001
0000
1001
0000
,  // measure 6
0010
0001
0010
0000
0110
0000
0110
0000
,  // measure 7
2000
0000
0000
0000
0000
0001
3001
0000
,  // measure 8
0100
0010
0011
0000
1100
0000
1000
0000
,  // measure 9
1000
0100
0010
0100
1000
0000
0110
0000
,  // measure 10
0000
0001
0100
0001
0010
0100
0000
0000
,  // measure 11
0010
0100
1000
0001
0100
0000
0110
0000
,  // measure 12
0100
0010
1010
0000
0101
0000
0110
0000
,  // measure 13
1000
0001
0010
0001
1000
0000
1001
0000
,  // measure 14
0000
1000
0100
1000
0010
0200
0000
0000
,  // measure 15
0302
0023
0230
2300
,  // measure 16
3001
1000
1001
0000
0110
0000
1010
0000
,  // measure 17
0101
0100
0010
1000
0001
0000
0011
0000
,  // measure 18
1100
1000
0010
1000
0100
1000
0010
0000
,  // measure 19
0100
0001
0010
0001
0100
0001
0010
0000
,  // measure 20
0100
0010
0110
0000
1001
0000
0011
0000
,  // measure 21
1100
1000
0001
0100
0010
0000
1010
0000
,  // measure 22
0101
0100
0010
1000
0010
0100
0010
0000
,  // measure 23
2000
0000
0000
0000
0000
0001
3001
0000
,  // measure 24
0200
0001
0010
1000
,  // measure 25
0010
0000
0301
0000
0100
0000
0001
0010
,  // measure 26
0200
1000
0010
0001
,  // measure 27
0010
0000
1300
0000
0001
1000
0001
0000
,  // measure 28
2000
0100
0010
0001
,  // measure 29
0010
0000
3100
0000
1000
0000
0010
0100
,  // measure 30
0002
0010
1000
0100
,  // measure 31
0010
0000
0100
0000
1003
0001
1001
0000
,  // measure 32
0001
0100
1000
0000
1000
0100
0001
0000
,  // measure 33
0001
0010
0100
1000
0010
0000
0110
0000
,  // measure 34
1000
0010
0001
0000
0001
0010
1000
0000
,  // measure 35
1000
0100
0010
0001
0100
0000
1001
0000
,  // measure 36
0100
0001
0010
0000
0100
0010
0001
0000
,  // measure 37
1000
0010
0100
0010
1000
0000
1001
0000
,  // measure 38
0100
1000
0010
0000
0100
0010
1000
0000
,  // measure 39
0002
0000
0000
0000
0000
0000
1003
1000
,  // measure 40
0100
0010
0010
0000
0100
0000
0110
0000
,  // measure 41
0001
0100
0100
0000
0010
0000
0110
0000
,  // measure 42
0010
1000
1000
0000
0001
0000
1001
0000
,  // measure 43
0100
0001
0001
0000
1000
0000
1001
0000
,  // measure 44
0110
0000
0000
0000
;

//---------------dance-single - ----------------
#NOTEDATA:;
#CHARTNAME:;
#STEPSTYPE:dance-single;
#DESCRIPTION:;
#CHARTSTYLE:;
#DIFFICULTY:Hard;
#METER:8;
#RADARVALUES:0.499555,0.571627,0.140741,0.400572,0.422224,323.000000,310.000000,13.000000,37.000000,0.000000,0.000000,0.000000,0.000000,0.000000,0.499555,0.571627,0.140741,0.400572,0.422224,323.000000,310.000000,13.000000,37.000000,0.000000,0.000000,0.000000,0.000000,0.000000;
#CREDIT:;
#DISPLAYBPM:128.000000;
#NOTES:
0000
0000
0000
0000
,
0000
0000
0000
0000
,
0000
0000
0000
0000
,
0000
0000
0000
0000
,
1000
0000
0010
0000
0000
1000
0010
0000
0000
0100
0000
0000
0001
0000
0000
0000
0000
0001
0010
0000
0000
0100
0000
0000
,
0010
0000
0001
0000
0000
0010
0001
0000
0000
0100
0000
0000
0010
0000
0000
0000
0000
0010
1000
0000
0000
0100
0000
0000
,
0010
0000
0100
0000
0000
0010
0100
0000
0000
1000
0000
0000
0001
0000
0000
0000
0000
0001
1000
0000
0000
0010
0000
0000
,
0200
0000
0000
0000
0000
0000
0000
0000
0000
0000
0000
0000
0301
0000
1000
0001
0000
1000
0001
0000
0000
0100
0000
0000
,
0010
1000
1020
0000
0100
0000
0001
0000
,
0130
0000
0000
0001
0000
0000
0010
0000
0000
1000
0000
0000
0010
0000
0100
0000
0000
0001
0000
0000
0000
0110
0000
0000
,
1001
0000
0000
0001
0000
0000
0010
0000
0000
0100
0000
0010
0000
0000
0000
0002
0000
0000
0103
0000
0000
0000
0000
0000
,
0001
0000
0000
0010
0000
0000
0100
0000
0000
1000
0000
0000
0001
0000
1000
0000
0000
0010
0000
0000
0000
0100
0000
0000
,
0001
0010
0021
0000
0100
0000
1000
0000
,
0130
0000
0000
1000
0000
0000
0010
0000
0000
0001
0000
0000
0010
0000
0100
0000
0000
1000
0000
0000
0000
0110
0000
0000
,
1001
0000
0000
0100
0000
0000
0010
0000
0000
1000
0000
0010
0000
0000
0000
0100
0000
0000
0001
0000
0000
0000
0000
0000
,
0020
0000
0000
0000
0000
0032
0000
0000
0000
0203
0000
0000
0310
0000
1000
0010
0000
0000
0100
0000
0001
0100
0000
0000
,
0001
0000
0010
0000
0000
0100
1000
0000
0000
0010
0000
0000
0100
0000
0000
0000
0000
0000
0110
0000
0000
0000
0000
0000
,
1000
0000
0010
0000
0000
0100
0001
0000
0000
0010
0000
0000
0100
0000
0000
0000
0000
0000
1001
0000
0000
0000
0000
0000
,
0001
0000
0000
0010
0000
0000
1000
0000
0000
0010
0000
0001
0000
0000
0000
0100
0000
0000
0010
0000
0000
0000
0000
0000
,
1000
0000
0000
0100
0000
0000
0001
0000
0000
0100
0000
0000
0010
0000
0100
0010
0000
0100
0010
0000
0000
0000
0000
0000
,
0010
0000
0001
0000
0000
1000
0100
0000
0000
0010
0000
0000
0100
0000
0000
0000
0000
0000
1001
0000
0000
0000
0000
0000
,
0100
0000
1000
0000
0000
0001
0010
0000
0000
0100
0000
0000
0010
0000
0000
0000
0000
0000
0110
0000
0000
0000
0000
0000
,
0001
0010
0100
0010
0001
1000
0100
0010
,
0200
0000
0000
0000
0000
0000
0000
0000
0000
0000
0000
0000
1300
0000
0001
1000
0000
0001
1000
0000
0000
0000
0000
0000
,
0200
2300
3020
0032
,
0023
0000
0000
0000
0000
0000
2030
0000
0000
0000
0000
0000
3001
0000
0010
0000
0000
0001
0010
0000
0000
0001
0000
0000
,
0200
0302
0023
2030
,
3020
0000
0000
0000
0000
0000
0032
0000
0000
0000
0000
0000
1003
0000
0001
1000
0000
0001
1000
0000
0000
0010
0000
0100
,
0002
0023
0230
2300
,
3002
0000
0000
0000
0000
0000
0203
0000
0000
0000
0000
0000
0310
0000
0100
0000
0000
0001
0010
0000
0000
0100
0000
0000
,
2000
3200
0320
0032
,
2003
0000
0000
0000
0000
0000
3020
0000
0000
0000
0000
0000
0130
0000
0010
1000
0000
0001
0010
0000
0000
0001
0000
0000
,
0100
0000
0000
0010
0000
0000
0001
0000
0000
0010
0000
0000
1000
0000
0010
1000
0000
0010
1000
0000
0000
0100
0000
0000
,
0010
0000
0001
0010
0000
0001
0010
0000
0000
0100
0000
0000
2000
0000
0000
0000
0000
3002
0000
0000
0000
0103
0000
0000
,
0100
0000
0000
0010
0000
0000
1000
0000
0000
0010
0000
0000
0100
0000
1000
0100
0000
1000
0100
0000
0000
0010
0000
0000
,
1000
0000
0001
1000
0000
0001
1000
0000
0000
0001
0000
0000
0010
0000
0100
1000
0000
0001
0010
0000
0000
0110
0000
0000
,
0001
0000
0000
0100
0000
0000
0010
0000
0000
1000
0000
0000
0001
0000
0010
0001
0000
0010
0100
0000
0000
1000
0000
0000
,
1000
0000
0010
1000
0000
0010
0100
0000
0000
0001
0000
0000
0002
0000
0000
0000
0000
2003
0000
0000
0000
3010
0000
0000
,
1000
0000
0000
0100
0000
0000
0010
0000
0000
0001
0000
0000
1000
0000
0001
1000
0000
0001
0010
0000
0100
0010
0000
0100
,
2000
0000
0000
0000
0000
0000
0000
0000
0000
0000
0000
0000
3001
1000
0001
1000
,
0001
0000
0100
0000
0000
0001
0100
0000
0000
0010
0000
0000
1000
0000
0000
0000
0000
1000
0100
0000
0000
0010
0000
0000
,
0100
0000
1000
0000
0000
0100
1000
0000
0000
0010
0000
0000
0100
0000
0000
0000
0000
0100
0001
0000
0000
0010
0000
0000
,
0100
0000
0010
0000
0000
0100
0010
0000
0000
0001
0000
0000
1000
0000
0000
0000
0000
1000
0001
0000
0000
0100
0000
0000
,
0010
0000
1000
0000
0000
0010
0100
0000
0000
0001
0000
0000
0100
0000
0000
0000
0000
0010
0100
0000
0000
0110
0000
0000
,
1001
0000
0000
0000
;
