#TITLE:Automatic;
#SUBTITLE:(LA Riots Remix);
#ARTIST:weezer;
#TITLETRANSLIT:;
#SUBTITLETRANSLIT:;
#ARTISTTRANSLIT:;
#GENRE:POP ROCK;
#CREDIT:Telperion+;
#BANNER:[ROUND K] - Automatic (LA Riots Remix).png;
#BACKGROUND:[ROUND K] - Automatic (LA Riots Remix)-bg.png;
#JACKET:[ROUND K] - Automatic (LA Riots Remix)-jacket.png;
#LYRICSPATH:;
#CDTITLE:cdtitle.png;
#MUSIC:[ROUND K] - Automatic (LA Riots Remix).ogg;
#OFFSET:-2.291000;
#SAMPLESTART:46.270000;
#SAMPLELENGTH:12.000000;
#SELECTABLE:YES;
#BPMS:0.000000=120.000000
;
#STOPS:
;
#BGCHANGES:;
#KEYSOUNDS:;
#ATTACKS:;

//---------------dance-single - Telperion----------------
#NOTES:
     dance-single:
     Telperion:
     Hard:
     8:
     0.402494,0.577799,0.117394,0.359520,0.429222,384.000000,368.000000,16.000000,49.000000,0.000000,0.000000,0.402494,0.577799,0.117394,0.359520,0.429222,384.000000,368.000000,16.000000,49.000000,0.000000,0.000000:
0000
0000
0000
0000
,
0000
0000
0000
0000
,
0000
0000
0000
0000
,
0000
0000
0000
0000
,
0000
0000
0000
0000
,
0000
0000
0000
0000
,
0000
0000
0000
0000
,
0000
0000
0000
0000
,
0000
0000
0000
0000
,
0000
0000
0000
0000
0000
0000
0000
0000
0001
1000
0001
0010
0000
0100
1000
0001
,
0100
0001
0100
0010
1000
0010
1000
0001
,
0010
0000
0001
0000
0010
0100
0010
0100
1000
0000
0100
0000
1000
0000
0001
0000
,
0100
0000
0000
0100
0010
0000
0000
0010
1000
0000
0000
1000
0100
0000
0000
0100
,
0010
0000
0000
0010
0001
0000
0000
0001
0100
0000
0000
0100
0010
0000
0000
0010
,
1000
0001
1000
0001
0010
0000
0100
0000
1000
0000
0100
0000
1000
0000
0001
0000
,
0100
0001
0100
0010
1000
0010
1000
0001
,
0010
0000
0000
0010
0100
0000
0000
1000
0001
0000
0000
0001
0100
0000
0000
0010
,
1000
0000
0000
1000
0100
0000
0000
0010
0001
0000
0000
0001
1000
0000
0010
0100
,
0010
1010
0101
1010
,
0001
0010
0011
0000
1100
0000
0011
0000
,
1000
0100
0001
2000
0000
3010
0001
1000
,
0010
0100
0001
0000
1001
0000
0000
0000
,
2000
0000
0100
0000
3002
0000
0103
0001
,
0010
0000
0100
1000
0000
0000
1000
0000
0001
0000
0000
0100
0000
0000
0010
0000
,
1020
0000
0000
0000
0031
0000
0000
0000
1000
0100
0010
0002
0000
0000
1003
0000
,
0021
0000
0000
0000
1030
0000
0000
0000
0001
1000
0010
0200
0000
0000
0300
0000
,
0002
0000
0010
0000
2003
0000
3010
1000
,
0100
0000
0010
0001
0000
0000
0001
0000
1000
0000
0000
1000
0000
0000
0001
0000
,
0201
0000
0000
0000
1300
0000
0000
0000
0001
0100
0010
2000
0000
0000
3001
0000
,
1200
0000
0000
0000
0301
0000
0000
0000
1000
0001
0010
0400
0000
0000
0300
0000
,
1000
0000
0001
1000
0010
0000
1000
0000
1000
0001
0000
0001
,
0010
0000
0001
1000
0100
0000
0100
0000
1000
0010
0100
0000
,
0001
0000
1000
0001
0010
0000
0001
0000
1000
0010
0100
0000
,
0001
0000
0001
1000
0100
0000
0010
0000
0010
0100
1000
0000
,
0001
0000
1000
0001
0010
0000
0001
0000
0001
1000
0010
0000
,
0010
0000
1000
0001
0100
0000
0100
0000
0001
0010
0100
0000
,
1000
0000
0001
1000
0010
0000
1000
0000
0001
0010
0100
0000
,
1000
0000
1000
0001
0100
0000
0010
0000
0010
0100
0001
0000
,
1000
0000
1000
0100
0000
0100
0010
0000
0010
0001
0000
0001
,
1000
0010
0100
0002
0000
1003
0001
0100
,
0010
0000
0010
1000
0000
1000
0001
0000
0001
0010
0000
0010
,
0001
0010
0100
2000
0000
3001
1000
0020
,
0100
0100
0130
0100
,
0002
0000
0023
0000
1000
0000
0031
0010
,
0100
0000
1000
0001
0000
0000
1000
0000
0010
0000
0000
0100
0000
0000
0001
0000
,
0102
0000
0000
0000
0023
0000
0000
0000
0130
0001
0100
2000
0000
0000
3000
0000
,
1020
0000
0000
0000
0230
0000
0000
0000
1300
0100
0001
0020
0000
0000
0030
0000
,
1002
0000
0203
0000
1000
0000
0301
0100
,
0010
0000
1000
0001
0000
0000
0001
0000
0010
0000
0000
0100
0000
0000
1000
0000
,
2100
0000
0000
0000
3020
0000
0000
0000
0130
1000
0100
0002
0000
0000
0003
0000
,
0021
0000
0000
0000
0230
0000
0000
0000
0301
0100
1000
0020
0000
0000
0030
0000
,
0100
0000
0002
0023
0230
0000
1300
0001
,
0100
0000
0010
0100
0000
0010
0000
1000
0000
0100
0000
0000
0010
0000
0002
0000
,
1000
0000
0000
0000
0013
0000
0000
0000
1000
0010
0100
0002
0000
0000
0103
0010
,
2000
0000
0000
0000
3020
0000
0000
0000
0130
0000
0001
1000
0100
0000
1000
0001
,
0100
0010
1000
0001
0010
0100
1000
0100
0010
0001
1000
0010
,
0010
0100
0001
0100
0010
1000
1000
0001
0010
0100
0010
0001
,
1000
0010
1000
0001
0010
0001
2000
0000
0000
3020
0000
0000
,
0130
0010
0001
2000
0000
3200
0000
0302
,
0010
0010
0023
0230
,
2300
0000
0000
0002
0000
0000
3003
0000
,
0200
0000
0000
0000
,
0020
0000
0000
0000
,
0330
0000
0000
0000
;

//---------------dance-single - Telperion----------------
#NOTES:
     dance-single:
     Telperion:
     Medium:
     5:
     0.231644,0.321000,0.036686,0.425554,0.091714,221.000000,216.000000,5.000000,58.000000,0.000000,0.000000,0.231644,0.321000,0.036686,0.425554,0.091714,221.000000,216.000000,5.000000,58.000000,0.000000,0.000000:
0000
0000
0000
0000
,
0000
0000
0000
0000
,
0000
0000
0000
0000
,
0000
0000
0000
0000
,
0000
0000
0000
0000
,
0000
0000
0000
0000
,
0000
0000
0000
0000
,
0000
0000
0000
0000
,
0000
0000
0000
0000
,
0000
0000
0000
0000
,
1000
0000
0001
0000
0010
0000
0100
1000
,
0001
0000
0100
0000
0010
0000
1000
0001
,
0100
0000
0010
0000
1000
0000
0001
0010
,
0200
2300
3002
0203
,
0301
1000
0001
1000
0001
0000
0000
0000
0100
0000
0000
0000
0010
0000
1000
0000
,
0001
0000
0010
0000
0100
0000
1000
0001
,
0010
0000
0100
0000
1000
0000
0001
0100
,
0020
2030
3002
0023
,
0130
0100
0100
0100
,
1000
1000
0001
0001
,
0100
0001
0100
0020
0000
1030
0010
0100
,
0001
1000
0001
0000
,
2001
0000
0100
0000
0020
0000
3000
1030
,
0002
0000
0000
0000
0023
0000
0000
0000
0130
0000
0000
0100
0000
0000
0100
0000
,
2000
0020
3030
0000
,
0002
0020
0033
0000
,
1100
0000
0010
0002
0200
0000
0003
0301
,
2000
0000
0000
0000
3020
0000
0000
0000
0130
0000
0000
0100
0000
0000
0100
0000
,
0002
0020
0033
0000
,
2000
0020
3030
0000
,
0001
0000
0000
1000
0000
0000
0001
0000
0010
0000
0100
0000
,
1000
0000
0000
0001
0000
0000
1000
0000
0010
0000
0100
0000
,
0001
0000
0000
1000
0000
0000
0010
0000
1000
0000
0001
0000
,
0010
0000
0000
0100
0000
0000
0010
0000
0001
0000
1000
0000
,
0001
0000
0000
0100
0000
0000
0001
0000
0010
0000
0100
0000
,
1000
0000
0000
0100
0000
0000
1000
0000
0001
0000
0100
0000
,
0010
0000
0000
0100
0000
0000
0001
0000
0100
0000
0010
0000
,
1000
0010
0100
0001
,
1000
2000
3000
0000
,
0001
0010
0001
0200
0000
0301
0010
0100
,
1000
0002
0003
0000
,
1000
0010
1000
0200
0000
0310
0001
1000
,
0010
0010
0010
0000
,
1002
0000
0100
0000
0020
0000
0003
0031
,
2000
0000
0000
0000
3020
0000
0000
0000
0130
0000
0000
0100
0000
0000
0100
0000
,
0002
0020
0033
0000
,
2000
0020
3030
0000
,
2001
0000
0100
0000
0020
0000
3000
1030
,
0002
0000
0000
0000
0023
0000
0000
0000
0130
0000
0000
0100
0000
0000
0100
0000
,
2000
0020
3030
0000
,
0002
0020
0033
0000
,
1100
0000
0001
0200
0020
0000
0300
0130
,
0001
0000
0000
1000
0000
0000
0000
0000
0100
0000
1000
0000
0100
0000
0010
0000
,
0002
0200
0303
0000
,
2000
0200
3300
0000
,
0001
0000
0000
1000
0000
0000
0001
0000
0000
1000
0000
0010
,
0100
0000
0000
0001
0000
1000
0100
0000
0000
1000
0000
0000
,
0001
0000
0001
0010
0000
0010
0100
0000
0000
1000
0000
0000
,
0001
0010
0100
2000
0000
3100
0010
0001
,
0200
0000
0320
0000
,
2030
0000
3000
0000
,
0002
0000
0023
0000
,
0230
0000
0300
0000
;

//---------------dance-single - Telperion----------------
#NOTES:
     dance-single:
     Telperion:
     Easy:
     3:
     0.109009,0.196452,0.000000,0.234788,0.000000,104.000000,104.000000,0.000000,32.000000,0.000000,0.000000,0.109009,0.196452,0.000000,0.234788,0.000000,104.000000,104.000000,0.000000,32.000000,0.000000,0.000000:
0000
0000
0000
0000
,
0000
0000
0000
0000
,
0000
0000
0000
0000
,
0000
0000
0000
0000
,
0000
0000
0000
0000
,
0000
0000
0000
0000
,
0000
0000
0000
0000
,
0000
0000
0000
0000
,
0000
0000
0000
0000
,
0000
0000
0000
0000
,
1000
0000
0001
0000
,
0010
0001
0010
0100
,
1000
0000
0001
0000
,
0010
0000
0001
0100
,
0001
0000
1000
0000
,
0010
1000
0010
0100
,
0001
0000
1000
0000
,
0010
1000
0010
0000
,
0200
0000
0300
0000
,
0002
0000
0003
0000
,
1000
0010
0100
0001
,
0010
0010
0010
0000
,
0000
0000
2000
0000
0200
0000
0000
3300
,
0001
0100
0010
0100
,
0002
0003
0000
0000
,
2000
3000
0000
0000
,
0000
0000
0002
0000
0200
0000
0000
0303
,
1000
0100
0010
0100
,
2000
3000
0000
0000
,
0002
0003
0000
0000
,
0200
0000
0300
0000
,
0020
0000
0030
0000
,
0200
0000
0300
0000
,
0020
0000
0030
0000
,
2000
0000
3000
0000
,
0002
0000
0003
0000
,
2000
0000
3000
0000
,
0002
0000
0003
0000
,
0010
0010
0000
0000
,
0100
0100
1000
0000
,
0010
0010
0000
0000
,
0100
0100
0001
0000
,
0020
0000
0030
0000
,
0000
0000
2000
0000
0020
0000
0000
3030
,
0001
0010
0100
0010
,
0002
0003
0000
0000
,
2000
3000
0000
0000
,
0000
0000
0002
0000
0020
0000
0000
0033
,
1000
0010
0100
0010
,
2000
3000
0000
0000
,
0002
0003
0000
0000
,
0000
0000
0200
0000
0020
0000
0000
0330
,
0001
0100
0010
1000
,
0002
0003
0000
0000
,
2000
3000
0000
0000
,
0100
0100
0010
0010
,
0001
0001
1000
1000
,
0010
0100
0001
1000
,
0100
0000
0000
0000
,
0020
0000
0030
0000
;

//---------------dance-single - Telperion----------------
#NOTES:
     dance-single:
     Telperion:
     Beginner:
     2:
     0.045071,0.108223,0.000000,0.080708,0.000000,43.000000,43.000000,0.000000,11.000000,0.000000,0.000000,0.045071,0.108223,0.000000,0.080708,0.000000,43.000000,43.000000,0.000000,11.000000,0.000000,0.000000:
// measure 0
0000
0000
0000
0000
,  // measure 1
0000
0000
0000
0000
,  // measure 2
0000
0000
0000
0000
,  // measure 3
0000
0000
0000
0000
,  // measure 4
0000
0000
0000
0000
,  // measure 5
0000
0000
0000
0000
,  // measure 6
0000
0000
0000
0000
,  // measure 7
0000
0000
0000
0000
,  // measure 8
0000
0000
0000
0000
,  // measure 9
0000
0000
0000
0000
,  // measure 10
0001
0000
0000
0000
,  // measure 11
0000
0000
0000
0000
,  // measure 12
1000
0000
0000
0000
,  // measure 13
0000
0000
0000
0000
,  // measure 14
0020
0030
0000
0000
,  // measure 15
0000
0000
0000
0000
,  // measure 16
0100
0000
0000
0000
,  // measure 17
0000
0000
0000
0000
,  // measure 18
0001
0000
0000
0000
,  // measure 19
0001
0000
0000
0000
,  // measure 20
1000
0000
0000
0000
,  // measure 21
0001
0000
0000
0000
,  // measure 22
0010
0000
0000
0000
,  // measure 23
0010
0000
0000
0000
,  // measure 24
0200
0300
0000
0000
,  // measure 25
0200
0300
0000
0000
,  // measure 26
1000
0000
0000
0000
,  // measure 27
1000
0000
0000
0000
,  // measure 28
0002
0003
0000
0000
,  // measure 29
0002
0003
0000
0000
,  // measure 30
0100
0000
0000
0000
,  // measure 31
0000
0000
0000
0000
,  // measure 32
0000
0000
0000
0000
,  // measure 33
0000
0000
0000
0000
,  // measure 34
0000
0000
0000
0000
,  // measure 35
0000
0000
0000
0000
,  // measure 36
0000
0000
0000
0000
,  // measure 37
0000
0000
0000
0000
,  // measure 38
0001
0000
0000
0000
,  // measure 39
1000
0000
0000
0000
,  // measure 40
1000
0000
0000
0000
,  // measure 41
0001
0000
0000
0000
,  // measure 42
0100
0000
0000
0000
,  // measure 43
0010
0000
0000
0000
,  // measure 44
0010
0000
0000
0000
,  // measure 45
0200
0300
0000
0000
,  // measure 46
0200
0300
0000
0000
,  // measure 47
0001
0000
0000
0000
,  // measure 48
0001
0000
0000
0000
,  // measure 49
2000
3000
0000
0000
,  // measure 50
2000
3000
0000
0000
,  // measure 51
0001
0000
0000
0000
,  // measure 52
0100
0000
0000
0000
,  // measure 53
0020
0030
0000
0000
,  // measure 54
2000
3000
0000
0000
,  // measure 55
0001
0000
0001
0000
,  // measure 56
1000
0000
1000
0000
,  // measure 57
0001
0000
1000
0000
,  // measure 58
0001
0000
1000
0000
,  // measure 59
0010
0000
0000
0000
;
