#VERSION:0.83;
#TITLE:hammer ska;
#SUBTITLE:;
#ARTIST:10-FEET;
#TITLETRANSLIT:;
#SUBTITLETRANSLIT:;
#ARTISTTRANSLIT:;
#GENRE:;
#ORIGIN:;
#CREDIT:;
#BANNER:[ROUND J] - hammer ska.png;
#BACKGROUND:[ROUND J] - hammer ska-bg.png;
#PREVIEWVID:;
#JACKET:[ROUND J] - hammer ska-jacket.png;
#CDIMAGE:;
#DISCIMAGE:;
#LYRICSPATH:;
#CDTITLE:;
#MUSIC:[ROUND J] - hammer ska.ogg;
#OFFSET:-0.180000;
#SAMPLESTART:50.465000;
#SAMPLELENGTH:15.000000;
#SELECTABLE:YES;
#BPMS:0.000=210.000,
32.000=105.000,
46.000=210.000,
112.000=105.000,
132.000=210.000,
295.500=105.000;
#STOPS:46.000=0.571,
295.500=0.388;
#DELAYS:;
#WARPS:;
#TIMESIGNATURES:0.000=4=4;
#TICKCOUNTS:0.000=4;
#COMBOS:0.000=1;
#SPEEDS:0.000=1.000=0.000=0;
#SCROLLS:0.000=1.000;
#FAKES:;
#LABELS:0.000=Song Start;
#LASTSECONDHINT:95.000000;
#BGCHANGES:;
#KEYSOUNDS:;
#ATTACKS:
;

//---------------dance-single - ----------------
#NOTEDATA:;
#CHARTNAME:;
#STEPSTYPE:dance-single;
#DESCRIPTION:;
#CHARTSTYLE:;
#DIFFICULTY:Beginner;
#METER:2;
#RADARVALUES:0.188571,0.386962,0.083809,0.020952,0.000000,126.000000,118.000000,8.000000,2.000000,7.000000,0.000000,0.000000,0.000000,0.000000,0.188571,0.386962,0.083809,0.020952,0.000000,126.000000,118.000000,8.000000,2.000000,7.000000,0.000000,0.000000,0.000000,0.000000;
#CREDIT:;
#NOTES:
// measure 0
0000
0000
0000
0000
,  // measure 1
0000
0000
0000
0000
,  // measure 2
0000
0000
0000
0000
,  // measure 3
0000
0000
0000
0000
,  // measure 4
0010
0000
1000
0000
,  // measure 5
0001
0000
0001
0000
,  // measure 6
0010
0000
0001
0000
,  // measure 7
1000
0000
1000
0000
,  // measure 8
10M1
0100
0000
0100
,  // measure 9
1001
0010
0000
0010
,  // measure 10
0110
1000
0000
1000
,  // measure 11
0110
0001
M0M1
0000
,  // measure 12
1000
0000
0100
0000
,  // measure 13
1000
0000
0000
0000
,  // measure 14
0001
0000
0100
0000
,  // measure 15
0001
0000
0000
0000
,  // measure 16
1000
0000
0010
0000
,  // measure 17
1000
0000
0000
0000
,  // measure 18
0001
0000
0010
0000
,  // measure 19
0001
0000
0000
0000
,  // measure 20
0010
0000
0100
0000
,  // measure 21
0100
0000
0000
0000
,  // measure 22
1000
0000
0001
0000
,  // measure 23
0100
0000
0000
0000
,  // measure 24
0001
0000
1000
0000
,  // measure 25
0001
0000
0000
0000
,  // measure 26
0100
0000
0010
0000
,  // measure 27
0010
0000
0000
0000
,  // measure 28
100M
0000
0100
0000
,  // measure 29
0001
0000
0100
0000
,  // measure 30
1000
0000
0010
0000
,  // measure 31
0001
0000
0010
0000
,  // measure 32
2000
0000
0000
3000
,  // measure 33
0M02
0000
0000
0000
,  // measure 34
1003
0000
0000
0000
,  // measure 35
1000
0000
0100
0000
,  // measure 36
0010
0000
0000
0000
,  // measure 37
0001
0000
0100
0000
,  // measure 38
0010
0000
0000
0000
,  // measure 39
1000
0000
0001
0000
,  // measure 40
1000
0000
0001
0000
,  // measure 41
0010
0000
0100
0000
,  // measure 42
0100
0000
0010
0000
,  // measure 43
0001
0000
0010
0000
,  // measure 44
0100
0000
0000
0000
,  // measure 45
1000
0000
0010
0000
,  // measure 46
0100
0000
0000
0000
,  // measure 47
0001
0000
1000
0000
,  // measure 48
0100
0000
1000
0000
,  // measure 49
0001
0000
0010
0000
,  // measure 50
0001
0000
1000
0000
,  // measure 51
0110
0000
0000
0000
,  // measure 52
1000
0000
0000
0000
,  // measure 53
1001
0000
0000
0000
,  // measure 54
0001
0000
0000
0000
,  // measure 55
0110
0000
0000
0000
,  // measure 56
0010
0000
0000
0000
,  // measure 57
1001
0000
0000
0000
,  // measure 58
0100
0000
0000
0000
,  // measure 59
0010
0000
1000
0000
,  // measure 60
0001
0000
0100
0000
,  // measure 61
0001
0000
0010
0000
,  // measure 62
0100
0000
1000
0000
,  // measure 63
0001
0000
1000
0000
,  // measure 64
0001
0000
1000
0000
,  // measure 65
0010
0000
0010
0000
,  // measure 66
0010
0000
0010
0000
,  // measure 67
0100
0000
0000
0001
,  // measure 68
0000
0001
0000
0000
,  // measure 69
1000
0000
0000
0100
,  // measure 70
0000
0100
0000
0000
,  // measure 71
0010
0000
0000
0001
,  // measure 72
0000
0001
0000
0000
,  // measure 73
1000
0000
0000
0000
0010
0000
0000
0M0M
;

//---------------dance-single - ----------------
#NOTEDATA:;
#CHARTNAME:;
#STEPSTYPE:dance-single;
#DESCRIPTION:;
#CHARTSTYLE:;
#DIFFICULTY:Easy;
#METER:4;
#RADARVALUES:0.318774,0.464355,0.272380,0.031428,0.000000,213.000000,187.000000,26.000000,3.000000,7.000000,0.000000,0.000000,0.000000,0.000000,0.318774,0.464355,0.272380,0.031428,0.000000,213.000000,187.000000,26.000000,3.000000,7.000000,0.000000,0.000000,0.000000,0.000000;
#CREDIT:;
#NOTES:
0000
0000
0000
0000
,
0000
0000
0000
0000
,
0000
0000
0000
0000
,
0000
0000
0000
0000
,
1000
0000
0100
0000
,
1000
0100
1000
0000
,
0001
0000
0010
0000
,
0001
0010
0001
0000
,
10M1
0100
0100
0100
,
1001
0010
0010
0010
,
0110
1000
1000
1000
,
0110
0001
M1M1
0000
,
1000
0000
0010
0000
,
0100
0100
0100
0000
,
0001
0000
0010
0000
,
0100
0100
0100
0000
,
1000
0000
0001
0000
,
1000
0010
0100
0000
,
0001
0000
1000
0000
,
0001
0100
0010
0000
,
1000
0000
0100
0000
,
0010
0001
0010
0000
,
0001
0000
0100
0000
,
0010
1000
0010
0100
,
0000
0001
0010
0000
,
0100
1000
0001
0100
,
0010
0100
0010
0000
,
1000
0000
0001
0000
,
10M0
1000
0100
0010
,
0001
0001
0100
0010
,
1000
1000
0010
0100
,
0001
0001
0010
0100
,
2000
0001
0000
3001
,
20M2
0000
0000
3003
,
0001
0000
0010
0000
,
0100
0010
0100
0010
,
0100
0000
1000
0000
,
0010
0100
0010
0100
,
0010
0000
1000
0000
,
0001
0010
0100
0010
,
0001
0000
0100
0000
,
0010
1000
0001
0000
,
1000
1000
0000
0000
,
0001
0010
0100
1000
,
0001
0000
1001
0000
,
1000
0010
0100
0001
,
1000
0000
1001
0000
,
1000
0100
0010
0001
,
0100
0000
0110
0000
,
0010
1000
0001
0010
,
0001
1000
0010
0000
,
0100
0000
0100
0000
,
0100
0000
0100
0000
,
0001
0000
0001
0000
,
0001
0000
0001
0000
,
1000
0000
1000
0000
,
1000
0000
1000
0000
,
0010
0000
0010
0000
,
0010
0000
0010
0000
,
1100
0000
0110
0000
,
1100
0000
0110
0000
,
0011
0000
1001
0000
,
0011
0000
1001
0000
,
1010
0000
0110
0000
,
1010
0000
0110
0000
,
0101
0000
1001
0000
,
0101
0000
1001
0000
,
1000
0000
1000
0000
,
0100
0100
0100
0000
,
0010
0000
0010
0000
,
0001
0001
0001
0000
,
0100
0000
0100
0000
,
0010
0010
0010
0000
,
1000
0000
0000
0000
0010
0000
0000
M1M1
;

//---------------dance-single - ----------------
#NOTEDATA:;
#CHARTNAME:;
#STEPSTYPE:dance-single;
#DESCRIPTION:;
#CHARTSTYLE:;
#DIFFICULTY:Medium;
#METER:7;
#RADARVALUES:0.447481,0.851317,0.219999,0.094285,0.041905,299.000000,278.000000,21.000000,9.000000,7.000000,0.000000,0.000000,0.000000,0.000000,0.447481,0.851317,0.219999,0.094285,0.041905,299.000000,278.000000,21.000000,9.000000,7.000000,0.000000,0.000000,0.000000,0.000000;
#CREDIT:;
#NOTES:
0000
0000
0000
0000
,
0000
0000
0000
0000
,
0000
0000
0000
0000
,
0000
0000
0000
0000
,
0010
0100
0001
1000
,
0001
0000
0010
0100
0000
0100
0010
0000
,
0001
0100
0010
1000
,
0001
1000
0001
1000
0001
1000
0001
0000
,
10M0
0000
1100
0100
0010
0001
0011
0000
,
0001
0000
0101
0100
0010
1000
1010
0000
,
1001
0000
0110
0010
0100
0001
0010
0000
,
0110
0000
1000
0001
2MM2
0000
0000
3003
,
1000
0000
0100
0000
0010
0000
0000
0001
,
0000
0001
0010
0000
,
0001
0000
0100
0000
0010
0000
0000
1000
,
0000
1000
0010
0000
,
1000
0000
0100
0000
0001
0000
0000
0100
,
0000
0100
0010
0000
,
0001
0000
0100
0000
1000
0000
0000
0100
,
0000
0100
0010
1001
,
1000
0010
0001
0010
,
1000
0010
0100
0000
,
0001
0010
1000
0010
,
0001
0010
0100
0000
,
1000
0000
0010
0000
0010
0000
0100
0001
,
0000
0001
0000
0100
0010
0000
0100
1000
,
0000
1000
0000
0100
0000
0000
0000
0000
,
0001
0000
0100
0010
0000
1000
0001
0000
,
01M1
0000
0101
0000
0100
0000
0000
0000
0100
0010
0000
1000
0010
0000
1000
0000
,
1100
0000
1100
0000
0100
0000
0000
0000
0100
0010
0000
0001
0010
0000
0100
0000
,
1000
0000
1000
0000
0001
0000
0001
0000
0100
0010
0100
0010
1000
0000
0001
0000
,
0011
0000
1100
0000
1000
0000
0001
0000
1000
0010
0000
0100
0001
0000
1000
0000
,
0002
0010
2003
0100
,
00M2
0000
0000
3003
,
0100
0000
0010
0000
1000
0001
1000
0000
,
0001
0000
0010
0000
0100
0000
0000
1000
,
0000
1000
0000
0000
1001
0000
0000
0000
,
1000
0000
0010
0000
0100
0000
0000
0001
,
0000
0001
0000
0000
0011
0000
0000
0000
,
0010
0000
0100
0000
1000
0000
0000
0001
,
0000
0001
0000
0000
0101
0000
0000
0000
,
0100
0000
0010
0000
1000
0000
0000
1010
,
0000
0010
0000
0000
1100
0000
0000
0000
,
0100
0000
0010
0000
0001
0000
0000
1000
,
0000
1000
0000
0000
0001
0000
0000
0000
,
0010
0000
0100
0000
1000
0000
0000
0001
,
0000
0001
0000
0000
0100
0000
0000
0000
,
0100
0000
0001
0000
1000
0000
0000
0010
,
0000
0010
0000
0000
1000
0000
0000
0000
,
0100
1000
0001
0010
,
0001
0100
0010
1000
,
0001
0001
0100
0100
,
0010
1000
1000
0010
,
1000
1000
0100
0100
,
0010
0001
0001
0010
,
0001
0100
1000
0100
,
0010
1000
0010
0001
,
1000
0100
0001
0010
,
0100
2000
0002
3003
,
0001
0100
0010
1000
,
0001
0010
0001
0010
,
1000
0010
0100
1000
,
0010
1000
0010
1000
,
0001
0010
0100
1000
,
0001
0100
0001
0100
,
0010
1000
0100
0010
,
0001
2000
0002
3003
,
1000
0100
0000
0100
,
0010
0001
0010
0000
,
0001
0100
0000
0100
,
0010
0100
0010
0000
,
1000
0100
0000
1000
,
0001
1000
0001
0000
,
0100
0000
0010
0000
1000
0001
0000
MM11
;

//---------------dance-single - ----------------
#NOTEDATA:;
#CHARTNAME:;
#STEPSTYPE:dance-single;
#DESCRIPTION:;
#CHARTSTYLE:;
#DIFFICULTY:Hard;
#METER:10;
#RADARVALUES:0.683942,0.967406,0.513331,0.094285,0.188571,457.000000,408.000000,49.000000,9.000000,7.000000,0.000000,0.000000,0.000000,0.000000,0.683942,0.967406,0.513331,0.094285,0.188571,457.000000,408.000000,49.000000,9.000000,7.000000,0.000000,0.000000,0.000000,0.000000;
#CREDIT:;
#NOTES:
0000
0000
0000
0000
,
0000
0000
0000
0000
,
0000
0000
0000
0000
,
0000
0000
0000
0000
,
0010
0000
0100
0000
0001
0100
0001
0100
,
0010
1000
0010
1000
0000
1001
0000
0001
,
0010
0000
0100
0000
1000
0100
1000
0100
,
0010
0001
1000
0001
0010
0001
1000
0000
,
001M
0000
0100
0000
0001
0100
0000
1000
0100
0000
0001
0100
0000
0010
0000
1000
,
0100
0000
0010
0000
0001
0010
0000
1000
0010
0000
0001
0010
0000
0100
0000
1000
,
0001
0000
0100
0000
0001
0010
0000
0100
1000
0000
0100
0010
0000
0001
0000
1000
,
0010
0000
0100
0000
0010
1000
0001
0000
2MM2
0000
0000
0000
0000
0000
3003
0000
,
1000
0010
0000
0100
0010
0100
0000
0001
,
0000
0001
0010
0000
0100
0000
0110
0000
,
0001
0000
0010
0100
0000
1000
0000
0001
,
0000
1000
0010
0000
0100
0000
1001
0000
,
0001
0010
0000
1000
0010
0001
0000
0010
,
0000
0100
0010
0000
0001
0000
1000
0100
,
1000
0000
0000
0000
0010
0000
0000
0000
0100
0000
0000
0000
0010
0000
0000
0000
0000
0000
0000
0000
0000
1000
0000
0000
,
0001
0000
0000
0000
0010
0000
0000
0000
0100
0000
0000
0000
0010
0000
0000
0000
0000
0000
0001
0000
0000
0100
0000
0000
,
0020
1000
0100
1000
,
0001
0100
0230
0301
,
0020
0001
0100
0001
,
1000
0100
0130
1001
,
1000
0000
1010
0000
0011
0000
0000
0101
,
0000
1100
0000
0000
0110
0000
1001
0000
,
0000
1000
0100
0010
0000
0001
0010
0100
,
1000
0000
0001
1000
0001
0010
0100
0000
,
M110
0000
1001
0000
1000
0100
0000
0010
0000
0010
0000
0010
0100
0000
1100
0000
,
0110
0000
0011
0000
0001
0100
0000
0010
0000
0010
0000
0010
0100
0000
0101
0000
,
1000
0000
0100
0000
1000
0001
0000
0001
0000
1000
0010
1000
0010
0000
0100
0000
,
0110
0000
1001
0000
0001
0010
0000
0100
0000
0100
0000
0100
1000
0000
1001
0000
,
0002
0000
0100
0100
2003
0000
0100
3100
,
022M
0000
0000
0000
0000
0000
0330
1000
,
0000
1000
0001
0000
0010
0100
0010
0000
,
1001
0000
0110
0000
0001
0010
0100
1000
,
0000
1000
0100
0010
0001
0000
0011
0000
,
0101
0000
1010
0000
1000
0010
0100
0001
,
0000
0001
0100
0010
1000
0000
1100
0000
,
1000
0001
1000
0000
0010
0100
0010
1000
,
0000
0100
0010
0100
0000
1000
0001
0000
,
0011
0000
0101
0000
1010
0000
1000
0100
,
0000
0010
0100
0000
1000
0001
1000
0001
,
0010
0000
1100
0000
1000
0001
0010
0100
,
0000
0100
0010
0001
1000
0000
0101
0000
,
1010
0000
0011
0000
0001
1000
0010
0100
,
0000
0100
0010
1000
0001
0000
1001
0000
,
0100
0010
1000
0000
1000
0010
0100
0001
,
0000
0001
0100
0010
0000
1000
0001
0000
,
1000
0000
0100
0000
0010
0000
0100
1000
,
0000
0001
0100
0000
0010
0100
0010
0100
,
0001
0010
0000
0010
0000
0100
0000
0100
,
0000
1000
0000
1000
0001
0000
1001
0000
,
1000
0010
0000
0010
0000
0100
0000
0100
,
0000
0001
0000
0001
1000
0000
1001
0000
,
0001
0100
0000
1000
0000
0100
0000
0010
,
0000
1000
0000
0010
0100
0000
0101
0000
,
1010
0000
1100
0000
0011
0000
0001
1000
,
0000
1000
0001
0010
0100
1000
0001
0100
,
0010
1000
0000
1000
0001
0100
0000
0100
,
0001
0010
0000
0010
0100
0000
0110
0000
,
0010
0001
0000
0001
1000
0010
0000
0010
,
1000
0100
0000
0100
0010
0000
0110
0000
,
0001
0100
0001
0100
0010
1000
0010
1000
,
0001
0010
0001
0010
0100
1000
0100
1000
,
0001
0010
0100
1000
0010
1000
0100
0010
,
0001
0100
0010
1000
0010
0100
0001
0000
,
1000
0000
0100
0010
0000
0100
1000
0010
,
0000
0110
0000
0101
0000
0001
1000
0000
,
0001
0000
0100
0010
0000
0100
0001
0010
,
0000
0110
0000
1100
0000
1000
0001
0000
,
1000
0001
0100
0010
0000
0100
0001
0010
,
0000
0110
0000
1001
0000
1000
0100
0000
,
1000
0010
0100
0001
0010
0100
1000
0MM1
;
