#TITLE:Ubud;
#ARTIST:lapix;
#CREDIT:Lisek;
#BANNER:[ROUND J] - Ubud.png;
#BACKGROUND:[ROUND J] - Ubud-bg.png;
#CDTITLE:cdtitle.png;
#MUSIC:[ROUND J] - Ubud.ogg;
#OFFSET:-0.021;
#SAMPLESTART:18.021;
#SAMPLELENGTH:19.060;
#SELECTABLE:YES;
#BPMS:0.000=100.000,48.000=200.000,72.000=100.000,93.000=200.000,94.000=100.000,184.000=200.000,216.000=100.000;
#STOPS:72.000=2.400
,93.000=0.150
,93.500=0.150
;
#BGCHANGES:;

//---------------dance-single - Lisek----------------
#NOTES:
     dance-single:
     Lisek:
     Hard:
     8:
     0.471,0.563,0.576,0.273,0.311: // measure 1
0000
0000
0000
0000
,  // measure 2
0000
0000
0000
0000
,  // measure 3
1001
0001
1000
0010
,  // measure 4
0100
0010
1000
0001
,  // measure 5
1001
0000
0000
0000
1000
0000
0000
0000
0100
0010
0000
0100
0000
0100
0000
0100
,  // measure 6
0010
0000
0000
0000
0001
0000
0000
0000
1000
0001
0000
1000
0000
1000
0000
1000
,  // measure 7
0001
0000
0000
0000
1000
0000
0000
0000
0010
0100
0000
0001
0000
0100
0000
0010
,  // measure 8
0100
0000
0000
0000
0010
0000
0000
0000
1000
0010
0000
0100
0000
0010
0000
0000
,  // measure 9
0101
0000
0110
0000
1010
0000
0010
1000
,  // measure 10
1100
0000
0110
0000
0011
0000
0001
0100
,  // measure 11
0101
0000
0110
0000
1100
0000
0100
0010
,  // measure 12
1010
0000
0000
0000
0110
0000
0000
0000
0001
1000
0000
0100
0000
1000
0000
0001
,  // measure 13
1000
0100
0001
0100
,  // measure 14
1000
0010
0000
0100
0000
0001
0000
1000
,  // measure 15
0001
0010
1000
0010
,  // measure 16
0001
0100
0000
0001
0000
1000
0000
0010
,  // measure 17
1000
0100
0010
0001
1000
0100
0010
0001
,  // measure 18
1000
0100
0010
0001
1000
0100
0010
0001
,  // measure 19
2000
3000
0000
0000
0000
0000
0000
0000
0000
0000
0000
0000
0002
0000
0000
0000
0000
0000
0103
0000
0000
0000
1000
0000
0200
0000
0000
0000
0000
0000
0000
0000
,  // measure 20
0320
0000
0000
0000
2030
0000
0000
0000
3100
0010
0000
0010
0200
0000
0000
0000
,  // measure 21
2300
0000
0000
0000
3002
0000
0000
0000
0103
0010
0000
0010
2000
0000
0000
0000
,  // measure 22
3002
0000
0000
0000
0203
0000
0000
0000
0310
1000
0000
0100
0010
0001
1000
0001
,  // measure 23
2000
0000
0000
0000
3002
0000
0000
0000
1003
0100
0000
0100
0020
0000
0000
0000
,  // measure 24
0032
0000
0000
0000
1003
0000
M001
0000
100M
0010
0000
0010
0200
0000
0000
0000
,  // measure 25
0302
0000
0000
0000
2003
0000
0000
0000
3010
0100
0000
0100
0002
0000
0000
0000
,  // measure 26
2003
0010
0000
0010
0000
0010
0000
3010
,  // measure 27
0101
0000
0000
0110
0000
1010
0000
0000
,  // measure 28
0000
0000
1001
0000
0000
0000
0000
0001
0000
0001
0100
0000
0000
0000
0000
0000
,  // measure 29
0101
0000
0000
0110
0000
1010
0000
0000
,  // measure 30
0000
0000
0110
0000
0000
0000
0100
0001
0000
0001
0100
0000
1010
0000
0000
0000
,  // measure 31
1100
0000
0000
0110
0000
0101
0000
0000
,  // measure 32
0000
0000
0200
0000
0000
0000
0300
1000
0000
1000
0001
0000
0000
0000
0000
0000
,  // measure 33
1001
0000
0000
0110
0000
1001
0000
0000
,  // measure 34
0000
0000
2000
0000
0000
0000
3001
0100
0000
0100
0010
0000
0100
0000
0000
0000
,  // measure 35
1001
0000
0000
0000
0110
0000
0000
0000
1000
0100
0000
0001
0000
0100
0000
1000
,  // measure 36
0001
0000
0000
0000
1000
0000
0000
0000
0001
0010
0000
1000
0000
0010
0000
0001
,  // measure 37
1000
0000
0000
0000
0001
0000
0000
0000
1000
0010
0000
0001
0000
0010
0000
1000
,  // measure 38
0001
0000
0000
0000
1000
0000
0000
0000
0001
0100
0000
1000
0000
0100
0000
0001
,  // measure 39
0100
0110
1010
1100
,  // measure 40
0110
0011
0101
0110
,  // measure 41
1010
1100
1001
0011
,  // measure 42
1001
1010
1001
0101
,  // measure 43
1001
0000
0001
0000
0100
0000
0010
0000
0200
0000
0000
0300
0010
0000
1000
0000
,  // measure 44
0100
0000
1000
0000
0010
0000
0100
0000
0002
0000
0000
0003
1000
0000
0001
0000
,  // measure 45
1000
0100
0010
0001
1000
0100
0010
0001
1000
0100
0010
0001
1000
0100
0010
0001
,  // measure 46
1000
0100
0010
0001
0100
0010
1000
0000
0000
0000
0000
0000
,  // measure 47
0101
0110
1010
1100
,  // measure 48
1010
0110
0101
0011
,  // measure 49
0101
0110
1010
1100
,  // measure 50
1010
0110
0101
0011
,  // measure 51
0101
1001
1100
1001
,  // measure 52
0101
1001
1100
1001
,  // measure 53
0101
1001
1100
1001
,  // measure 54
1000
0001
1000
0010
0100
0010
1000
0001
,  // measure 55
2000
0000
0000
0000
3002
0000
0000
0000
1003
0100
0000
0100
0020
0000
0000
0000
,  // measure 56
0032
0000
0000
0000
2003
0000
0000
0000
3001
0010
0000
0010
0200
0000
0000
0000
,  // measure 57
2300
0000
0000
0000
3020
0000
0000
0000
0130
0010
0000
0010
2000
0000
0000
0000
,  // measure 58
3002
0000
0000
0000
0203
0000
0000
0000
0310
0100
0000
0100
0000
0001
0000
0000
;

//---------------dance-single - Lisek----------------
#NOTES:
     dance-single:
     Lisek:
     Medium:
     5:
     0.300,0.338,0.148,0.311,0.016: // measure 1
0000
0000
0000
0000
,  // measure 2
0000
0000
0000
0000
,  // measure 3
1001
0001
1000
0010
,  // measure 4
0100
0010
1000
0001
,  // measure 5
1001
0001
0010
0100
,  // measure 6
0010
0001
0100
0010
,  // measure 7
1001
1000
0100
0010
,  // measure 8
0100
1000
0010
0100
,  // measure 9
1001
0000
0001
0100
0001
0000
1000
0000
,  // measure 10
1001
0000
1000
0010
1000
0000
0001
0000
,  // measure 11
1001
0000
0001
0100
0001
0000
1000
0000
,  // measure 12
1001
0000
1000
0010
1000
0000
0001
0000
,  // measure 13
1000
0100
1000
0100
,  // measure 14
0020
0000
0000
0000
,  // measure 15
0031
0100
0001
0100
,  // measure 16
0020
0000
0000
0000
,  // measure 17
1030
0100
0010
0001
,  // measure 18
2000
0000
0000
0000
,  // measure 19
0000
3000
0000
0000
0000
0000
0000
0000
0000
0000
0000
0000
0002
0000
0000
0000
0000
0000
0000
0000
0000
0000
0000
0000
2003
0000
0000
0000
0000
0000
0000
0000
,  // measure 20
3020
0000
0230
0000
0310
0100
0010
0000
,  // measure 21
2000
0000
3002
0000
0103
0010
0100
0000
,  // measure 22
0002
0000
2003
0000
3001
1000
0001
0000
,  // measure 23
2000
0000
3002
0000
1003
0001
1000
0000
,  // measure 24
0002
0000
0203
0000
0301
1000
0001
0000
,  // measure 25
2000
0000
3020
0000
0130
0010
0100
0000
,  // measure 26
0002
0000
0000
0000
,  // measure 27
1003
0000
0000
1001
0000
0110
0000
0000
,  // measure 28
0000
0020
0000
0000
0000
0000
0030
0000
,  // measure 29
1001
0000
0000
0110
0000
1001
0000
0000
,  // measure 30
0000
0200
0000
0000
0000
0000
0300
0000
,  // measure 31
0110
0000
0000
1001
0000
0110
0000
0000
,  // measure 32
0000
2000
0000
0000
0000
0000
3000
0000
,  // measure 33
0110
0000
0000
1001
0000
0110
0000
0000
,  // measure 34
0000
0002
0000
0000
0000
0000
0003
0000
,  // measure 35
1001
1000
0020
0000
,  // measure 36
0130
0001
2000
0000
,  // measure 37
3001
0100
0020
0000
,  // measure 38
1030
0001
2000
0000
,  // measure 39
3001
0100
0002
0100
,  // measure 40
0103
0010
2000
0001
,  // measure 41
3001
0010
0200
1000
,  // measure 42
1300
0001
0020
0100
,  // measure 43
0130
0010
0001
1000
0001
0000
1000
0100
,  // measure 44
0010
0001
1000
0010
1000
0000
0001
0010
,  // measure 45
0100
1000
0001
0100
0001
0000
1000
0001
,  // measure 46
1000
0001
1000
0001
1000
0001
1000
0000
0000
0000
0000
0000
,  // measure 47
1000
0100
0010
0001
,  // measure 48
1000
0010
0100
0001
,  // measure 49
1000
0100
0010
0001
,  // measure 50
1000
0010
0100
0001
,  // measure 51
1000
0001
0100
0001
,  // measure 52
1000
0010
0100
0010
,  // measure 53
1000
0001
0100
0001
,  // measure 54
2000
0000
0000
0000
,  // measure 55
3002
0000
0203
0000
0310
0100
0010
0000
,  // measure 56
2000
0000
3002
0000
0103
0001
0100
0000
,  // measure 57
0020
0000
2030
0000
3001
1000
0001
0000
,  // measure 58
0200
0000
0000
0000
0320
0000
0000
0000
2030
0000
0000
0000
0000
3000
0000
0000
;

//---------------dance-single - Lisek----------------
#NOTES:
     dance-single:
     Lisek:
     Beginner:
     1:
     0.046,0.089,0.000,0.039,0.000:
0000
0000
0000
0000
,
0000
0000
0000
0000
,
0001
0000
0000
0000
,
0000
0000
0000
0000
,
1000
0000
0000
0000
,
0000
0000
0000
0000
,
0001
0000
0000
0000
,
0000
0000
0000
0000
,
1000
0000
0000
0000
,
0001
0000
0000
0000
,
0100
0000
0000
0000
,
0010
0000
0000
0000
,
1000
0000
0000
0000
,
0000
0000
0000
0000
,
0001
0000
0000
0000
,
0000
0000
0000
0000
,
1000
0000
0000
0000
,
0000
0000
0000
0000
,
0001
0000
0000
0000
,
0000
0000
0000
0000
,
1000
0000
0000
0000
,
0000
0000
0000
0000
,
0001
0000
0000
0000
,
0000
0000
0000
0000
,
1000
0000
0000
0000
,
0000
0000
0000
0000
,
0002
0000
0000
0000
0000
0003
0000
0000
,
0000
0000
0000
0000
,
2000
0000
0000
0000
0000
3000
0000
0000
,
0000
0000
0000
0000
,
0020
0000
0000
0000
0000
0030
0000
0000
,
0000
0000
0000
0000
,
0200
0000
0000
0000
0000
0300
0000
0000
,
0000
0000
0000
0000
,
0001
0000
0000
0000
,
0000
0000
0000
0000
,
1000
0000
0000
0000
,
0000
0000
0000
0000
,
0001
0000
0000
0000
,
0100
0000
0000
0000
,
0010
0000
0000
0000
,
1000
0000
0000
0000
,
0001
0000
0000
0000
,
1000
0000
0000
0000
,
0001
0000
0000
0000
,
0200
0000
0300
0000
,
0001
0000
0000
0000
,
0000
0000
0000
0000
,
1000
0000
0000
0000
,
0000
0000
0000
0000
,
0010
0000
0000
0000
,
0000
0000
0000
0000
,
0100
0000
0000
0000
,
0000
0000
0000
0000
,
0001
0000
0000
0000
,
0010
0000
0000
0000
,
0100
0000
0000
0000
,
1000
0000
0000
0000
;

//---------------dance-single - Lisek----------------
#NOTES:
     dance-single:
     Lisek:
     Easy:
     3:
     0.181,0.203,0.008,0.280,0.000:
0000
0000
0000
0000
,
0000
0000
0000
0000
,
1000
0000
0002
0000
,
0103
0000
0020
0000
,
1030
0000
0002
0000
,
0103
0000
0020
0000
,
1030
0000
0002
0000
,
1003
0000
0020
0000
,
0130
0100
0100
0000
,
0010
0010
0010
0000
,
1000
1000
1000
0000
,
0001
0001
0001
0000
,
1000
0000
0000
0000
,
0002
0000
0000
0000
,
0103
0000
0000
0000
,
0020
0000
0000
0000
,
1030
0000
0000
0000
,
0002
0000
0000
0000
,
0003
0000
0000
0000
,
1000
0001
2000
0000
,
3010
0100
0020
0000
,
1030
0001
2000
0000
,
3001
0100
0002
0000
,
1003
0010
2000
0000
,
3001
0010
0002
0000
,
1003
0100
1000
0100
,
1000
0000
0000
0001
0000
1000
0000
0000
,
0000
0002
0000
0000
0000
0000
0003
0000
,
0100
0000
0000
0010
0000
0100
0000
0000
,
0000
0020
0000
0000
0000
0000
0030
0000
,
1000
0000
0000
0001
0000
1000
0000
0000
,
0000
0002
0000
0000
0000
0000
0003
0000
,
0100
0000
0000
0010
0000
0100
0000
0000
,
0000
0020
0000
0000
0000
0000
0030
0000
,
1000
0010
2000
0000
,
3001
0100
0002
0000
,
1003
0100
2000
0000
,
3001
0010
0002
0000
,
1003
0100
1000
0100
,
0010
0001
0010
0001
,
0100
0010
0100
0010
,
1000
0001
1000
0001
,
2000
0001
3001
0000
,
0002
1000
1003
0000
,
2000
0001
3001
0000
,
2002
0000
3003
0000
,
1000
0000
0000
0000
,
0002
0000
0000
0000
,
0103
0000
0000
0000
,
0020
0000
0000
0000
,
1030
0000
0000
0000
,
0200
0000
0000
0000
,
0310
0000
0000
0000
,
0002
0000
0000
0000
,
1003
0010
2000
0000
,
3001
0100
0002
0000
,
1003
0001
2000
0000
,
3010
0000
0000
0000
0100
0000
0000
0000
0020
0000
0000
0000
0000
0030
0000
0000
;
