#VERSION:0.83;
#TITLE:Slluuddggee;
#SUBTITLE:;
#ARTIST:Hommarju;
#TITLETRANSLIT:;
#SUBTITLETRANSLIT:;
#ARTISTTRANSLIT:;
#GENRE:DRUM'N'BASS;
#ORIGIN:;
#CREDIT:;
#BANNER:[ROUND J] - Slluuddggee.png;
#BACKGROUND:[ROUND J] - Slluuddggee-bg.png;
#PREVIEWVID:;
#JACKET:[ROUND J] - Slluuddggee-jacket.png;
#CDIMAGE:;
#DISCIMAGE:;
#LYRICSPATH:;
#CDTITLE:cdtitle.png;
#MUSIC:[ROUND J] - Slluuddggee.ogg;
#OFFSET:-1.818596;
#SAMPLESTART:26.423605;
#SAMPLELENGTH:11.060686;
#SELECTABLE:YES;
#BPMS:0.000=41.347,
0.500=43.853,
1.000=49.366,
1.500=52.624,
2.000=56.633,
2.500=60.843,
3.000=62.647,
3.500=66.256,
4.000=67.659,
4.500=69.263,
5.000=70.165,
5.500=71.418,
6.000=74.174,
8.000=79.687,
10.000=84.398,
12.000=84.900,
14.000=87.000,
24.000=174.000,
130.000=85.663,
131.000=87.662,
131.500=89.781,
132.000=98.318,
133.000=101.306,
133.500=106.334,
134.000=114.891,
134.500=112.292,
135.000=120.908,
136.000=125.206,
137.000=129.245,
138.000=138.969,
142.000=148.984,
146.000=161.190,
150.000=167.371,
154.000=169.741,
158.000=174.000,
164.000=87.000,
165.000=174.000,
167.000=87.000,
168.000=174.000,
170.000=87.000,
171.000=174.000;
#STOPS:36.000=1.034,
97.000=1.034,
187.000=1.034;
#DELAYS:;
#WARPS:;
#TIMESIGNATURES:0.000=4=4;
#TICKCOUNTS:0.000=4;
#COMBOS:0.000=1;
#SPEEDS:0.000=1.000=0.000=0;
#SCROLLS:0.000=1.000;
#FAKES:;
#LABELS:0.000=Song Start;
#BGCHANGES:;
#KEYSOUNDS:;
#ATTACKS:
;

//---------------dance-single - ----------------
#NOTEDATA:;
#CHARTNAME:;
#STEPSTYPE:dance-single;
#DESCRIPTION:;
#CHARTSTYLE:;
#DIFFICULTY:Challenge;
#METER:11;
#RADARVALUES:0.779113,0.975437,0.299750,0.058285,0.728560,655.000000,619.000000,36.000000,7.000000,0.000000,0.000000,0.000000,0.000000,0.000000,0.779113,0.975437,0.299750,0.058285,0.728560,655.000000,619.000000,36.000000,7.000000,0.000000,0.000000,0.000000,0.000000,0.000000;
#CREDIT:;
#NOTES:
// measure 0
0000
0000
0000
0000
,  // measure 1
0000
0000
0000
0000
,  // measure 2
1000
0000
0001
0010
0001
0100
0010
1000
0100
0010
0100
1000
0010
0100
0001
0010
,  // measure 3
0001
0000
1000
0010
1000
0100
0010
0001
0100
0010
0100
0001
0010
0100
1000
0010
,  // measure 4
1000
0000
0010
0000
0100
0000
0000
0000
0100
0000
0010
0000
1000
0000
0000
0000
0001
0000
0010
0000
0100
0000
0000
0000
0100
0000
0010
0001
0010
0000
0100
0000
,  // measure 5
1000
0000
0100
0000
0010
0000
0000
0000
0010
0000
0100
0000
1000
0000
0000
0000
0001
0000
0100
0000
0010
0000
0000
0000
0010
0000
0100
0001
0100
0000
0010
0000
,  // measure 6
1000
0100
0000
0100
0010
0000
0001
0100
0001
0010
0000
0010
0100
0000
1000
0001
,  // measure 7
1000
0010
0000
0010
0100
0000
0001
0010
0001
0100
0000
0100
0010
0000
1000
0001
,  // measure 8
1000
0100
1000
0100
0010
0001
0010
0001
0100
0010
0100
0010
1000
0001
1000
0001
,  // measure 9
1000
0000
0001
0000
1001
1000
0010
0001
,  // measure 10
0010
0100
0010
1000
0100
0010
0001
0100
,  // measure 11
1000
0100
0001
0000
1000
0001
0010
1000
,  // measure 12
0010
0100
0010
0001
1000
0010
1000
0100
,  // measure 13
0010
0000
0001
0000
1001
1000
0010
0100
,  // measure 14
1000
0100
0001
0010
0100
1000
0010
0001
,  // measure 15
0010
1000
0001
0000
1000
0001
0010
0100
,  // measure 16
0001
0100
1000
0001
1000
0010
1000
0100
,  // measure 17
0010
0000
0000
0000
1001
0000
0000
0000
0001
1000
0001
1000
0010
0000
0000
0000
,  // measure 18
1000
0001
1000
0001
0010
0000
0000
0000
0001
1000
0001
1000
0100
0000
0000
0000
,  // measure 19
1000
0001
1000
0001
1000
0000
0100
0000
0001
0000
0100
0000
1000
0000
0010
0000
,  // measure 20
0001
0000
0010
0000
1000
0000
0000
0000
0001
0010
0001
0010
0100
1000
0100
1000
,  // measure 21
0001
0000
0000
0000
1001
0000
0000
1000
0010
0000
0100
0000
0001
0000
0000
0001
,  // measure 22
0010
0000
0100
0000
1000
0000
0000
1000
0010
0000
0100
0000
0001
0000
0000
0001
,  // measure 23
0010
0000
0100
0000
1000
0010
1000
0010
0100
0001
0100
0001
0010
0100
0010
0100
,  // measure 24
1000
0001
1000
0001
1000
0000
0000
0000
0001
0000
0000
0000
1001
0000
0000
1000
,  // measure 25
0000
0000
1010
0000
0000
0001
0000
0000
0011
0000
0000
1000
0000
0000
1100
0000
,  // measure 26
0000
0001
0000
0000
0101
0000
1000
0000
0001
0000
0000
0000
1001
0000
0000
1000
,  // measure 27
0000
0000
1100
0000
0000
0001
0000
0000
0101
0000
0000
1000
0000
0000
1010
0000
,  // measure 28
0000
0001
0000
0000
0011
0000
1000
0000
0001
0000
0000
0000
1001
0000
0000
1000
,  // measure 29
0000
0000
1010
0000
0000
0010
0000
0000
0110
0000
0000
0100
0000
0000
0101
0000
,  // measure 30
0000
0001
0000
0000
0011
0000
0010
0000
0100
0000
0000
0000
1001
0000
0000
1000
,  // measure 31
0000
0000
1100
0000
0000
0100
0000
0000
0110
0000
0000
0010
0000
0000
0011
0000
,  // measure 32
0000
0001
0000
0000
0101
0000
0100
0000
0020
0000
0000
0000
1030
0000
0100
0000
,  // measure 33
0001
0100
1000
0010
0001
0010
1000
0100
,  // measure 34
0010
0001
0100
0010
2000
0000
3001
0010
,  // measure 35
1000
0010
0001
0100
1000
0100
0001
0010
,  // measure 36
0100
1000
0010
0100
0002
0000
1003
0100
,  // measure 37
0010
0100
0001
0100
0010
0100
1000
0010
,  // measure 38
0100
0001
0010
0001
2000
0000
3001
0100
,  // measure 39
0010
0100
1000
0100
0010
0100
0001
0010
,  // measure 40
0100
1000
0100
1000
0010
0000
1000
0001
1000
0010
1000
0010
0100
0001
0100
0001
,  // measure 41
0020
0000
0030
0000
0001
0010
0001
0010
0100
1000
0100
1000
0020
0000
0030
0000
,  // measure 42
1000
0100
1000
0100
0010
0001
0010
0001
0200
0000
0300
0000
0001
0100
0001
0100
,  // measure 43
0010
1000
0010
1000
0100
0000
1000
0001
1000
0000
0001
1000
0001
0010
0000
0010
,  // measure 44
0100
0000
1000
0010
1000
0100
0000
0100
0010
0000
0001
1000
0001
0100
0000
0100
,  // measure 45
0010
0000
1000
0100
1000
0010
0000
0010
0100
0000
0001
1000
0001
0010
0001
0010
,  // measure 46
0100
1000
0100
1000
0010
0100
0010
0100
0001
1000
0001
1000
0001
0000
0000
0000
,  // measure 47
1000
0000
1001
0001
0010
0100
0010
1000
,  // measure 48
0010
0100
0010
0001
0100
0010
1000
0001
,  // measure 49
1000
0000
0001
1000
0100
0010
0100
0001
,  // measure 50
0100
0010
0100
1000
0010
0100
0001
1000
,  // measure 51
0001
0000
1001
1000
0100
0010
0001
0100
,  // measure 52
1000
0100
0001
0010
0100
1000
0010
0100
,  // measure 53
0001
0000
1000
0100
0001
0100
1000
0010
,  // measure 54
0100
0001
0010
1000
0010
0001
0100
0010
,  // measure 55
1000
0000
0000
0000
1001
0000
0000
0001
0000
0000
0011
0000
0000
1000
0000
0000
,  // measure 56
1010
0000
0000
0001
0000
0000
0101
0000
0000
1000
0000
0000
1100
0000
1000
0000
,  // measure 57
0001
0000
0000
0000
1001
0000
0000
1000
0000
0000
1010
0000
0000
0001
0000
0000
,  // measure 58
0011
0000
0000
1000
0000
0000
1100
0000
0000
0001
0000
0000
0101
0000
0001
0000
,  // measure 59
1000
0000
0000
1000
0100
0000
0010
0000
0001
0000
0000
0001
0100
0000
0010
0000
,  // measure 60
1000
0000
0000
1000
0100
0000
0010
0000
0001
0000
0000
0001
0100
0000
0010
0000
,  // measure 61
1000
0100
1000
0100
0010
0001
0010
0001
1000
0010
1000
0010
0100
0001
0100
0001
,  // measure 62
0010
0100
0010
0100
1000
0001
1000
0001
1000
0010
1000
0010
0100
0001
0100
0001
,  // measure 63
0010
0001
0100
0010
,  // measure 64
1000
0100
0001
0100
,  // measure 65
1000
0000
0001
0100
0010
1000
0100
0010
,  // measure 66
0100
1000
0010
0100
0001
0010
0100
1000
,  // measure 67
0001
0000
0000
0001
0100
0000
0010
0000
1000
0000
0000
1000
0100
0000
0010
0000
,  // measure 68
0001
0000
0000
0001
0100
0000
0010
0000
1000
0000
0000
1000
0100
0000
0010
0000
,  // measure 69
0001
0100
0001
0100
0010
1000
0010
1000
0001
0010
0001
0010
0100
1000
0100
1000
,  // measure 70
0010
0100
0010
0100
0001
1000
0001
1000
0001
0010
0001
0010
0100
1000
0100
1000
,  // measure 71
0001
0000
0000
0000
;

//---------------dance-single - ----------------
#NOTEDATA:;
#CHARTNAME:;
#STEPSTYPE:dance-single;
#DESCRIPTION:;
#CHARTSTYLE:;
#DIFFICULTY:Hard;
#METER:9;
#RADARVALUES:0.576900,0.857202,0.199833,0.058285,0.258118,485.000000,461.000000,24.000000,7.000000,0.000000,0.000000,0.000000,0.000000,0.000000,0.576900,0.857202,0.199833,0.058285,0.258118,485.000000,461.000000,24.000000,7.000000,0.000000,0.000000,0.000000,0.000000,0.000000;
#CREDIT:;
#NOTES:
0000
0000
0000
0000
,
0000
0000
0000
0000
,
1000
0010
0001
0010
1000
0100
0010
0001
,
1000
0010
0100
0001
1000
0100
0001
0100
,
1000
0000
0010
0000
1000
0000
0000
0000
0001
0000
0010
0000
0001
0000
0000
0000
1000
0000
0001
0000
1000
0000
0000
0000
0001
0000
0100
0010
0100
0000
0010
0000
,
1000
0000
0100
0000
1000
0000
0000
0000
0001
0000
0100
0000
0001
0000
0000
0000
1000
0000
0001
0000
1000
0000
0000
0000
0001
0000
0010
0100
0010
0000
0100
0000
,
1000
0000
0000
1000
0001
0000
0100
0000
0001
0000
0000
0001
1000
0000
0100
0000
,
1000
0000
0000
1000
0001
0000
0010
0000
0001
0000
0000
0001
1000
0000
0010
0000
,
1000
0100
0010
0100
0001
0100
0010
0100
,
1000
0000
0001
0000
0101
0000
0001
1000
,
0100
0000
0010
0000
0001
0100
0000
0100
,
0010
0000
1000
0000
1100
0000
1000
0001
,
0100
0000
0000
0000
0010
0000
0000
0010
1000
0000
0100
0000
1000
0000
0001
0000
,
1000
0000
0001
0000
0011
0000
0001
1000
,
0010
0000
0100
0000
0001
0010
0000
0010
,
0100
0000
1000
0000
1010
0000
1000
0001
,
0010
0000
0000
0000
0100
0000
0000
0100
1000
0000
0010
0000
1000
0000
0001
0000
,
1000
0000
0110
0000
0001
0010
0110
0000
,
1000
0010
0110
0000
0001
0100
0110
0000
,
1000
0100
0110
0000
0011
0000
0101
0000
,
1100
0000
1001
0000
0001
0010
0100
1000
,
0001
0000
0000
0000
1001
0000
0000
1000
0010
0000
1000
0000
0001
0000
0000
0001
,
0010
0000
0001
0000
1000
0000
0000
1000
0100
0000
1000
0000
0001
0000
0000
0001
,
0100
0001
1000
0100
0010
0100
0001
0100
,
0010
0000
0100
0000
1000
0000
0000
0000
0001
0000
0000
0000
1001
0000
0000
1000
,
0000
0000
0010
0000
0000
0001
0000
0000
0010
0000
0000
1000
0000
0000
0100
0000
,
0000
0001
0000
0000
0100
0000
1000
0000
0001
0000
0000
0000
1001
0000
0000
1000
,
0000
0000
0010
0000
0000
0100
0000
0000
0010
0000
0000
1000
0000
0000
0100
0000
,
0000
0010
0000
0000
0001
0000
1000
0000
0001
0000
0000
0000
1001
0000
0000
1000
,
0000
0000
0100
0000
0000
0001
0000
0000
0100
0000
0000
1000
0000
0000
0010
0000
,
0000
0001
0000
0000
0010
0000
1000
0000
0001
0000
0000
0000
1001
0000
0000
1000
,
0000
0000
0100
0000
0000
0010
0000
0000
0100
0000
0000
1000
0000
0000
0010
0000
,
0000
0100
0000
0000
0001
0000
1000
0000
0002
0000
0000
0000
1003
0000
0100
0000
,
0010
0001
0100
0010
1000
0100
1000
0001
,
0100
0001
0010
0100
2000
0000
3001
0100
,
0010
1000
0100
0010
0001
0100
0001
1000
,
0100
1000
0010
0100
0002
0000
1003
0100
,
0001
0100
1000
0010
1000
0100
1000
0001
,
0100
0001
0010
0100
2000
0000
3001
0100
,
1000
0100
0001
0010
0001
0100
0001
1000
,
0100
1000
0010
0100
0001
0010
1000
0010
,
0002
0003
1000
0010
0001
0010
2000
3000
,
0001
0100
1000
0100
0002
0003
1000
0100
,
0001
0000
0100
0000
1000
0000
0001
1000
0001
0000
1000
0001
1000
0000
0000
1000
,
0001
0000
0100
0000
0001
0000
0000
0001
1000
0000
0100
0000
1000
0000
0000
1000
,
0001
0000
0010
0000
0001
0000
0000
0001
1000
0000
0010
0000
1000
0000
0100
0000
,
0010
0100
0001
0100
0010
0100
1000
0000
,
0001
0000
0101
0000
0001
1000
0100
0000
,
0010
0000
0001
1000
0000
1000
0010
0000
,
1000
0000
1100
0000
1000
0001
0100
0000
,
0010
0000
0000
0010
1000
0000
0100
0000
0010
0000
0001
0000
0100
0000
0000
0000
,
0001
0000
0011
0000
0001
1000
0010
0000
,
0100
0000
0001
1000
0000
1000
0100
0000
,
1000
0000
1010
0000
1000
0001
0010
0000
,
0100
0000
0000
0100
1000
0000
0010
0000
0100
0000
0001
0000
0010
0000
0000
0000
,
0001
0000
0000
0000
1001
0000
0000
1000
0000
0000
0100
0000
0000
0010
0000
0000
,
0001
0000
0000
0100
0000
0000
0010
0000
0000
1000
0000
0000
0001
0000
1000
0000
,
0001
0000
0000
0000
1001
0000
0000
1000
0000
0000
0100
0000
0000
0001
0000
0000
,
0100
0000
0000
1000
0000
0000
0010
0000
0000
0100
0000
0000
0001
0000
1000
0000
,
0001
0000
0000
0001
0010
0000
0001
0000
1000
0000
0000
1000
0010
0000
1000
0000
,
0001
0000
0000
0001
0100
0000
0001
0000
1000
0000
0000
1000
0100
0000
1000
0000
,
0001
0100
0010
0100
1000
0100
0010
0100
,
0001
0010
1000
0010
0001
0100
1000
0100
,
0001
0010
0100
1000
,
0001
0100
0010
1000
,
0001
1000
0100
0010
,
0001
1000
0010
0100
,
0001
0000
0000
0001
1000
0000
0100
0000
1000
0000
0000
1000
0001
0000
0100
0000
,
0001
0000
0000
0001
1000
0000
0010
0000
1000
0000
0000
1000
0001
0000
0010
0000
,
0001
0100
0010
0100
1000
0100
0010
0100
,
0001
0010
1000
0010
0001
0100
1000
0100
,
0001
0000
0000
0000
;

//---------------dance-single - ----------------
#NOTEDATA:;
#CHARTNAME:;
#STEPSTYPE:dance-single;
#DESCRIPTION:;
#CHARTSTYLE:;
#DIFFICULTY:Medium;
#METER:7;
#RADARVALUES:0.429404,0.738968,0.074938,0.000000,0.216486,361.000000,352.000000,9.000000,0.000000,0.000000,0.000000,0.000000,0.000000,0.000000,0.429404,0.738968,0.074938,0.000000,0.216486,361.000000,352.000000,9.000000,0.000000,0.000000,0.000000,0.000000,0.000000,0.000000;
#CREDIT:;
#NOTES:
0000
0000
0000
0000
,
0000
0000
0000
0000
,
1000
0100
0010
0001
1000
0010
0100
0001
,
1000
0100
0010
0001
1000
0010
0100
0001
,
0010
0100
0010
0000
0001
1000
0001
0000
0100
0010
0100
0000
0001
1000
0001
0000
,
1000
0100
1000
0000
0001
0100
0001
0000
1000
0010
1000
0000
0001
0010
0001
0000
,
1000
0000
0000
1000
0000
0000
0000
0000
0100
0000
0000
0100
0000
0000
0000
0000
,
0010
0000
0000
0010
0000
0000
0000
0000
0001
0000
0000
0001
0000
0000
0000
0000
,
1000
0010
1000
0010
0100
0001
0100
0001
,
0010
0000
0001
0000
1000
0000
0000
0001
,
0100
0000
0001
0000
1000
0100
0000
0100
,
0010
0000
0001
0000
1000
0000
0000
0010
,
0100
0000
0001
0000
1000
0100
1000
0100
,
0010
0000
0001
0000
1000
0000
0000
0001
,
0100
0000
0010
0000
1000
0100
0000
0100
,
0010
0000
0001
0000
1000
0000
0000
0010
,
0100
0000
0001
0000
0010
0100
0010
0100
,
1000
1001
0000
0110
,
0000
1001
0000
0110
,
0000
1001
1000
0010
,
0100
1001
0000
0000
,
0011
1010
1000
0100
,
0010
0001
0100
0010
,
1000
0000
0001
0010
0001
0010
0100
1000
,
0100
0000
1000
0000
0010
0000
0000
0000
1000
0000
0000
0000
0001
0000
0000
0001
,
0000
0000
0100
0000
0000
0100
0000
0000
0010
0000
0000
0010
0000
0000
1000
0000
,
0000
1000
0000
0000
0100
0000
0010
0000
0100
0000
0000
0000
1000
0000
0000
1000
,
0000
0000
0010
0000
0000
0010
0000
0000
0100
0000
0000
0100
0000
0000
0001
0000
,
0000
0001
0000
0000
0010
0000
0100
0000
0010
0000
0000
0000
0001
0000
0000
0001
,
0000
0000
1000
0000
0000
1000
0000
0000
0010
0000
0000
0010
0000
0000
0100
0000
,
0000
0100
0000
0000
0001
0000
1000
0000
0001
0000
0000
0000
1000
0000
0000
1000
,
0000
0000
0001
0000
0000
0001
0000
0000
0010
0000
0000
0010
0000
0000
0100
0000
,
0000
0100
0000
0000
1000
0000
0001
0000
1000
0000
0000
0000
0010
0000
0000
0000
,
0100
0010
1000
0100
,
0010
0000
0001
1000
0001
0000
0100
0000
,
0010
0100
0001
0010
,
0100
0000
1000
0001
1000
0000
0100
0000
,
0010
0100
1000
0010
,
0100
0000
0001
1000
0001
0000
0010
0000
,
0100
0010
0001
0100
,
0010
0000
1000
0001
1000
0100
0010
0100
,
1000
0000
0001
0100
0010
0100
0001
0000
,
1000
0010
0100
0010
1000
0000
0001
0010
,
0100
0000
0010
0000
0001
0000
0000
0000
0000
0000
0000
0000
1000
0000
0000
1000
,
0000
0000
0000
0000
0010
0000
0000
0010
0000
0000
0000
0000
0100
0000
0000
0100
,
0000
0000
0000
0000
0001
0000
0000
0001
0000
0000
0000
0000
1000
0000
0100
0000
,
1000
0100
0010
0001
0010
0001
0100
0000
,
0001
0000
1000
0000
0000
0001
0010
0000
,
0001
0000
1000
0010
0000
0010
0100
0000
,
0001
0000
1000
0000
0000
0100
0010
0000
,
0001
0000
1000
0010
1000
0010
0100
0000
,
0001
0000
1000
0000
0000
0001
0010
0000
,
0100
0000
1000
0010
0000
0010
0100
0000
,
0001
0000
1000
0000
0000
0100
0010
0000
,
0001
0000
0100
0010
0100
0010
1000
0000
,
0001
0000
0000
0000
1000
0000
0000
1000
0000
0000
0100
0000
0000
0100
0000
0000
,
0010
0000
0000
0010
0000
0000
0100
0000
0000
0100
0000
0000
1000
0000
0001
0000
,
1000
0000
0000
0000
0001
0000
0000
0001
0000
0000
0100
0000
0000
0100
0000
0000
,
0010
0000
0000
0010
0000
0000
0100
0000
0000
0100
0000
0000
0001
0000
1000
0000
,
0001
0000
0000
0000
1000
0000
0000
1000
0000
0000
0100
0000
0000
0100
0000
0000
,
0010
0000
0000
0010
0000
0000
0001
0000
0000
0001
0000
0000
1000
0000
0000
0000
,
0001
0000
0000
0000
1000
0000
0000
1000
0000
0000
0010
0000
0000
0010
0000
0000
,
0100
0000
0000
0100
0000
0000
0001
0000
0000
0001
0000
0000
1000
0000
0000
0000
,
1001
0000
0001
0000
,
0100
0000
0010
0000
,
1000
0000
0100
0000
,
0010
0000
0001
0000
,
1000
0000
0000
1000
0000
0000
0000
0000
0010
0000
0000
0010
0000
0000
0000
0000
,
0100
0000
0000
0100
0000
0000
0000
0000
0001
0000
0000
0001
0000
0000
0000
0000
,
1000
0100
1000
0100
0010
0001
0010
0001
,
0100
0010
0100
0010
1000
0001
1000
0001
,
1000
0000
0000
0000
;

//---------------dance-single - ----------------
#NOTEDATA:;
#CHARTNAME:;
#STEPSTYPE:dance-single;
#DESCRIPTION:;
#CHARTSTYLE:;
#DIFFICULTY:Easy;
#METER:5;
#RADARVALUES:0.294992,0.502498,0.049958,0.116570,0.000000,248.000000,242.000000,6.000000,14.000000,0.000000,0.000000,0.000000,0.000000,0.000000,0.294992,0.502498,0.049958,0.116570,0.000000,248.000000,242.000000,6.000000,14.000000,0.000000,0.000000,0.000000,0.000000,0.000000;
#CREDIT:;
#NOTES:
0000
0000
0000
0000
,
0000
0000
0000
0000
,
1000
0001
0100
0010
,
1000
0001
0010
0100
,
1000
0001
0001
1000
1000
0010
0010
0100
,
0001
1000
1000
0001
0001
0010
0010
0100
,
2000
0000
3002
0000
,
2003
0000
3020
0000
,
0230
0000
0000
0000
,
0301
1000
0010
0000
,
1000
0001
0010
0000
,
0001
1000
0100
0000
,
1000
0010
1000
0001
,
0100
0001
1000
0000
,
0100
0010
0001
0000
,
0100
0010
1000
0000
,
0100
1000
0010
0100
,
0001
1000
0000
1001
,
0000
0001
0000
1001
,
0000
1000
0100
0010
,
0001
0100
0000
0000
,
0001
1000
0100
0010
,
0001
1000
0010
0100
,
0001
2000
0000
3002
,
0000
1003
0001
1000
,
0000
0100
0000
0000
0010
0000
0000
0100
,
0000
0000
1000
0001
1000
0000
0001
0000
,
0000
0010
0000
0000
0100
0000
0000
0010
,
0000
0000
0001
1000
0001
0000
1000
0000
,
0000
0100
0000
0000
0010
0000
0000
0100
,
0000
0000
1000
0001
1000
0000
0001
0000
,
0000
0100
0000
0000
0010
0000
0000
0100
,
0000
0000
0001
1000
0001
0000
1000
0000
,
0100
0010
0001
1000
,
0010
0100
0001
1000
,
0100
0010
0001
1000
,
0010
0100
0001
1000
,
0100
0010
0001
1000
,
0010
0100
0001
1000
,
0100
0010
0001
1000
,
0010
0000
0100
0000
0001
1000
0001
0000
,
1001
0000
1000
0001
1000
0000
1001
0000
,
0001
1000
0001
0000
1001
0000
1000
0001
,
1000
1001
0000
0001
,
0010
0100
1000
0001
,
0100
0010
1000
0002
,
0000
2003
0000
3100
,
1000
0001
0000
1000
,
0010
1000
0000
0100
,
0010
0001
0000
0100
,
0010
1000
0001
1000
,
0001
0010
0000
0001
,
1000
0001
0000
1000
,
0010
1000
0000
0100
,
0010
0001
0100
0010
,
1000
0000
0001
0000
0000
0010
0000
0000
,
0100
0000
0000
0010
0000
0000
0001
1000
,
0001
0000
1000
0000
0000
0010
0000
0000
,
0100
0000
0000
0010
0000
0000
1000
0001
,
1000
0100
0010
0001
,
1000
0010
0100
0001
,
2000
0000
3002
0000
,
0023
0000
0000
0230
0000
0000
2300
0000
,
3001
0000
0010
0000
,
0001
0000
1000
0000
,
0100
0000
1000
0000
,
0010
0000
1000
0000
,
0001
1000
1000
0001
,
0001
0010
0010
0100
,
1000
0010
0100
0001
,
1000
0100
0010
0001
,
1000
0000
0000
0000
;

//---------------dance-single - ----------------
#NOTEDATA:;
#CHARTNAME:;
#STEPSTYPE:dance-single;
#DESCRIPTION:;
#CHARTSTYLE:;
#DIFFICULTY:Beginner;
#METER:3;
#RADARVALUES:0.171286,0.177352,0.000000,0.000000,0.000000,144.000000,144.000000,0.000000,0.000000,0.000000,0.000000,0.000000,0.000000,0.000000,0.171286,0.177352,0.000000,0.000000,0.000000,144.000000,144.000000,0.000000,0.000000,0.000000,0.000000,0.000000,0.000000,0.000000;
#CREDIT:;
#NOTES:
0000
0000
0000
0000
,
0000
0000
0000
0000
,
1000
0000
0001
0000
,
0010
0000
0100
0000
,
1000
0000
0001
0000
,
0100
0000
0010
0000
,
1000
0000
1000
0000
,
0001
0000
0001
0000
,
1000
0000
0001
0000
,
1000
0001
1000
0000
,
0010
0000
1000
0000
,
0010
0000
0100
0000
,
0001
0000
0100
0000
,
0001
0000
1000
0000
,
0100
0000
1000
0000
,
0100
0000
0010
0000
,
0001
0000
0010
0000
,
0001
0100
0000
0100
,
0000
0010
0000
0010
,
0000
1000
0000
0001
,
0000
1000
0000
0000
,
0100
1000
0000
1000
,
0000
0001
0000
0001
,
0000
1000
0000
0001
,
0000
1000
0001
1000
,
0000
0000
0010
0000
,
0000
1000
0001
1000
,
0000
0000
0100
0000
,
0000
1000
0001
1000
,
0000
0000
0010
0000
,
0000
1000
0001
1000
,
0000
0000
0100
0000
,
0000
1000
0001
0000
,
1000
0000
0010
0000
,
0100
0000
0001
0000
,
1000
0000
0100
0000
,
0010
0000
0001
0000
,
1000
0000
0010
0000
,
0100
0000
0001
0000
,
1000
0000
0100
0000
,
0010
0000
0001
0000
,
0001
1000
0000
1000
,
0010
0000
0010
0100
,
0000
0100
0000
0001
,
0000
0001
0000
1000
,
0000
1000
0000
0001
,
0000
1000
0000
0001
,
1000
0001
0000
0100
,
0000
0001
0000
1000
,
0000
0001
0000
0010
,
0000
0001
0000
1000
,
0000
0100
0000
1000
,
0000
0001
0000
1000
,
0000
0010
0000
1000
,
0000
0001
0000
1000
,
0001
1000
0000
0000
,
0100
0000
0000
1000
,
0001
1000
0000
0000
,
0010
0000
0000
1000
,
0001
0000
0001
0000
,
1000
0000
1000
0000
,
0001
0100
0000
0000
,
0010
0000
0000
1000
,
0001
0000
1000
0000
,
0100
0000
0010
0000
,
0001
0000
1000
0000
,
0010
0000
0100
0000
,
0001
0000
1000
0000
,
0100
0000
0010
0000
,
0001
0000
1000
0000
,
0010
0000
0100
0000
,
0001
0000
0000
0000
;
