#TITLE:STAGER;
#SUBTITLE:;
#ARTIST:Ras;
#TITLETRANSLIT:;
#SUBTITLETRANSLIT:;
#ARTISTTRANSLIT:;
#GENRE:Tech Electro;
#CREDIT:usaminseijin;
#BANNER:[ROUND J] - STAGER.png;
#BACKGROUND:[ROUND J] - STAGER-bg.png;
#LYRICSPATH:;
#CDTITLE:cdtitle.png;
#MUSIC:[ROUND J] - STAGER.ogg;
#OFFSET:-0.010000;
#SAMPLESTART:39.442051;
#SAMPLELENGTH:13.130684;
#SELECTABLE:YES;
#DISPLAYBPM:146.000000;
#BPMS:0.000000=146.000000
,28.000000=292.000000
,32.000000=146.000000
,158.000000=292.000000
,159.000000=146.000000
,188.000000=292.000000
,191.000000=146.000000
,222.000000=292.000000
,226.000000=146.000000
,314.000000=292.000000
,320.500000=146.000000
;
#STOPS:28.000000=0.102739,
28.500000=0.051371,
28.750000=0.051370,
29.000000=0.051370,
29.250000=0.051370,
29.500000=0.051370,
29.750000=0.102740,
30.250000=0.025685,
30.375000=0.025684,
30.500000=0.025684,
30.625000=0.025684,
30.750000=0.051370,
31.000000=0.102740,
31.500000=0.051371,
31.750000=0.051370,
158.000000=0.051369,
158.250000=0.051369,
158.500000=0.051369,
158.750000=0.051369,
188.000000=0.154106,
188.750000=0.154114,
189.500000=0.154114,
190.250000=0.154114,
314.000000=0.102737,
314.500000=0.154114,
315.250000=0.154099,
316.000000=0.154099,
316.750000=0.154099,
317.500000=0.154099,
318.250000=0.154099,
319.000000=0.154099,
319.750000=0.154099
;
#BGCHANGES:-1.000=[ROUND J] - STAGER.avi=1.000=0=0=0=StretchNoLoop====,
99999=-nosongbg-=1.000=0=0=0 // don't automatically add -songbackground-
;
#KEYSOUNDS:;
#ATTACKS:;

//---------------dance-single - ----------------
#NOTES:
     dance-single:
     :
     Hard:
     9:
     0.821218,0.793459,0.182252,0.083532,1.006181,757.000000,733.000000,24.000000,11.000000,0.000000,0.000000,0.821218,0.793459,0.182252,0.083532,1.006181,757.000000,733.000000,24.000000,11.000000,0.000000,0.000000:
0000
0000
0000
0000
,
0000
0000
0000
0000
,
0000
0000
0000
0000
,
0000
0000
0000
0000
,
1000
0000
1010
0000
0000
0100
0010
0000
,
0100
0000
0000
0000
0101
0000
0000
0000
0000
0000
0010
0000
0001
0010
0000
0000
,
0010
0000
0110
0000
0000
0100
1000
0000
,
1001
0000
0000
0000
1000
0000
0100
0000
1000
0000
0100
0000
1000
0000
0001
0000
0000
0000
0100
0010
0100
0010
0100
0000
0001
0000
0000
0000
0010
0000
0001
0000
,
1000
0000
0000
0010
1000
0000
0001
0000
0100
0000
0010
0000
1000
0010
0000
0000
,
0110
0000
0000
1000
0001
0000
0100
0000
0001
1000
0001
0000
0100
0010
0100
0000
,
0110
0000
0000
0100
0001
0000
1000
0000
0001
0000
0100
0000
0000
0001
1000
0000
,
0010
0000
0000
0000
0100
0000
0010
0000
0100
0000
0010
0000
0100
0000
0001
0000
1000
0000
0010
1000
0010
1000
0010
0000
0100
0000
0000
0000
0010
0000
0100
0000
,
0001
0000
0000
0010
0001
0000
1000
0000
0010
0000
0100
0000
0001
0000
1000
0000
,
0110
0000
0000
0100
0001
0000
1000
0000
0001
0010
0001
0000
1000
0100
1000
0000
,
1001
0000
0000
0100
0010
0000
1000
0000
0001
0000
0100
0000
0001
1000
0000
0000
,
0001
0000
0100
0010
0100
0010
0100
0000
0001
1000
0000
0001
0010
0001
0010
0000
,
0001
0000
0100
0001
0000
0100
0010
0100
0001
1000
0000
0010
0100
0010
0100
0000
,
1000
0000
0010
0100
0000
0001
0100
0001
1000
0010
0000
0100
0010
0100
0010
0000
,
0100
0000
0001
1000
0000
0010
0100
0010
1000
0010
0000
1000
0001
1000
0001
0000
,
1000
0100
1000
0000
0001
0010
0001
0000
1000
0001
1000
0001
0200
0000
0320
0000
,
1030
0000
0100
1000
0000
0010
0100
0010
0100
0010
1000
0001
1000
0001
0100
0000
,
0010
0000
0100
0010
0000
1000
0001
1000
0010
1000
0000
0100
0010
0100
0010
0000
,
0100
0000
0010
0100
0000
0000
0001
1000
0001
0100
0001
0000
0100
0010
0100
0000
,
0010
1000
0010
0000
0100
0010
0100
0000
0001
1000
0001
1000
0020
0000
0230
0000
,
0301
0000
0010
0000
0001
0100
0001
0000
1000
0001
1000
0001
0000
0000
0000
0000
,
0100
0000
0010
0000
1000
0010
1000
0000
0010
0100
0010
0100
0000
0000
0000
0000
,
0001
0000
0100
0000
0010
0100
0010
0000
1000
0001
1000
0001
0000
0000
0000
0000
,
1000
0010
1000
0000
0001
0100
0001
0000
1000
0001
1000
0001
0200
0000
0320
0000
,
1030
0000
0001
0000
0100
0010
0100
0000
0001
0100
0001
0100
0000
0000
0000
0000
,
0010
0000
0100
0000
0001
1000
0001
0000
1000
0010
1000
0010
0000
0000
0000
0000
,
0100
0000
0010
0000
1000
0100
1000
0000
0001
0010
0001
0010
0000
0000
0000
0000
,
1000
0001
1000
0000
0010
0100
0010
0000
1000
0001
1000
0001
0200
0000
0320
0000
,
1030
0000
0001
0000
1000
0010
1000
0000
0001
0100
0001
0100
0010
0000
0000
0000
,
0100
0000
0010
0000
1000
0001
1000
0000
0001
0010
0001
0010
0100
0000
0000
0000
,
1000
0000
0001
0000
1000
0100
1000
0000
0001
1000
0001
1000
0010
0000
0000
0000
,
1000
0100
1000
0000
0001
0010
0001
0000
0100
0010
0100
0010
2000
0000
3002
0000
,
1003
0000
0010
0000
0100
0010
0100
0000
0001
0100
0001
0100
0010
0000
0000
0000
,
1000
0000
0010
0000
0100
0010
0100
0000
0001
1000
0001
1000
0010
0000
0000
0000
,
0100
0000
0001
0000
1000
0010
1000
0000
0001
1000
0001
1000
0010
0000
0000
0000
,
1000
0010
1000
0000
0001
0100
0001
0000
1000
0001
1000
0001
0100
0000
0010
0000
,
1000
0000
0000
0010
1000
0000
0001
0000
0100
0000
0010
0000
1000
0010
0000
0000
,
0110
0000
0000
1000
0001
0000
0100
0000
0001
1000
0001
0000
0100
0010
0100
0000
,
0110
0000
0000
0100
0001
0000
1000
0000
0001
0000
0100
0000
0000
0001
1000
0000
,
0010
0000
0000
0000
1000
0000
0100
0000
1000
0000
0000
0000
0001
0000
0010
0000
0001
0000
1000
0000
0001
0000
1000
0000
0010
0100
0010
0100
0010
0000
1000
0000
,
0001
0000
0000
0010
0001
0000
1000
0000
0010
0000
0100
0000
0001
0000
1000
0000
,
0110
0000
0000
0100
0001
0000
1000
0000
0001
0010
0001
0000
1000
0100
1000
0000
,
1001
0000
0000
0100
0010
0000
1000
0000
0001
0000
0100
0000
0001
1000
0000
0000
,
0011
0000
0000
0110
0000
0000
1100
0000
0000
1001
0000
0000
0010
0100
0010
0100
,
0001
0000
1000
0000
0010
1000
0000
0000
0001
0000
0000
0100
0000
0000
0001
0000
,
0010
0001
0000
0000
1000
0000
0000
0001
0000
0000
0100
0000
0010
0000
1000
0100
,
1000
0000
0001
0000
0100
0010
0000
0000
1000
0000
0000
0001
0000
0000
0010
0000
,
0001
1000
0000
0000
0010
0000
0000
0100
0000
0001
0100
0000
0010
1000
0010
0000
,
1000
0000
0010
0000
0100
0010
0000
0000
0100
0000
0000
0001
0000
0000
1000
0000
,
0010
0100
0000
0000
0001
0000
0000
0100
0000
0000
0010
0000
1000
0000
0001
0100
,
0001
0000
0010
0000
0001
1000
0000
0000
0010
0000
0000
0100
0000
0000
0001
0000
,
1000
0001
0000
0100
0010
0000
1000
0001
2000
0000
0000
0000
0000
0000
0000
0000
,
0000
0000
0000
0000
0000
0000
0000
0000
3010
0000
0100
0000
0001
1000
0000
0010
,
1000
0000
0010
0100
0000
0000
0001
0000
1000
0010
0000
0100
0010
0000
1000
0100
,
1000
0000
0001
0000
0100
0000
0001
0100
0010
0000
1000
0000
0010
0100
0000
0010
,
1000
0000
0001
0100
0000
0010
0100
0000
0001
1000
0000
0010
0100
0000
0001
0100
,
0010
1000
0000
0010
0100
0010
0100
0000
0001
0000
1000
0000
0010
1000
0000
0001
,
0010
0000
0100
1000
0000
0001
0100
0000
0010
1000
0000
0000
0010
0100
0000
0001
,
1000
0000
0010
0000
0100
0000
0010
1000
0010
0000
0100
0000
0001
1000
0000
0010
,
0100
0000
0001
0010
0000
0100
1000
0000
0010
1000
0000
0001
0100
0000
0001
1000
,
0001
0100
0000
0010
1000
0100
1000
0000
0001
0000
1000
0000
0100
0010
0000
0001
,
0010
0000
0001
1000
0000
0000
0100
0000
0010
0001
0000
1000
0001
0000
0010
0001
,
0010
0000
0100
0000
1000
0000
0100
1000
0001
0000
0010
0000
0001
1000
0000
0001
,
0010
0000
0100
1000
0000
0001
1000
0000
0100
0010
0000
0001
1000
0000
0100
1000
,
0001
0010
0000
0001
1000
0001
1000
0000
0100
0000
0010
0000
0001
0010
0000
0100
,
0001
0000
1000
0010
0000
0100
1000
0000
0001
0010
0000
0000
0001
1000
0000
0100
,
0010
0000
0001
0000
1000
0000
0001
0010
0001
0000
1000
0000
0100
0010
0000
0001
,
1000
0000
0001
0100
0000
0010
1000
0000
0001
0010
0000
0100
1000
0000
0100
0010
,
0100
1000
0000
0001
0010
0100
0010
0000
0001
0000
1000
0000
0010
0100
0000
0000
,
0001
0000
0100
0010
0000
0000
1000
0000
0010
0000
0100
0000
0001
0010
0000
0100
,
1000
0000
0010
0100
0000
0000
0001
0000
0000
0000
1000
0000
0000
0001
0000
0000
,
1000
0000
0010
0100
0010
0000
1000
0000
0001
0000
0100
0000
0010
0100
0000
0001
,
1000
0000
0010
0000
1000
0100
1000
0000
0010
0000
0100
0000
0001
0100
0000
0010
,
1000
0000
0001
0100
0000
0000
0010
0000
1000
0000
0001
0000
0100
0010
0000
0100
,
0001
0000
1000
0010
0000
0000
0100
0000
0000
0000
1001
0000
0000
1100
0000
0000
,
0101
0000
0000
1001
0000
0000
0011
0000
0000
1010
0000
0000
1001
0000
0000
1100
,
0000
0100
0010
0100
0000
0000
0000
0000
;

//---------------dance-single - ----------------
#NOTES:
     dance-single:
     :
     Medium:
     7:
     0.536992,0.549318,0.045563,0.015188,0.341722,495.000000,489.000000,6.000000,2.000000,0.000000,0.000000,0.536992,0.549318,0.045563,0.015188,0.341722,495.000000,489.000000,6.000000,2.000000,0.000000,0.000000:
0000
0000
0000
0000
,
0000
0000
0000
0000
,
0000
0000
0000
0000
,
0000
0000
0000
0000
,
1000
0000
1010
0000
0000
0100
0010
0000
,
0100
0000
0101
0000
0000
0010
0001
0000
,
0010
0000
0110
0000
0000
0100
1000
0000
,
1001
0000
1000
0000
0100
0000
1000
0001
0000
0100
0010
0100
0001
0000
0010
0001
,
1000
0000
0000
0010
0000
0000
0100
0000
0000
0000
0010
0000
0000
1000
0000
0000
,
0001
0000
0000
1000
0000
0000
0010
0000
1000
0000
0001
0000
0100
0000
0010
0000
,
0100
0000
0000
0001
0000
0000
1000
0000
0000
0000
0010
0000
0000
1000
0000
0000
,
0001
0000
0100
0000
0010
0000
0100
0001
1000
0010
1000
0010
0100
0000
0010
0100
,
0001
0000
0000
0010
0000
0000
0001
0000
0000
0000
0100
0000
0000
0001
0000
0000
,
1000
0000
0000
0010
0000
0000
1000
0000
0001
0000
0010
0000
0100
0000
1000
0000
,
0001
0000
0000
0100
0000
0000
0010
0000
0000
0000
0100
0000
0000
0001
0000
0000
,
1000
0000
0010
0000
0100
0000
0010
0000
1000
0001
0000
0000
0010
0000
0001
0000
,
0100
0000
0001
0000
0100
0000
0010
0000
1000
0001
0000
0000
0100
0000
0010
0000
,
1000
0000
0010
0000
0100
0000
0001
0000
1000
0010
0000
0000
0100
0000
0010
0000
,
0100
0000
0001
0000
0100
0000
0010
0000
1000
0010
0000
0000
1000
0000
0001
0000
,
1000
0100
0010
0001
1000
0001
0100
0010
,
1000
0000
0100
0000
1000
0000
0010
0000
0100
0001
0000
0000
1000
0000
0001
0000
,
0100
0000
0010
0000
1000
0000
0001
0000
0100
0001
0000
0000
0100
0000
0010
0000
,
1000
0000
0010
0000
0100
0000
0001
0000
1000
0010
0000
0000
0100
0000
0001
0000
,
1000
0010
0100
0001
1000
0001
0100
0010
,
1000
0010
0100
0001
1000
0001
1000
0000
,
0010
0100
0001
1000
0010
0100
0010
0000
,
1000
0100
0010
0100
1000
0001
1000
0000
,
0001
0010
0100
1000
0001
1000
0010
0100
,
0001
1000
0010
0100
0001
0100
0001
0000
,
0010
0100
1000
0001
1000
0010
1000
0000
,
0100
0010
0001
1000
0001
0010
0001
0000
,
1000
0001
0100
0010
1000
0001
0100
0010
,
1000
0001
1000
0010
0100
0001
0100
0000
,
0010
0100
0001
1000
0001
0010
0100
0000
,
1000
0001
1000
0100
1000
0001
0010
0000
,
0001
0100
0010
1000
0010
0100
0001
1000
,
0001
0100
0010
0100
0001
0100
0010
0000
,
1000
0010
0100
0010
1000
0001
0010
0000
,
0100
1000
0001
0010
0001
1000
0010
0000
,
1000
0000
0010
0000
0100
0000
0001
0000
1000
0001
1000
0001
0100
0000
0010
0000
,
1000
0000
0000
0010
0000
0000
0100
0000
0000
0000
0001
0000
0000
1000
0000
0000
,
0010
0000
0000
1000
0000
0000
0001
0000
1000
0000
0001
0000
0100
0000
0010
0000
,
0100
0000
0000
0001
0000
0000
1000
0000
0000
0000
0010
0000
0000
0100
0000
0000
,
0010
0000
1000
0000
0100
0000
0010
0000
0001
0000
1000
0000
0010
0100
0010
1000
,
0001
0000
0000
0010
0000
0000
0001
0000
0000
0000
1000
0000
0000
0010
0000
0000
,
0100
0000
0000
0001
0000
0000
1000
0000
0001
0000
0010
0000
0100
0000
1000
0000
,
0001
0000
0000
0100
0000
0000
0001
0000
0000
0000
1000
0000
0000
0010
0000
0000
,
1000
0000
0000
0001
0000
0000
0100
0000
0000
1001
0000
0000
0010
0000
0100
0000
,
0001
0010
0100
1000
,
0001
0100
0010
1000
,
0001
1000
0010
0100
,
0001
1000
0010
0100
,
0001
0100
0010
1000
,
0001
0010
0100
1000
,
0001
0100
0010
1000
,
0010
0100
2002
0000
,
0000
0000
0000
0000
3003
0000
0000
0000
0010
0000
0100
0000
0000
0001
0000
0000
,
0100
0000
0000
0010
0000
0000
1000
0000
0000
0100
0000
0000
1000
0000
0000
0001
,
0010
0000
0100
0000
1000
0000
0001
0000
0100
0000
0010
0000
0000
0100
0000
0000
,
0001
0000
0000
1000
0000
0000
0010
0000
0000
0100
0000
0000
0001
0000
0000
0010
,
0001
0000
1000
0000
0010
0000
0100
0000
0001
0000
1000
0000
0000
0010
0000
0000
,
0100
0000
0000
0001
0000
0000
0010
0000
0000
0100
0000
0000
1000
0000
0000
0001
,
1000
0000
0010
0000
0100
0000
0010
0000
1000
0000
0001
0000
0000
0100
0000
0000
,
0010
0000
0000
0100
0000
0000
0001
0000
0000
1000
0000
0000
0001
0000
0000
0010
,
0001
0000
0100
0000
0010
0000
1000
0000
0001
0000
1000
0000
0000
0010
0000
0000
,
0100
0000
0000
0001
0000
0000
1000
0000
0000
0010
0000
0000
0100
0000
0000
0001
,
0010
0000
0100
0000
1000
0000
0100
0000
1000
0000
0010
0000
0000
0100
0000
0000
,
0001
0000
0000
1000
0000
0000
0001
0000
0000
0010
0000
0000
0001
0000
0000
0010
,
0001
0000
1000
0000
0010
0000
0100
0000
0010
0000
1000
0000
0000
0010
0000
0000
,
0100
0000
0000
0010
0000
0000
1000
0000
0000
0001
0000
0000
1000
0000
0000
0100
,
0010
0000
0001
0000
1000
0000
0001
0000
0010
0000
0001
0000
0000
0100
0000
0000
,
0001
0000
0000
0010
0000
0000
0001
0000
0000
0010
0000
0000
0001
0000
0000
0100
,
0010
0000
0000
1000
0000
0000
0001
0000
1000
0000
0001
0000
0000
0100
0000
0000
,
0001
0000
0000
0100
0000
0000
0010
0000
1000
0000
0100
0000
0000
0010
0000
0000
,
0001
0000
0000
0100
0000
0000
0001
0000
0000
0000
1000
0000
0000
0001
0000
0000
,
1000
0000
0000
0010
0000
0000
1000
0000
0001
0000
0100
0000
0000
0001
0000
0000
,
1000
0000
0000
0010
0000
0000
0100
0000
0010
0000
0100
0000
0000
0001
0000
0000
,
1000
0000
0000
0001
0000
0000
0100
0000
0001
0000
1000
0000
0000
0010
0000
0000
,
0100
0000
0000
0010
0000
0000
1000
0000
0000
0000
0001
0000
0000
1000
0000
0000
,
0001
0000
0000
0100
0000
0000
0010
0000
0000
1000
0000
0000
0001
0000
0000
1000
,
0000
0100
0010
0100
0000
0000
0000
0000
;

//---------------dance-single - ----------------
#NOTES:
     dance-single:
     :
     Easy:
     4:
     0.368843,0.427247,0.144283,0.083532,0.026578,340.000000,321.000000,19.000000,11.000000,0.000000,0.000000,0.368843,0.427247,0.144283,0.083532,0.026578,340.000000,321.000000,19.000000,11.000000,0.000000,0.000000:
0000
0000
0000
0000
,
0000
0000
0000
0000
,
0000
0000
0000
0000
,
0000
0000
0000
0000
,
1000
0000
0010
0000
0000
0100
0010
0000
,
0100
0000
0001
0000
0000
0010
0001
0000
,
0010
0000
0100
0000
0000
0001
1000
0000
,
2002
0000
0000
0000
0000
0000
0000
3003
,
1000
0001
0100
0010
,
1000
0001
0100
0001
,
0100
0001
0010
0001
,
1000
0000
0010
0000
1000
0010
1000
0001
,
0100
0010
0100
0001
,
1000
0010
0100
0001
,
1000
0100
0010
0100
,
1000
0000
0100
0000
1000
0001
0010
0000
,
0001
1000
0000
1000
0000
1000
0000
1000
,
0000
0001
0000
0001
0000
0001
0000
0001
,
0000
0100
0000
0100
0000
0100
0000
0100
,
0000
0010
0000
0010
0000
0010
0000
0010
,
1000
0000
1001
0000
0000
0100
0001
0000
,
0100
0000
0110
0000
0000
1000
0100
0000
,
1000
0000
1001
0000
0000
0010
0001
0000
,
1000
0001
1001
0000
,
1000
0010
1000
0000
0001
1000
0001
0000
,
1000
0100
1000
0000
0001
0010
0001
0000
,
1000
0010
1000
0000
0001
1000
0001
0000
,
0010
0001
0010
0000
0001
0100
0010
0100
,
0001
1000
0001
0000
0100
0001
0100
0000
,
0010
0100
0010
0000
1000
0010
1000
0000
,
0010
0100
0010
0000
1000
0001
1000
0000
,
0001
0010
0001
0000
1000
0001
1000
0010
,
1000
0001
1000
0000
0001
0100
0001
0000
,
0100
0010
0100
0000
0001
0010
0001
0000
,
1000
0001
1000
0000
0001
0010
0001
0000
,
1000
0100
1000
0000
0010
0100
0001
1000
,
0001
0100
0001
0000
1000
0100
1000
0000
,
0010
0100
0010
0000
1000
0001
1000
0000
,
0001
0010
0001
0000
1000
0010
1000
0000
,
0010
0100
0010
0000
1000
0001
0100
0010
,
1000
0010
0100
0010
,
1000
0001
0100
0001
,
1000
0010
0100
0001
,
1000
0100
0010
0001
,
1000
0001
0100
0001
,
1000
0010
0100
0010
,
1000
0001
0100
0010
,
1000
0000
0000
0001
0000
0000
0100
0000
0000
0001
0000
0000
1000
0000
0001
0000
,
2000
0000
0000
0000
,
3002
0000
0000
0000
,
0023
0000
0000
0000
,
0032
0000
0000
0000
,
2003
0000
0000
0000
,
3200
0000
0000
0000
,
0302
0000
0000
0000
,
2003
0000
0002
0000
,
0000
3003
1000
0001
,
0100
0010
0100
0001
,
0010
0001
0100
0010
,
1000
0001
0100
0001
,
0010
0001
0100
0001
,
0100
0010
1000
0100
,
1000
0010
1000
0001
,
0010
0001
1000
0001
,
0010
0001
1000
1001
,
0100
0110
0010
0011
,
0001
1001
1000
1010
,
0010
0110
0100
0101
,
0001
1001
1000
1100
,
0100
0110
0010
0011
,
0001
1001
1000
1010
,
0010
0110
0000
0000
,
0001
0000
0000
1000
0000
0000
0001
0000
1000
0000
0000
0000
1000
0000
0000
0000
,
0001
0001
0100
0100
,
0001
0001
1000
1000
,
0010
0010
0100
0100
,
0010
0010
1000
1000
,
0001
0001
0100
0100
,
0010
0000
0000
0000
0010
0000
0000
0000
0000
0000
1000
0000
0000
0001
0000
0000
,
1000
0000
0000
0001
0000
0000
1000
0000
0000
0001
0000
0000
1000
0000
0000
0001
,
0000
1000
0100
1000
0000
0000
0000
0000
;

//---------------dance-single - ----------------
#NOTES:
     dance-single:
     :
     Beginner:
     2:
     0.227815,0.274659,0.022781,0.144283,0.000000,210.000000,207.000000,3.000000,19.000000,0.000000,0.000000,0.227815,0.274659,0.022781,0.144283,0.000000,210.000000,207.000000,3.000000,19.000000,0.000000,0.000000:
// measure 0
0000
0000
0000
0000
,  // measure 1
0000
0000
0000
0000
,  // measure 2
0000
0000
0000
0000
,  // measure 3
0000
0000
0000
0000
,  // measure 4
1000
0010
0000
0010
,  // measure 5
0100
0001
0000
0001
,  // measure 6
0010
0100
0000
0100
,  // measure 7
2002
0000
0000
3003
,  // measure 8
1000
1000
1000
0000
,  // measure 9
0001
0001
0001
0001
,  // measure 10
0100
0100
0100
0000
,  // measure 11
1000
1000
0001
0001
,  // measure 12
0100
0100
0100
0000
,  // measure 13
1000
1000
1000
0000
,  // measure 14
0001
0001
0001
0000
,  // measure 15
1000
1000
0001
0001
,  // measure 16
2000
0000
0000
3000
,  // measure 17
0002
0000
0000
0003
,  // measure 18
0200
0000
0000
0300
,  // measure 19
0020
0000
0000
0030
,  // measure 20
1000
0001
0000
0001
,  // measure 21
0100
0010
0000
0010
,  // measure 22
1000
0001
0000
0001
,  // measure 23
1000
0001
1000
0000
,  // measure 24
1000
1000
1000
0000
,  // measure 25
0001
0001
0001
0000
,  // measure 26
0100
0100
0100
0000
,  // measure 27
0010
0010
0100
0100
,  // measure 28
0001
0001
0001
0000
,  // measure 29
0100
0100
0100
0000
,  // measure 30
0010
0010
0010
0000
,  // measure 31
1000
1000
0001
0001
,  // measure 32
1000
1000
1000
0000
,  // measure 33
0100
0100
0100
0000
,  // measure 34
0010
0010
0010
0000
,  // measure 35
1000
1000
0001
0001
,  // measure 36
0100
0100
0100
0000
,  // measure 37
0010
0010
0010
0000
,  // measure 38
0001
0001
0001
0000
,  // measure 39
0010
0010
2002
3003
,  // measure 40
1000
1000
1000
0000
,  // measure 41
0001
0001
0001
0000
,  // measure 42
0010
0010
0010
0000
,  // measure 43
0100
0100
0100
0000
,  // measure 44
1000
1000
1000
0000
,  // measure 45
0010
0010
0010
0010
,  // measure 46
0100
0100
0100
0000
,  // measure 47
0000
0000
0000
0000
,  // measure 48
2000
0000
0000
3000
,  // measure 49
0002
0000
0000
0003
,  // measure 50
0020
0000
0000
0030
,  // measure 51
0002
0000
0000
0003
,  // measure 52
2000
0000
0000
3000
,  // measure 53
0200
0000
0000
0300
,  // measure 54
0002
0000
0000
0003
,  // measure 55
2000
0000
0001
0000
,  // measure 56
3000
0000
1000
1000
,  // measure 57
1000
0000
0100
0100
,  // measure 58
0100
0000
0010
0010
,  // measure 59
0010
0000
0001
0001
,  // measure 60
0001
0000
0100
0100
,  // measure 61
0100
0000
1000
1000
,  // measure 62
1000
0000
0001
0001
,  // measure 63
0001
0000
0010
0010
,  // measure 64
0010
0000
1000
1000
,  // measure 65
0100
0100
0010
0010
,  // measure 66
0001
0001
1000
1000
,  // measure 67
0010
0010
0100
0100
,  // measure 68
0001
0001
1000
1000
,  // measure 69
0100
0100
0010
0010
,  // measure 70
0001
0001
1000
1000
,  // measure 71
0010
0010
0000
0000
,  // measure 72
0002
0000
1003
1000
,  // measure 73
0001
0000
0100
0100
,  // measure 74
0001
0000
1000
1000
,  // measure 75
0010
0000
0100
0100
,  // measure 76
0010
0000
1000
1000
,  // measure 77
0001
0000
0100
0100
,  // measure 78
0010
0000
0000
0000
0000
2002
0000
0000
,  // measure 79
0000
0000
0000
0000
,  // measure 80
0000
0000
0000
3003
0000
0000
0000
0000
;
