#VERSION:0.83;
#TITLE:LOVEくらっち;
#SUBTITLE:;
#ARTIST:のりあ;
#TITLETRANSLIT:LOVE CLUTCH;
#SUBTITLETRANSLIT:;
#ARTISTTRANSLIT:Noria;
#GENRE:J-HAPPY HARDCORE;
#ORIGIN:;
#CREDIT:;
#BANNER:[ROUND J] - LOVE CLUTCH.png;
#BACKGROUND:[ROUND J] - LOVE CLUTCH-bg.png;
#PREVIEWVID:;
#JACKET:[ROUND J] - LOVE CLUTCH-jacket.png;
#CDIMAGE:;
#DISCIMAGE:;
#LYRICSPATH:;
#CDTITLE:;
#MUSIC:[ROUND J] - LOVE CLUTCH.ogg;
#OFFSET:-1.412000;
#SAMPLESTART:47.994999;
#SAMPLELENGTH:28.420000;
#SELECTABLE:YES;
#BPMS:0.000=85.000,
14.000=170.000,
117.000=85.000,
121.000=170.000;
#STOPS:117.000=0.353,
211.000=0.353,
214.000=0.353;
#DELAYS:;
#WARPS:;
#TIMESIGNATURES:0.000=4=4;
#TICKCOUNTS:0.000=4;
#COMBOS:0.000=1;
#SPEEDS:0.000=1.000=0.000=0;
#SCROLLS:0.000=1.000;
#FAKES:;
#LABELS:0.000=Song Start;
#BGCHANGES:;
#KEYSOUNDS:;
#ATTACKS:
;

//---------------dance-single - ----------------
#NOTEDATA:;
#CHARTNAME:ChiselEssiestudy ZSS-H;
#STEPSTYPE:dance-single;
#DESCRIPTION:;
#CHARTSTYLE:;
#DIFFICULTY:Hard;
#METER:8;
#RADARVALUES:0.558523,0.729957,0.404765,0.119590,0.082793,425.000000,381.000000,44.000000,13.000000,0.000000,0.000000,0.000000,0.000000,0.000000,0.558523,0.729957,0.404765,0.119590,0.082793,425.000000,381.000000,44.000000,13.000000,0.000000,0.000000,0.000000,0.000000,0.000000;
#CREDIT:Chisel Essiestudy;
#NOTES:
// measure 0
0000
0000
0000
0000
,  // measure 1
0000
0000
0000
0000
,  // measure 2
0000
0000
0000
0000
,  // measure 3
0000
0000
0000
0000
1000
0100
0010
0001
,  // measure 4
0010
0100
1000
0010
0100
0001
0100
0010
,  // measure 5
1000
0001
1000
0010
0100
0010
1000
0001
1000
0000
0001
0000
1000
0000
0100
0000
,  // measure 6
1000
0100
1000
0001
1000
0001
1000
0010
,  // measure 7
1000
0010
0100
0001
0010
0001
0010
0100
,  // measure 8
0010
0100
1000
0001
1010
1000
0100
0011
,  // measure 9
0000
0010
0000
0001
0010
0001
1000
0001
,  // measure 10
0100
0001
1000
0001
1000
0001
0100
0001
,  // measure 11
1000
0001
0100
0001
0010
0100
0010
0001
,  // measure 12
1000
0001
1000
0010
0110
0000
0101
0000
,  // measure 13
0011
0000
1100
0000
1000
0100
0001
0100
,  // measure 14
0000
1000
0000
0002
0000
1003
0001
1000
,  // measure 15
0010
0000
0001
0000
0010
0000
1000
0002
,  // measure 16
0000
0000
1003
0100
0000
0010
0100
0010
,  // measure 17
0001
1000
0100
0000
0010
0001
0010
0100
,  // measure 18
0000
2000
0000
0000
3001
0010
0100
0001
,  // measure 19
0100
0000
1000
0000
0001
0000
1000
0100
,  // measure 20
0000
1000
0001
0010
0000
0010
0000
0001
,  // measure 21
1000
0000
0000
0000
0100
0000
0000
0000
1010
0000
0000
0000
1000
0001
1000
0001
,  // measure 22
0000
0000
1000
0000
0100
0000
1000
0000
0001
0000
0000
0000
1000
0010
1000
0010
,  // measure 23
0000
0100
0001
0010
0100
0000
1000
0000
,  // measure 24
0010
0000
0001
0010
0000
0100
0010
0000
,  // measure 25
1010
0000
0000
1001
0000
0000
0010
0000
0001
0000
0000
0000
1001
0000
0000
0000
,  // measure 26
1000
0010
0100
0001
1000
0000
0001
0000
,  // measure 27
0100
0001
0000
1000
0020
0000
0000
0200
,  // measure 28
0000
0000
0000
0000
0330
0000
0000
0000
0001
0000
1000
0010
0100
0000
0010
1000
,  // measure 29
0001
0100
0010
1000
0001
0000
0010
0000
0001
1000
0000
0001
0000
0000
0100
0000
,  // measure 30
1000
0100
0110
1000
0010
0101
0000
0100
,  // measure 31
0001
0100
0010
1000
0001
0010
0000
0000
,  // measure 32
0001
0000
1000
0000
0020
0000
0000
0000
0030
0000
0000
0000
0010
0000
0000
1000
,  // measure 33
0000
0010
1000
0000
0100
0001
0000
0100
,  // measure 34
0000
0020
0000
0030
0100
1000
0001
0100
,  // measure 35
0010
1000
0001
0010
0001
1000
0000
0001
,  // measure 36
0110
1000
0000
0000
0001
0000
1000
0010
,  // measure 37
0000
1000
0000
0000
0001
0000
0010
0000
,  // measure 38
1000
0000
0110
0100
1000
1010
0000
0100
,  // measure 39
0001
0010
0100
0010
0001
0100
0000
0000
,  // measure 40
0001
0000
0000
0000
0000
0000
0000
0000
1000
0000
0000
0000
0000
0000
0000
0000
0001
0000
0000
0000
0000
0000
0000
0000
1000
0000
0000
0000
0000
0010
0000
0000
,  // measure 41
0000
1000
0001
0000
1000
0010
0000
0001
,  // measure 42
0000
0010
0000
1000
1010
0000
0100
0011
,  // measure 43
0000
1000
0110
0000
0011
0000
0101
0000
,  // measure 44
1010
0000
0110
1000
0100
0000
1000
0001
,  // measure 45
0000
1000
0000
0000
0010
0000
0001
0000
,  // measure 46
0010
0000
1010
0100
0010
1100
0000
0010
,  // measure 47
0001
0101
0010
1000
0100
0001
0000
0100
,  // measure 48
1000
0000
0000
0000
0200
0000
0000
0000
0300
0000
0000
0000
0100
0000
0000
1000
,  // measure 49
0000
0010
0100
0000
0010
1000
0000
0010
,  // measure 50
0000
2000
0002
0003
0000
0020
0030
0000
,  // measure 51
3001
1000
0101
0000
1001
0000
1100
0000
,  // measure 52
0011
0000
0001
0100
1000
0100
1010
0000
,  // measure 53
1000
0100
0001
0100
1010
0000
1000
0010
,  // measure 54
1000
0100
0001
0100
0010
0001
0101
0000
,  // measure 55
1100
0000
1001
0000
0011
0000
1001
0001
,  // measure 56
1000
0001
0100
0010
0100
0001
0010
0100
,  // measure 57
0010
0001
1000
0010
0100
0001
1000
0001
,  // measure 58
0010
0001
0100
0010
0100
0001
1010
1000
,  // measure 59
0100
0011
0001
1000
0010
0100
1001
0100
,  // measure 60
1000
0001
0010
0001
0100
0001
0010
0100
,  // measure 61
1000
0001
1000
0010
0100
0010
1000
0100
,  // measure 62
0010
0001
1000
0100
1000
0010
0110
0000
,  // measure 63
1100
0000
1010
0000
0101
0000
0000
1000
,  // measure 64
1000
0000
0001
0001
0000
0010
0000
0010
,  // measure 65
0001
1000
0000
2002
0000
0000
0000
0000
,  // measure 66
0000
0000
0000
0000
,  // measure 67
0000
0000
0000
0000
,  // measure 68
0000
0000
0000
0000
,  // measure 69
3003
0000
0000
0000
;

//---------------dance-single - ----------------
#NOTEDATA:;
#CHARTNAME:ChiselEssiestudy ZSS-B;
#STEPSTYPE:dance-single;
#DESCRIPTION:;
#CHARTSTYLE:;
#DIFFICULTY:Beginner;
#METER:1;
#RADARVALUES:0.182670,0.301274,0.193183,0.000000,0.000000,139.000000,118.000000,21.000000,0.000000,0.000000,0.000000,0.000000,0.000000,0.000000,0.182670,0.301274,0.193183,0.000000,0.000000,139.000000,118.000000,21.000000,0.000000,0.000000,0.000000,0.000000,0.000000,0.000000;
#CREDIT:Chisel Essiestudy;
#NOTES:
0000
0000
0000
0000
,
0000
0000
0000
0000
,
0000
0000
0000
0000
,
0000
0000
0000
0000
,
0000
0000
0000
0000
,
0000
0000
1000
0000
,
0000
0000
1000
0000
,
0000
0000
0001
0000
,
0000
0000
1000
0000
,
0001
0000
0010
0000
,
0000
0000
0010
0000
,
0000
0000
0100
0000
,
0000
0000
0110
0000
,
0110
0000
1000
1000
,
0000
0000
0000
0000
,
0001
0000
1000
0000
,
0001
0000
1000
1000
,
1001
0000
0010
0010
,
0010
0100
0000
0000
,
0001
0000
1000
0000
,
0001
0000
1000
0001
,
1000
0000
0110
0000
,
0000
0000
1001
0000
,
0000
0000
1000
0000
,
0001
0000
1000
1000
,
1001
0000
0110
0000
,
0000
0100
0010
0000
,
0010
0010
0100
0000
,
0010
0000
0000
0000
,
0000
0000
0000
0000
,
0000
1000
1000
0001
,
0000
0010
0010
0100
,
0000
1000
0000
0001
,
0000
1000
0000
0001
,
0000
1001
0000
0000
,
0000
0010
0000
0010
,
0000
0100
0000
0000
,
0000
0010
0000
0010
,
0000
0110
0000
0000
,
0000
1001
0000
0000
,
0000
1000
0000
0001
,
0001
1000
0000
0001
,
0000
1001
0000
0000
,
0000
0010
0010
0010
,
0110
0100
0000
0010
,
0000
0100
0000
0010
,
0000
1000
1000
1000
,
0000
0001
0001
0001
,
0000
1000
0000
0001
,
0000
1000
1000
0001
,
0001
1001
0000
0000
,
0000
1001
0000
1001
,
0000
1000
1000
1000
,
0001
0001
0001
1000
,
1000
0001
0001
1001
,
0000
0110
0000
1001
,
0000
0000
0000
1000
,
0000
0000
0000
0001
,
0000
0000
0000
1000
,
0000
1000
0000
0010
,
0000
0000
0000
0100
,
0000
0000
0000
0010
,
0000
0000
0000
0100
,
0100
0010
0010
0000
,
1001
0000
1001
0000
,
1000
0001
1001
0000
;

//---------------dance-single - ----------------
#NOTEDATA:;
#CHARTNAME:ChiselEssiestudy ZSS-L;
#STEPSTYPE:dance-single;
#DESCRIPTION:;
#CHARTSTYLE:;
#DIFFICULTY:Easy;
#METER:3;
#RADARVALUES:0.291746,0.444322,0.220781,0.119590,0.004600,222.000000,198.000000,24.000000,13.000000,0.000000,0.000000,0.000000,0.000000,0.000000,0.291746,0.444322,0.220781,0.119590,0.004600,222.000000,198.000000,24.000000,13.000000,0.000000,0.000000,0.000000,0.000000,0.000000;
#CREDIT:Chisel Essiestudy;
#NOTES:
0000
0000
0000
0000
,
0000
0000
0000
0000
,
0000
0000
0000
0000
,
0000
0000
1000
0001
,
1000
0001
1000
0001
,
1000
0000
0000
0000
0001
0000
0000
0010
,
0000
0000
0100
0000
0100
0000
0000
0010
,
0000
0000
0001
0000
0001
0000
0000
1000
,
0000
0000
0010
0000
1001
0000
0000
0110
,
0000
0000
0000
0000
1000
0000
0000
0001
,
0000
0000
0100
0000
0100
0000
0000
0010
,
0000
0000
1000
0000
1000
0000
0000
0001
,
0000
0010
0110
0100
,
0110
0010
0001
0010
,
0000
0001
0000
0000
0000
0000
0100
0000
,
0001
0010
0001
1000
,
0000
0001
0000
1000
,
0010
1000
0001
0010
,
0001
1000
0000
0000
,
0001
0010
0100
1000
,
0000
0010
1000
0010
,
1000
0001
2002
3003
,
0000
0100
0202
0303
,
0000
1000
0010
1000
,
0100
0010
0001
2000
,
0000
3000
1001
0000
,
0000
1000
0100
1000
,
0001
0000
0000
0000
0010
0000
0000
0001
,
0000
0000
2002
0000
,
0000
0000
0000
0000
3003
0000
1000
0000
0001
0000
0000
1000
0000
0000
0001
0000
,
1000
0001
0010
0000
0010
0000
0001
0000
,
0000
1000
1000
0010
,
1000
0001
0000
0001
,
1000
0010
1000
0100
,
0010
0002
0000
0000
,
0003
1000
0001
1000
,
0100
1000
0001
1000
,
0000
0001
0000
0000
1000
0000
0010
0000
,
1000
0010
1000
0001
,
0000
0010
0001
1000
,
0001
0010
0000
0001
,
0010
0001
1000
0100
,
1000
0020
0000
0000
,
0030
1000
0100
0001
,
0010
1001
1000
0010
,
0000
0100
0000
0000
0010
0000
1000
0000
,
0100
1000
0010
0100
,
0010
1000
0001
0010
,
0001
2000
3000
0001
,
0010
0001
1000
0100
,
1000
0020
0000
0030
,
0010
0110
0110
1001
,
1001
1000
0100
0110
,
0100
1000
1001
1000
,
0001
0010
0001
0100
,
0001
1000
0010
1001
,
0000
1000
0000
0000
0100
0000
0100
0000
,
0000
1000
0000
0000
0010
0000
0010
0000
,
0000
1000
0000
0000
0001
0000
1001
0000
,
0000
0110
0000
0000
0110
0000
1000
0000
,
0000
0001
0000
0000
0100
0000
0100
0000
,
0000
0001
0000
0000
0010
0000
0010
0000
,
0000
0100
0000
0000
0010
0000
0011
0000
,
0101
0000
0011
0000
1010
0000
0000
1000
,
0000
0000
0100
0000
0000
1000
0000
0001
,
0000
0001
0000
2002
0000
0000
0000
0000
,
0000
0000
0000
0000
,
0000
0000
0000
0000
,
0000
0000
0000
0000
,
3003
0000
0000
0000
;

//---------------dance-single - ----------------
#NOTEDATA:;
#CHARTNAME:ChiselEssiestudy ZSS-S;
#STEPSTYPE:dance-single;
#DESCRIPTION:;
#CHARTSTYLE:;
#DIFFICULTY:Medium;
#METER:6;
#RADARVALUES:0.448133,0.549538,0.257578,0.303574,0.022998,341.000000,313.000000,28.000000,33.000000,0.000000,0.000000,0.000000,0.000000,0.000000,0.448133,0.549538,0.257578,0.303574,0.022998,341.000000,313.000000,28.000000,33.000000,0.000000,0.000000,0.000000,0.000000,0.000000;
#CREDIT:Chisel Essiestudy;
#NOTES:
0000
0000
0000
0000
,
0000
0000
0000
0000
,
0000
0000
0000
0000
,
0000
0000
0000
0000
1000
0001
1000
0001
,
0100
0010
0100
0010
1000
0001
0010
0100
,
1000
0001
0100
0010
1000
0000
1000
0100
,
0000
0100
1000
0010
0100
0000
0100
0010
,
0000
0010
0100
0001
0010
0000
0010
0001
,
0000
0001
0100
0010
0110
0000
0000
0101
,
0000
0000
1001
0000
0011
0000
0010
0001
,
0000
0001
0100
0010
1000
0000
1000
0001
,
0000
0001
1000
0001
0010
0000
0010
0001
,
0000
0001
1000
0001
0011
0000
0011
0000
,
1010
0000
1010
0000
0010
1000
0100
0020
,
0000
0130
0000
0000
1000
0000
1000
0001
,
0020
0000
0031
0000
1000
0000
0100
2000
,
0000
3000
0100
0010
0000
0100
1000
0001
,
0010
0001
1000
0000
0100
1000
0100
0020
,
0000
0130
0000
0000
0010
0000
0010
0100
,
0010
0000
0001
0000
1000
0000
0100
2000
,
0000
0000
3000
0001
0000
1000
0000
0001
,
0100
0000
0010
0000
1000
0000
0022
0033
,
0000
0001
0100
1000
0100
0000
2020
3030
,
0000
1000
0100
1000
0010
0000
0100
0000
,
0010
0000
1000
0001
0000
1000
0001
0000
,
0210
0000
0000
0010
0000
0000
0310
0000
2002
0000
0000
0000
3003
0000
0000
0000
,
0000
1000
0100
1000
0001
0000
1000
0000
,
0001
1000
0001
0000
0020
0000
0000
0200
,
0000
0000
0330
0000
1000
0001
0010
0001
,
1000
0000
0010
0000
2002
3003
1000
0000
0100
1000
0000
0100
0000
0000
1000
0000
,
0100
0010
0001
1000
0001
2000
0000
0000
,
3000
0000
0001
1000
0001
2000
0000
0000
,
3010
0000
0000
0000
1000
0000
0000
0000
0000
0000
0000
0000
0100
0000
0000
1000
,
0000
0010
0100
0000
0001
0000
0100
0010
,
0000
0200
0000
0000
0010
0000
0000
0000
,
0310
0000
1000
0100
1000
0100
0000
0001
,
0000
0100
0000
0000
1000
0000
0010
1000
,
0000
0010
0000
0000
1000
0000
0001
0000
,
0100
0000
0001
0010
0001
0020
0000
0000
,
0030
0000
0100
1000
0100
2000
0000
0000
,
3001
0000
1000
0000
0001
0000
1000
0010
,
0000
0010
1000
0000
0001
0100
0000
0001
,
0000
0020
0000
0100
0100
0000
0100
0100
,
0000
0130
0010
0000
0110
0000
1001
0000
,
0101
0000
1000
0000
0010
0000
0100
0010
,
0000
0100
0000
0000
0001
0000
0100
0000
,
0010
0000
1000
0100
1000
0020
0000
1030
,
0100
1000
0001
0100
0001
0020
0000
0031
,
0100
0000
0001
0000
0200
0000
0000
0000
0300
0000
0000
0000
0001
0000
0000
0010
,
0000
0001
1000
0000
0001
1000
0000
0001
,
0000
0020
0200
0000
0000
0000
0000
0000
,
0330
0110
1001
0110
,
0101
0000
0100
0001
0100
0001
0100
0000
,
0001
0010
0001
0010
0001
0000
1000
0010
,
1000
0010
0100
0001
0100
0001
0020
0000
,
0032
0203
2300
3010
,
0010
1000
0000
1000
0100
1000
0010
0000
,
0010
0100
0000
0100
0001
0010
0001
0000
,
0001
1000
0000
1000
0001
1000
0110
0000
,
0000
1001
0000
0000
1000
0000
1001
0000
,
1000
0001
0000
0001
0100
0001
0010
0000
,
0010
0001
0000
0001
1000
0001
0010
0000
,
0010
0100
0000
0100
1000
0000
1001
0000
,
0110
0000
1001
0000
1010
0000
0000
0010
,
1000
0000
0001
0010
0000
0001
0000
1000
,
0010
1000
0000
2020
0000
0000
0000
0000
,
0000
0000
0000
3030
0000
0000
0000
0000
;
