#TITLE:HELLO BITCHES;
#SUBTITLE:;
#ARTIST:CL;
#TITLETRANSLIT:;
#SUBTITLETRANSLIT:;
#ARTISTTRANSLIT:;
#CREDIT:;
#BANNER:;
#BACKGROUND:;
#LYRICSPATH:;
#CDTITLE:;
#MUSIC:[ROUND J] - HELLO BITCHES.ogg;
#OFFSET:-0.154;
#SAMPLESTART:100.030;
#SAMPLELENGTH:12.000;
#SELECTABLE:YES;
#BPMS:0.000=145.004,11.750=8.544,12.000=145.004;
#STOPS:;
#BGCHANGES:;

//---------------dance-single - ----------------
#NOTES:
     dance-single:
     :
     Beginner:
     1:
     0.079,0.146,0.099,0.000,0.030:
0000
0000
0000
0000
,
0000
0000
0000
0000
0000
0000
0000
0000
0000
0000
0000
0000
0000
0000
0000
000M
,
0000
M000
0000
000M
0000
0M00
0000
00M0
0000
0M00
0000
00M0
0000
0M00
0000
0000
,
0100
0000
0000
0000
,
0010
0000
0000
0000
,
1000
0000
0000
0000
,
0001
0000
0000
0000
,
0100
0000
0000
0000
,
0010
0000
0000
0000
,
1000
0000
0000
0000
,
0100
0000
0000
0000
,
1001
0000
0000
0000
,
0000
0000
0000
0000
,
0110
0000
0000
0000
,
0000
0000
0000
0000
,
1001
0000
0000
0000
,
0000
0000
0000
0000
,
0110
0000
0000
0000
,
0000
0000
0000
0000
,
0100
0000
0000
0000
,
0010
0000
0000
0000
,
1000
0000
0000
0000
,
0001
0000
0000
0000
,
0100
0000
0000
0000
,
0100
0000
0000
0000
,
0010
0000
0000
0000
,
0000
0000
0000
0000
,
0010
0000
0000
0000
,
0000
0000
0000
0000
,
1000
0000
0000
0000
,
0000
0000
0000
0000
,
0001
0000
0000
0000
,
0000
0000
0000
0000
,
0000
0000
0000
0000
,
0000
0000
0000
0000
,
0100
0000
0000
0000
,
0100
0000
0000
0000
,
0010
0000
0000
0000
,
0010
0000
0000
0000
,
1000
0000
0000
0000
,
1000
0000
0000
0000
,
0001
0000
0000
0000
,
0001
0000
0000
0000
,
1001
0000
0000
0000
,
0000
0000
0000
0000
,
0110
0000
0000
0000
,
0000
0000
0000
0000
,
1001
0000
0000
0000
,
0000
0000
0000
0000
,
0110
0000
0000
0000
,
0000
0000
0000
0000
,
0100
0000
0000
0000
,
0000
0000
0000
0000
,
0010
0000
0000
0000
,
0000
0000
0000
0000
,
1000
0000
0000
0000
,
0000
0000
0000
0000
,
0001
0000
0000
0000
,
0000
0000
0000
0000
,
0010
0000
0010
0000
,
0000
0000
0000
0000
,
0100
0000
0000
0000
,
0100
0000
0000
0000
,
0001
0000
0000
0000
,
0001
0000
0001
0000
,
0001
0000
0000
0000
,
0100
0000
0100
0000
,
01M0
0000
0M10
0000
,
01M0
0000
0110
0000
,
0110
0000
0000
0000
,
0000
0000
0000
0000
,
1001
0000
0000
0000
,
0000
0000
0000
0000
,
0110
0000
0000
0000
,
0000
0000
0000
0000
,
1001
0000
0000
0000
,
0001
0001
0001
0001
;

//---------------dance-single - ----------------
#NOTES:
     dance-single:
     :
     Hard:
     8:
     0.632,0.613,0.510,0.152,0.141:
0000
0000
0000
0000
,
0000
0000
0000
0000
0000
0000
0000
0000
0000
0000
0000
0000
0000
0000
0000
2000
,
0000
3200
0000
0320
0000
0032
0000
0203
0000
2300
0000
3200
0000
0302
0000
0003
,
0100
0000
0001
0000
1000
0001
0101
0000
,
1000
0000
0010
0000
0001
1000
1100
0000
,
2000
0000
3100
0000
0100
0010
1001
0000
,
0001
0001
0100
0100
0010
1010
1001
0000
,
0101
0000
0100
0010
1000
1000
1100
0000
,
1000
0010
1000
0001
0100
0100
0101
0000
,
0002
0000
0103
0000
1000
0001
1100
0000
,
2001
0000
0000
0001
0000
0000
0000
0000
0001
0000
0000
0001
3000
0000
0000
0000
,
0110
0000
1000
0100
0010
0010
0001
0100
,
0010
0010
1000
0100
0010
0010
0001
0100
,
0110
0000
1000
0100
0010
0010
0001
0100
,
0010
0010
1000
0100
0010
0010
0001
0100
,
0101
0000
0001
0100
0010
0010
1000
0100
,
0010
0010
0001
0100
0010
0100
0001
1000
,
1001
1000
0100
0010
0001
0100
0010
1000
,
0100
0000
0000
0010
0000
0000
0001
0000
0000
0001
0000
0000
0001
0000
0010
0000
0100
0000
1000
0000
0000
0000
0000
0000
,
1100
0000
0001
0100
0010
1000
1010
0000
,
1001
0001
1000
0100
0010
0001
0011
0000
,
0101
0001
0100
0001
1000
1000
1100
0000
,
0200
0000
0310
0100
1000
1000
1001
0000
,
1000
0100
0001
1000
0010
0002
0000
0003
,
0001
0010
1000
0001
0100
2000
0000
0100
,
3100
0001
0010
0100
0010
0001
0100
0010
,
1000
0100
0100
0010
0010
0002
0000
0003
,
0001
0100
1000
0100
0001
0000
0101
0000
,
0001
0010
1000
0010
0001
0001
0000
0000
,
0101
0000
1100
0000
0001
0001
1000
1000
,
0100
0100
0010
0010
0001
0011
0000
0000
,
1000
0000
0000
1100
0000
0000
0001
0000
0100
0000
0001
0100
0000
0000
0010
0000
,
0100
0000
0000
0101
0000
0000
0100
0000
0010
0000
0000
1010
0000
0000
0000
0000
,
1000
0000
0000
0100
0000
0000
0010
0000
0001
0000
0100
0010
0000
0000
1000
0000
,
0100
0000
0000
0000
0000
0000
0000
0000
0000
0010
0000
0000
0000
0000
0000
0000
0000
0000
0001
0000
0000
0000
0000
0000
0100
0000
0000
0000
0010
0000
0000
0000
1000
0000
0000
0000
0001
0000
0000
0000
0000
0000
1000
0000
0000
0000
0000
0000
,
0011
0000
1010
0000
1000
0001
0100
0000
,
0100
0100
0010
0010
1000
1010
1001
1000
,
0002
0000
0103
0000
0100
0010
1100
0000
,
1000
0100
0010
0001
2000
0100
3100
0000
,
0110
0000
1001
0001
0100
0100
0010
0000
,
0010
0010
1000
1000
0100
0001
0100
0000
,
1100
0000
0000
0000
0000
0000
0011
0000
0000
0000
0000
0000
0001
0000
0000
0100
0000
0000
0001
0000
0100
0000
0010
0000
,
2000
0000
0000
0100
0000
0000
0000
0000
0100
0000
0000
0100
0000
0000
3000
0000
,
1001
0000
0001
0100
0010
0010
1000
0100
,
0010
0010
0001
0100
0010
0010
1000
0000
,
1100
0000
1000
0100
0010
0001
0100
0010
,
1000
1000
0100
0010
0001
0001
0001
0000
,
0011
0000
0001
0010
0001
0100
0100
0010
,
1000
0100
0100
0010
0001
0100
0100
0000
,
0101
0001
1000
0010
0100
0001
0100
0010
,
1000
0000
0000
0001
0000
0000
1001
0000
0000
0000
0000
0000
0100
0000
0010
0000
1000
0000
0001
0000
0000
0000
0000
0000
,
1001
0000
0001
0100
0101
0000
1001
0000
,
1000
0100
1000
0001
0101
0100
0010
1000
,
1010
0000
1000
0100
0010
0001
0010
0100
,
0010
0001
0010
0100
1100
1000
0010
0100
,
0102
0000
0000
0000
0000
0000
0100
0000
0000
0000
0000
0000
0000
0000
0000
0003
0000
0000
0100
0000
0001
0000
0100
0000
,
0001
1000
0100
0010
0001
0000
0011
0000
,
1001
0000
0001
0100
0010
0010
1000
0100
,
0000
0100
0010
0100
1000
0100
1000
0100
,
1100
0000
1000
0001
0101
0000
0001
0100
,
0010
1000
0100
0010
0001
0010
0001
1000
,
0101
0100
0001
0100
0010
0010
1000
0100
,
0010
0100
1000
0001
0100
0001
1000
0001
,
2001
0000
0000
0000
0000
0000
0001
0000
0000
0000
0000
0000
0000
0000
0000
3000
0000
0000
0001
0000
1000
0000
0001
0000
,
1000
0100
0010
0001
0100
0010
0110
0000
,
0010
1000
0100
0001
0100
1000
0010
0100
,
0001
0010
0100
1000
0010
0100
0101
0000
,
1001
0000
0110
0000
,
1001
0000
0000
0000
0000
0000
0000
0000
0110
0000
0000
0110
0000
0000
0000
0000
,
1001
0000
1000
0100
0010
0001
0001
0010
,
0100
0000
1000
0000
1000
0000
0000
0000
1000
0010
1000
0000
0001
0000
0000
0000
,
0101
0000
0001
0100
0010
1000
1000
0010
,
0100
0000
0000
0000
0101
0000
0000
0000
0001
0100
0001
0000
1000
0000
0000
0000
,
1100
0000
1000
0100
0001
0100
1000
0010
,
0001
0000
0010
0000
1000
0000
0000
0000
1000
0010
0100
0000
0001
0000
0000
0000
,
0001
0010
1000
0010
0001
0100
1000
0100
,
0001
0000
0000
0010
0000
0000
0011
0000
0000
0000
0000
0000
0001
0000
0100
0000
0010
0000
1000
0000
0000
0000
0000
0000
;

//---------------dance-single - ----------------
#NOTES:
     dance-single:
     :
     Challenge:
     10:
     0.834,0.905,0.563,0.167,0.715:
0000
0000
0000
0000
,
0000
0000
0000
0000
0000
0000
0000
0000
0000
0000
0000
0000
0000
0000
0000
2000
,
0000
3200
0000
0320
0000
0032
0000
0203
0000
2300
0000
3200
0000
0302
0000
0003
,
0101
0000
0000
0000
0001
1000
0001
0000
1000
0000
0100
0000
1100
0000
0000
0000
,
1100
0000
1000
0000
0010
0100
0010
0100
0010
0000
1000
0000
0100
0010
0100
0010
,
0100
0000
0000
0000
0100
1000
0100
1000
0100
0000
0010
0000
0011
0000
0000
0000
,
0001
0000
0100
0000
0010
1000
0001
0000
0100
0000
0010
0000
0010
0100
0001
0100
,
0010
0000
0010
1000
0100
0010
0001
0000
0010
0000
0010
0000
0011
0000
0000
0000
,
0001
0000
0001
0000
0100
0010
0100
0010
1000
0000
1000
0000
1000
0100
0010
0000
,
0001
0000
0000
0100
0000
0000
0010
0000
0000
0100
0000
0000
0001
0000
0000
0000
0010
0000
0000
0000
0100
0000
0000
0000
1000
0000
0000
0100
0000
0000
1000
0000
0000
0100
0000
0000
1000
0000
0000
0000
0100
0000
0000
0000
1000
0000
0000
0000
,
0100
0000
0000
0010
0000
0000
0000
0000
0101
0000
0000
1100
0000
0000
0000
0000
,
1001
0000
0000
0000
1000
0000
0100
0000
0010
0001
0100
0000
0100
0001
0010
0000
,
0011
0000
0000
0000
0000
0000
0000
0000
0000
0000
0000
0000
1100
0000
0000
0000
0000
0000
0000
0000
0000
0000
0000
0000
1000
0000
0000
0001
0000
0000
1000
0000
0000
0000
0000
0000
0001
0000
1000
0000
0001
0000
1000
0000
0001
0000
1000
0000
,
0001
0000
0000
0000
0100
0000
0010
0000
1000
0001
1000
0000
0001
1000
0001
0000
,
0101
0000
0000
0000
0000
0000
0000
0000
0000
0000
0000
0000
1100
0000
0000
0000
0000
0000
1000
0000
0000
0000
0000
0000
0001
0000
0000
0010
0000
0000
0100
0000
0000
0000
0000
0000
1000
0000
0001
0000
1000
0000
0001
0000
1000
0000
0001
0000
,
1000
0000
0000
0000
0001
0000
0100
0000
0010
1000
0010
0000
0001
0100
0001
0000
,
0101
0000
0000
0000
0000
0000
0001
0000
0000
0000
0000
0000
1100
0000
0000
0000
0000
0000
0000
0000
0000
0000
0000
0000
1000
0000
0000
0010
0000
0000
1000
0000
0000
0000
0000
0000
0001
0000
0010
0000
0001
0000
0010
0000
0001
0000
0010
0000
,
0001
0011
1001
1010
1001
0101
1001
1100
,
1001
0000
0000
1000
0000
0000
0001
0000
0000
1000
0000
0000
0001
0000
1000
0000
0001
0000
2000
0000
0000
3000
0000
0000
,
0100
0000
0010
0000
0001
0010
0001
0010
0100
0000
1000
0000
1100
0000
0000
0000
,
1000
0000
0010
0000
0100
0001
0100
0010
0100
0000
0001
0000
1000
0100
1000
0100
,
1000
0000
0010
0000
0100
0001
0100
1000
0100
0000
0001
0000
0011
0000
0000
0000
,
1001
0000
0000
0000
1000
0100
1000
0000
1000
0000
0001
0000
0001
0100
0001
0000
,
0100
0000
0100
0000
0010
1000
0100
1000
0010
0000
2020
0000
0000
0000
3030
0000
,
1000
0000
0100
0000
0010
0001
0100
0010
1000
0000
1010
0000
1000
0010
0100
0001
,
0010
0000
0000
0001
0000
0000
0010
0000
0000
0001
0000
0000
0010
0000
0000
0000
0100
0000
0000
0000
1000
0000
0000
0000
0010
0000
0000
0100
0000
0000
0010
0000
0000
0100
0000
0000
0010
0000
0000
0000
0100
0000
0000
0000
0001
0000
0000
0000
,
2000
0000
0000
3100
0000
0000
0200
0000
0000
0310
0000
0000
0020
0000
0001
0030
0010
0000
0100
0000
0000
1000
0000
0000
,
1100
0001
0100
0001
0101
0001
1000
0010
,
1010
0000
1000
0000
0001
0000
0100
0000
0001
0000
0101
0000
0001
0100
0001
0100
,
0001
0000
0000
0000
1100
0000
1000
0000
0010
0000
0010
0000
0100
0001
0100
0000
,
0010
0000
1000
0000
0100
0000
0010
0000
0001
0000
0010
0000
0001
0010
0001
0010
,
0001
0000
0000
0100
0000
0000
0010
0000
1000
0000
0100
0010
0000
0000
0001
0000
,
0100
0000
0010
1000
0000
0000
0100
0000
0010
0000
0000
0022
0000
0000
0033
0000
,
0011
0000
0000
1001
0000
0000
1010
0000
1001
0000
0001
0100
0000
0100
0010
0000
,
1000
0010
1000
0000
0000
0000
0100
0000
0000
0100
0000
0000
0010
0000
0001
0000
0100
0000
0010
0000
0000
1000
0000
0000
,
1100
0000
1000
0000
0010
0100
0010
0100
0001
0000
0001
0000
0101
0000
0000
0000
,
0001
0000
0100
0000
0010
0100
0010
0100
0001
0000
1000
0000
0001
1000
0001
0100
,
0001
0000
0000
0000
1000
0100
1000
0100
0010
0000
0010
0000
0010
0000
0000
0000
,
0011
0000
0001
0000
0100
0010
1000
0010
0100
0000
0100
0000
0100
0010
0100
0001
,
0010
0000
0000
0000
0001
0010
0001
0010
0100
0000
1000
0000
0100
0000
0010
0000
,
0011
0000
0001
0000
0001
1000
0001
1000
0100
0000
0100
0000
0100
0010
0100
0010
,
0100
0000
0000
0000
1000
0000
0000
0000
0100
0000
0000
0000
0010
0000
0000
0000
0001
0000
0000
0000
0000
0000
0000
0000
0010
0000
0000
0001
0000
0000
0010
0000
0000
0001
0000
0000
0010
0000
0000
0000
0001
0000
0000
0000
0010
0000
0000
0000
,
0002
0000
0000
0000
0010
0003
0000
0000
0000
0000
0000
0000
0200
0000
0000
0000
1300
0000
0000
0000
0000
0000
0000
0000
,
0101
0000
0000
0000
0001
0000
0100
0000
0010
1000
0100
0000
0100
1000
0010
0000
,
1010
0000
0000
0000
0000
0000
1000
0000
0000
0000
0000
0000
1001
0000
0000
0000
0000
0000
0000
0000
0000
0000
0000
0000
0001
0000
0000
0100
0000
0000
0010
0000
0000
0000
0000
0000
1000
0000
0010
0000
1000
0000
0010
0000
1000
0000
0010
0000
,
1000
0000
0000
0000
1000
0000
0100
0000
0010
0001
0100
0000
0100
0001
0010
0000
,
0011
0000
0000
0000
0000
0000
0001
0000
0000
0000
0000
0000
1001
0000
0000
0000
0000
0000
0000
0000
0000
0000
0000
0000
1000
0000
0000
0100
0000
0000
0010
0000
0000
0000
0000
0000
0001
0000
0010
0000
0001
0000
0010
0000
0001
0000
0010
0000
,
0001
0000
0000
0000
0001
0000
0100
0000
0010
1000
0001
0000
0001
1000
0010
0000
,
1010
0000
0000
0000
0000
0000
1000
0000
0000
0000
0000
0000
1001
0000
0000
0000
0000
0000
0000
0000
0000
0000
0000
0000
0001
0000
0000
1000
0000
0000
0100
0000
0000
0000
0000
0000
1000
0000
0100
0000
1000
0000
0100
0000
1000
0000
0100
0000
,
1000
0100
0010
0001
0010
0100
1000
0100
,
0010
0000
0000
0001
0000
0000
1001
0000
0000
0000
0000
0000
0001
0000
0100
0000
0010
0000
0100
0000
0000
0000
0000
0000
,
1001
0000
0001
0100
0110
0000
1010
0000
,
1001
1000
0100
0010
0001
0100
1000
0100
,
0101
0000
0011
0000
1001
1000
0010
1000
,
0100
0010
0001
0100
0010
0100
0001
0010
,
0011
0000
0000
2002
0000
0000
0003
0000
0000
3001
1000
0001
,
1000
0100
0010
0100
1000
0010
1010
0000
,
1001
0000
0011
0000
1001
1000
0100
0010
,
0100
1000
0010
0100
0001
0010
0001
0100
,
0101
0000
0100
0010
1010
1000
0100
0010
,
0100
0000
0000
1000
0000
0000
0010
0000
0000
0100
0000
0000
0001
0000
0000
0010
0000
0000
0001
0010
0001
0010
0001
0010
,
0001
0010
0100
1000
0010
0010
0100
0001
,
0100
0000
0000
0010
0000
0000
1000
0000
0000
0100
0000
0000
0010
0000
0000
0001
0000
0000
0100
0001
0100
0001
0100
0001
,
0100
0000
0000
0010
0000
0000
2000
0000
0000
0100
0000
0000
0100
0000
0000
0100
0000
0000
3100
0000
1000
0000
0100
0000
,
1000
0000
0000
0010
0000
0000
0100
0000
0000
0001
0000
0000
0010
0000
0000
0010
0000
0000
0001
0100
0001
0100
0001
0100
,
0001
0000
1001
0000
0110
0010
1000
0100
,
0010
0100
1000
0010
0200
0000
0310
0000
,
MMMM
0000
MMMM
0000
,
MMMM
0000
0000
0000
0000
0000
0000
0000
0110
0000
0000
1001
0000
0000
0000
0000
,
0110
0000
0000
0000
0010
0000
1000
0000
0100
0010
0001
0000
0100
0010
1000
0000
,
0100
0000
0000
0000
0000
0000
0010
0000
0000
0000
0000
0000
0110
0000
0000
0000
0000
0000
0000
0000
0000
0000
0000
0000
0010
0000
0000
0001
0000
0000
1000
0000
0000
0000
0000
0000
0001
0000
1000
0000
0001
0000
1000
0000
0001
0000
1000
0000
,
0001
0000
0000
0000
0100
0000
0010
0000
1000
0100
0010
0000
0001
0100
0010
0000
,
1000
0000
0000
0000
0000
0000
0010
0000
0000
0000
0000
0000
1010
0000
0000
0000
0000
0000
0000
0000
0000
0000
0000
0000
1000
0000
0000
0010
0000
0000
0100
0000
0000
0000
0000
0000
0010
0000
0100
0000
0010
0000
0100
0000
0010
0000
0100
0000
,
0010
0000
0000
0000
1000
0000
0100
0000
0010
0001
0010
0000
0010
0100
0010
0000
,
0001
0000
0000
0000
0000
0000
0010
0000
0000
0000
0000
0000
0011
0000
0000
0000
0000
0000
0000
0000
0000
0000
0000
0000
0001
0000
0000
0100
0000
0000
0010
0000
0000
0000
0000
0000
0100
0000
0010
0000
0100
0000
0010
0000
0100
0000
0010
0000
,
0100
0100
0001
0001
1000
1000
0010
0010
,
0110
0000
0000
1001
0000
0000
1000
0010
0100
0001
0000
0000
;

//---------------dance-single - ----------------
#NOTES:
     dance-single:
     :
     Medium:
     6:
     0.450,0.496,0.213,0.114,0.076:
0000
0000
0000
0000
,
0000
0000
0000
0000
0000
0000
0000
0000
0000
0000
0000
0000
0000
0000
0000
2000
,
0000
0000
0000
0200
0000
0000
0000
0020
0000
0000
0000
0001
0000
3331
0000
0000
,
1001
0000
0001
0000
1000
1000
1000
0000
,
0100
0000
0010
0000
0001
0001
0001
0000
,
0100
0000
0010
0000
1000
1000
1000
0000
,
0100
0000
0010
0000
0001
0001
0001
0000
,
0100
0000
0010
0000
0100
0100
0100
0000
,
0010
0000
0100
0000
0010
0010
0010
0000
,
1000
0000
0100
0000
0010
0001
0001
0000
,
2002
0000
0000
3003
,
1001
0000
0001
0000
1000
0100
1000
0000
,
0001
0000
0001
0000
1000
0100
1000
0000
,
1001
0000
1000
0000
0001
0100
0001
0000
,
1000
0000
1000
0000
0001
0100
0001
0000
,
1001
0000
0001
0000
1000
0010
1000
0000
,
0001
0000
0001
0000
1000
0010
1000
0000
,
1001
0000
1000
0000
0001
0010
0001
0000
,
0100
0000
0000
0010
0000
0000
1000
0100
1000
0100
0000
0000
,
0010
0000
0001
0000
0100
0010
0100
0000
,
0010
0000
1000
0000
0100
0010
0100
0000
,
0010
0000
0001
0000
0010
0001
0010
0000
,
0001
0000
0100
0000
0010
1000
0010
0000
,
1000
0100
1000
0100
1000
0002
0000
0003
,
0100
0001
0100
0001
0100
0010
0000
0000
,
0010
1000
0100
0010
,
0001
0000
0100
0000
0010
0010
0000
0000
,
1010
0000
1000
0001
1000
0000
0001
0000
,
0011
0000
0001
1000
0001
0100
0000
0000
,
1010
0000
1000
0000
0001
1000
0001
1000
,
0001
0000
0100
0000
0010
0200
0000
0300
,
0001
0000
0000
0010
0000
0000
0100
0000
1000
0000
0000
0010
0000
0000
0100
0000
,
0001
0000
0000
0010
0000
0000
0100
0000
1000
0000
0000
0010
0000
0000
0000
0000
,
0100
0000
0000
0001
0000
0000
0010
0000
0100
0000
0000
1000
0000
0000
0010
0000
,
0100
0000
0000
0001
0000
0000
0010
0000
0100
0000
0000
1000
0000
0000
0000
0000
,
0100
0000
0010
0000
0001
0100
0100
0000
,
0010
0000
1000
0000
0100
0010
0010
0001
,
0010
0000
0100
0000
1000
1000
1000
0000
,
0010
0000
0100
0000
0001
0010
0010
0000
,
0001
0000
0100
0000
0010
1000
0010
0000
,
1000
0000
0100
0000
0010
0010
0010
0000
,
0001
0000
0100
0000
0010
0010
0010
0000
,
0220
0000
0000
0330
,
0110
0000
0100
0000
0010
1000
0010
0000
,
1000
0001
1000
0000
1000
0100
1000
0000
,
1100
0000
1000
0000
0001
0010
0001
0000
,
0001
1000
0001
0000
0001
0100
0001
0000
,
0101
0000
0001
0000
0100
0010
0100
0000
,
0010
1000
0010
0000
1000
0001
1000
0000
,
0101
0000
0100
0000
0010
1000
0001
0000
,
0100
0000
0000
0010
0000
0000
1000
0001
1000
0001
0000
0000
,
0101
0100
0010
0000
,
0010
0000
1000
0000
0100
0010
0100
0010
,
0100
0000
1000
0000
0010
0000
0100
0001
,
0000
1000
0001
0000
0011
0000
0000
0000
,
1002
1000
0000
0003
,
1000
0001
0010
0001
,
0011
0000
0001
0000
1000
0010
1000
0010
,
0000
0010
0100
0000
0001
0000
0001
0000
,
0011
0000
0001
0000
1000
0001
1000
0000
,
0010
0100
0010
0000
1000
0001
1000
0000
,
1100
0000
1000
0000
0010
0000
1000
0010
,
0000
1000
0001
0000
1100
0000
0010
0000
,
0002
0200
0000
0303
,
0100
0000
0010
0000
1000
0010
0100
0000
,
0101
0000
0001
0000
0010
0000
0100
0010
,
0000
0001
0010
0000
0100
0001
0100
0000
,
0002
0000
0200
0000
,
0020
0000
0000
0000
0000
0000
0000
0000
1000
0000
0000
1000
0000
0000
0000
0000
,
M333
0000
0100
0000
0010
0100
0010
0100
,
0010
0100
0001
0100
0001
0100
0001
0000
,
1001
0000
0001
0100
0001
0100
0001
0100
,
0010
0100
0010
0100
0010
0100
0010
0000
,
1010
0000
1000
0010
1000
0010
1000
0100
,
1000
0100
0010
0001
1000
0100
0010
0000
,
0011
0000
0001
0000
1001
0110
1001
0000
,
0001
0000
0000
0100
0000
0000
0001
0100
0001
0100
0000
0000
;

//---------------dance-single - ----------------
#NOTES:
     dance-single:
     :
     Easy:
     4:
     0.335,0.350,0.099,0.076,0.053:
0000
0000
0000
0000
,
0000
0000
0000
0000
0000
0000
0000
0000
0000
0000
0000
0000
0000
0000
0000
1000
,
0000
0001
0000
1000
0000
0001
0000
1000
0000
0001
0000
1000
0000
0001
0000
0000
,
1000
0100
0010
0010
,
0001
0100
0010
0010
,
1000
0100
0010
0010
,
0001
0100
0010
0010
,
1000
0010
0100
0100
,
0001
0010
0100
0100
,
1000
0010
0100
0100
,
0001
0000
0000
0001
0000
0000
0000
0000
1000
0000
0000
1000
0000
0000
0000
0000
,
0100
0010
0100
0010
,
0001
0001
1000
0001
,
0001
0100
0010
0100
,
0001
0001
1000
0001
,
0100
0100
0010
0100
,
0010
0010
1000
0010
,
0100
0001
0100
0001
,
0001
1000
1100
0101
,
0001
0100
0010
1000
,
0100
0010
0001
0100
,
0010
1000
0100
0010
,
0001
0100
0010
1000
,
0100
0000
0010
0000
0001
0002
0000
0000
,
0103
0000
0010
0000
1000
2000
0000
3100
,
0100
0010
0001
0010
,
0100
0000
1000
0000
0001
0002
0000
0003
,
0100
0010
0110
0010
,
1000
0000
0001
0000
1000
0001
0000
0000
,
0001
0000
0100
0000
0010
0010
0010
0000
,
1000
0000
0100
0000
0010
0001
0000
0000
,
0101
0000
0000
0001
0100
0000
0000
0001
,
1000
0000
0000
0000
0000
0000
0001
0000
0010
0000
0000
0010
0000
0000
0000
0000
,
0002
0000
0000
0000
,
1000
0000
0100
0103
,
0100
0010
1000
1000
,
0001
0100
0010
0010
,
1000
0100
0010
0010
,
0001
0100
0010
0010
,
1000
0100
0010
0010
,
0001
0100
0010
0010
,
1000
0100
0010
0010
,
0001
0000
0000
0001
0000
0000
0000
0000
1000
0000
0000
1000
0000
0000
0000
0000
,
MMMM
1000
0001
1000
,
0001
1000
0100
0010
,
MMMM
0001
0100
0010
,
0100
0001
0001
0010
,
MMMM
0001
0010
0100
,
1000
0010
0100
0001
,
MMMM
0001
0010
0100
,
1000
0010
1010
0011
,
MMMM
0002
0200
0303
,
0100
0010
2000
0000
,
3000
0000
0010
0000
0100
0000
0001
0010
,
0000
0001
1000
0000
0002
0000
0000
0000
,
0103
0200
0000
0300
,
0010
0100
0010
0100
,
MMMM
0000
0100
0000
0001
0000
1000
0100
,
0000
1000
0001
0000
1000
0000
0100
0000
,
MMMM
0010
0001
0100
,
0110
0010
1000
0100
,
0110
0010
0001
0010
,
0100
1000
0010
0100
,
0120
0100
0000
0030
,
0100
0001
0100
0010
,
MMMM
0100
0001
0010
,
0100
1000
0010
0100
,
0001
MMMM
0100
MMMM
,
0010
0000
0000
0000
MMMM
0000
0000
0000
1000
0000
0000
1000
0000
0000
0000
0000
,
1100
0001
0100
0010
,
1000
0100
0010
0001
,
0101
1000
0100
0010
,
0001
0100
0010
1000
,
1010
1000
0001
0010
,
0100
1000
0010
0100
,
0011
0001
0100
0010
,
1000
0100
0010
0001
;

//---------------dance-double - ----------------
#NOTES:
     dance-double:
     :
     Hard:
     8:
     0.641,0.701,0.586,0.114,0.152:
00000000
00000000
00000000
00000000
,
00000000
00000000
00000000
00000000
00000000
00000000
00000000
00000000
00000000
00000000
00000000
00000000
00000000
00000000
00000000
20000000
,
00000000
32000000
00000000
03020000
00000000
00032000
00000000
00003200
00000000
00000302
00000000
00000203
00000000
00002300
00000000
00003000
,
00011000
00000000
00100000
00010000
01000000
00100000
01100000
00000000
,
10100000
00000000
10000000
01000000
00100000
00001000
00011000
00000000
,
00010100
00000000
00000100
00001000
00000010
00000100
00000110
00000000
,
00000101
00000000
00000001
00000010
00001000
00010000
00011000
00000000
,
00101000
00000000
00100000
00010000
01000000
00100000
10100000
00000000
,
10000000
01000000
00010000
01000000
10000000
00100000
10100000
00000000
,
10010000
00000000
01000000
00001000
00010000
00000100
00001100
00000000
,
00001010
00000000
00000000
00001001
00000000
00000000
00000000
00000000
00000011
00000000
00000000
00001001
00000000
00000000
00000000
00000000
,
00000110
00000000
00000010
00001000
00000100
00000100
00010000
00001000
,
00100000
00000000
00100000
00000000
00010000
00000000
01000000
00000000
00100000
10000000
00100000
00000000
10000000
00000000
00010000
00000000
,
01010000
00000000
01000000
00001000
00010000
00010000
00000100
00001000
,
00000010
00000000
00000010
00000000
00000100
00000000
00000001
00000000
00000010
00000001
00000100
00000000
00000010
00000000
00001000
00000000
,
00001010
00000000
00000010
00010000
00001000
00001000
00100000
00010000
,
01000000
00000000
01000000
00000000
00100000
00000000
10000000
00000000
01000000
00100000
01000000
00000000
10000000
00000000
00100000
00000000
,
10100000
10000000
00100000
01000000
00010000
00100000
00001000
00010000
,
00000100
00000000
00000000
00000100
00000000
00000000
00001000
00000000
00000000
00001000
00000000
00000000
00000010
00000000
00000100
00000000
00000001
00000000
00001000
00000000
00000000
00000000
00000000
00000000
,
00001001
00000000
00000001
00000100
00000010
00001000
00001100
00000000
,
00000100
00010000
00001000
00100000
00010000
01000000
01100000
00000000
,
00100000
10000000
01000000
00010000
00001000
00000100
00001100
00000000
,
00000200
00000000
00000301
00000100
00001000
00010000
00011000
00000000
,
10000000
00100000
00010000
10000000
01000000
00020000
00000000
00030000
,
00001000
00000100
00000001
00001000
00000010
00000001
00000000
00000001
,
00000010
00001000
00000100
00000010
00000001
00000100
00000010
00001000
,
00000100
00001000
00010000
00100000
00010000
00020000
00000000
00030000
,
00011000
00001000
00100000
00010000
01000000
00000000
01000000
00000000
,
00100000
10000000
01000000
00010000
00100000
00010000
00000000
00000000
,
00101000
00000000
00011000
00000000
00010000
00010000
00000100
00000100
,
00001000
00001000
00000010
00000010
00000100
00000110
00000000
00000000
,
00000101
00000000
00000000
00000001
00000000
00000000
00000010
00000000
00000100
00000000
00001000
00000100
00000000
00000000
00000010
00000000
,
00000001
00000000
00000000
00000100
00000000
00000000
00000010
00000000
00001000
00000000
00000000
00001100
00000000
00000000
00000000
00000000
,
00000001
00000000
00000000
00000100
00000000
00000000
00001000
00000000
00010000
00000000
01000000
10000000
00000000
00000000
00100000
00000000
,
00010000
00000000
00000000
00001000
00000000
00000000
00000100
00000000
00000001
00000000
00000000
00000010
00000000
00000000
00000000
00000000
,
00000101
00000000
00000100
00000010
00001000
00000100
00001100
00000000
,
00000100
00010000
00100000
00010000
00000100
00000100
00001000
00000010
,
00000110
00000000
00000010
00001000
00000100
00000100
00000100
00000000
,
00000100
00010000
00001000
00100000
00010000
00010000
00010000
00000000
,
01100000
00000000
10000000
01000000
00010000
00010000
00010000
00000000
,
00001000
00000100
00001000
00000001
00001001
00001100
00001100
00000000
,
00001100
00000000
00010100
00000000
00011000
00001000
00100000
00000000
,
00100000
00000000
00000000
00010000
00000000
00000000
00000000
00000000
00001000
00000000
00000000
00000010
00000000
00000000
00000000
00000000
,
00000011
00000000
00000001
00000100
00000010
00001000
00000100
00010000
,
00001000
00000000
00100000
00000000
00010000
00000000
00100000
00000000
00010000
01000000
00010000
00000000
01000000
00000000
00000000
00000000
,
10100000
00000000
10000000
01000000
00100000
00001000
00100000
00010000
,
00001000
00000000
00000100
00000000
00000001
00000000
00000100
00000000
00000001
00000100
00000001
00000000
00000100
00000000
00000000
00000000
,
00011000
00000000
00001000
00100000
00010000
01000000
00100000
10000000
,
01000000
00000000
00100000
00000000
00010000
00000000
00100000
00000000
00001000
00010000
00001000
00000000
00010000
00000000
00000000
00000000
,
00011000
00010000
00000100
00001000
00000010
00000100
00000001
00000010
,
00000100
00000000
00000000
00001000
00000000
00000000
00001100
00000000
00000000
00000000
00000000
00000000
00000100
00000000
00010000
00000000
00001000
00000000
00010000
00000000
00000000
00000000
00000000
00000000
,
00011000
00000000
00001000
00100000
00110000
00000000
00010000
00000000
,
00010000
01000000
00100000
10000000
01000000
00100000
00010000
01000000
,
01010000
00000000
00011000
00000000
00001100
00000100
00001000
00000010
,
00000100
00000001
00000010
00001000
00000010
00000001
00000100
00001000
,
00001100
00000000
00000000
00000202
00000000
00000000
00000000
00000000
00000303
00000001
00000100
00000001
,
00000100
00001000
00010000
00100000
10000000
01000000
00100000
00000000
,
00101000
00000000
00011000
00000000
00010100
00000100
00001000
00000010
,
00000100
00000001
00000010
00000100
00001000
00000100
00010000
00001000
,
00101000
00000000
00001000
00100000
00110000
00000000
00010000
00000000
,
01000000
00100000
10000000
00100000
01000000
00010000
00100000
00001000
,
00011000
00000000
00010100
00000000
00000100
00001000
00000100
00000010
,
00000001
00000100
00000010
00001000
00000100
00001000
00010000
00001000
,
00001100
00000000
00000000
00000000
00000000
00000000
00022000
00000000
00000000
00000000
00000000
00000000
00000000
00000000
00000000
00033000
00000000
00000000
00010000
00000000
00001000
00000000
00010000
00000000
,
00001000
00100000
00010000
01000000
00100000
10000000
01000000
00000000
,
01100000
00000000
00101000
00000000
00010000
00010000
00000100
00001000
,
00001000
00000010
00000100
00000001
00000010
00000100
00001100
00000000
,
00001001
00000000
00011000
00000000
,
10010000
00000000
00000000
00000000
00000000
00000000
00000000
00000000
00011000
00000000
00000000
00011000
00000000
00000000
00000000
00000000
,
00011000
00000000
00001000
00100000
00010000
00010000
01000000
00100000
,
10000000
00000000
10000000
00000000
01000000
00000000
00100000
00000000
00001000
00010000
00001000
00000000
00010000
00000000
00000000
00000000
,
00011000
00000000
00000100
00001000
00000010
00000010
00000100
00000001
,
00000010
00000000
00000010
00000000
00000100
00000000
00001000
00000000
00000100
00010000
00000100
00000000
00001000
00000000
00000000
00000000
,
00001100
00000000
00000100
00010000
00001000
00100000
00010000
01000000
,
10000000
00000000
01000000
00000000
00010000
00000000
00100000
00000000
00001000
00010000
00001000
00000000
00011000
00000000
00000000
00000000
,
00011000
00000100
00001000
00000010
00000100
00000001
00000010
00000100
,
00001000
00000000
00000000
00011000
00000000
00000000
00001000
00010000
00001000
00010000
00000000
00000000
;

//---------------dance-double - ----------------
#NOTES:
     dance-double:
     :
     Challenge:
     10:
     0.800,0.847,0.563,0.091,0.654:
00000000
00000000
00000000
00000000
,
00000000
00000000
00000000
00000000
00000000
00000000
00000000
00000000
00000000
00000000
00000000
00000000
00000000
00000000
00000000
20000000
,
00000000
32000000
00000000
03020000
00000000
00032000
00000000
00003200
00000000
00000302
00000000
00000203
00000000
00002300
00000000
00003000
,
00011000
00000000
00000000
00000000
00001000
00000000
00100000
00000000
00010000
01000000
00010000
01000000
00010000
00000000
00000000
00000000
,
00001000
00000000
00000100
00000000
00000001
00000000
00000010
00000000
00000001
00000100
00000001
00000100
00000001
00000000
00000010
00000000
,
00000110
00000000
00001000
00000000
00000100
00001000
00010000
00000000
00100000
00010000
00100000
00010000
00100000
00000000
00000000
00000000
,
10000000
00000000
01000000
00000000
00100000
00001000
00010000
00000000
00000100
00001000
00000100
00001000
00000100
00000000
00000000
00000000
,
00001100
00000000
00000000
00000000
00000100
00000010
00000100
00000000
00001000
00000100
00001000
00000100
00001000
00000000
00000000
00000000
,
00010000
00001000
00010000
00000000
00001000
00010000
00001000
00000000
00010000
00001000
00010000
00001000
00010000
00000000
00000000
00000000
,
00011000
00000000
00000000
00000000
00001000
00000000
00000000
00000000
00100000
00000000
00000000
00000000
00010000
00000000
00000000
00000000
00000000
00000000
00000000
00000000
00000000
00000000
00000000
00000000
00010000
00000000
00000000
01000000
00000000
00000000
00010000
00000000
00000000
01000000
00000000
00000000
00010000
00000000
00000000
00000000
00100000
00000000
00000000
00000000
00001000
00000000
00000000
00000000
,
00020000
00000000
00000000
00030100
00000000
00000000
00000000
00000000
00002000
00000000
00000000
01003000
00000000
00000000
00000000
00000000
,
01010000
00000000
00000000
00000000
00010000
00000000
01000000
00000000
00100000
10000000
01000000
00000000
00100000
00001000
00010000
00000000
,
00011000
00000000
00000000
00000000
00000000
00000000
00000000
00000000
00000000
00000000
00000000
00000000
00001100
00000000
00000000
00000000
00000000
00000000
00000000
00000000
00000000
00000000
00000000
00000000
00001000
00000000
00000000
00000010
00000000
00000000
00000100
00000000
00000000
00000000
00000000
00000000
00000001
00000000
00001000
00000000
00000001
00000000
00001000
00000000
00000001
00000000
00001000
00000000
,
00000001
00000000
00000000
00000000
00000001
00000000
00000100
00000000
00000010
00001000
00000100
00000000
00000100
00010000
00001000
00000000
,
00011000
00000000
00000000
00000000
00000000
00000000
00000000
00000000
00000000
00000000
00000000
00000000
00110000
00000000
00000000
00000000
00000000
00000000
00000000
00000000
00000000
00000000
00000000
00000000
00010000
00000000
00000000
01000000
00000000
00000000
00100000
00000000
00000000
00000000
00000000
00000000
10000000
00000000
00010000
00000000
10000000
00000000
00010000
00000000
10000000
00000000
00010000
00000000
,
10000000
00000000
00000000
00000000
01000000
00000000
00100000
00000000
00001000
00010000
00000100
00000000
00001000
00000010
00000100
00000000
,
00000001
00000000
00000000
00000000
00000000
00000000
00000000
00000000
00000000
00000000
00000000
00000000
00001100
00000000
00000000
00000000
00000000
00000000
00000000
00000000
00000000
00000000
00000000
00000000
00000010
00000000
00000000
00000100
00000000
00000000
00001000
00000000
00000000
00000000
00000000
00000000
00001000
00000000
00010000
00000000
00001000
00000000
00010000
00000000
00001000
00000000
00010000
00000000
,
00001000
00011000
00101000
00011000
00010010
00011000
00101000
00011000
,
00010010
00000000
00000000
00000010
00000000
00000000
00010000
00000000
00000000
00001000
00000000
00000000
00010000
00000000
00001000
00000000
00010000
00000000
00001000
00000000
00000000
00000000
00000000
00000000
,
00110000
00000000
00010000
00000000
01000000
00100000
10000000
00100000
01000000
00000000
00010000
00000000
00110000
00000000
00000000
00000000
,
00100000
00000000
00001000
00000000
00010000
00000100
00010000
00001000
00010000
00000000
00000100
00000000
00001100
00000000
00000000
00000000
,
00001000
00000000
00000010
00000000
00000100
00000001
00000100
00000010
00000100
00000000
00000001
00000000
00000101
00000000
00000000
00000000
,
00000001
00000000
00000010
00000000
00001000
00000100
00001000
00000001
00001000
00000000
00000100
00000000
00010100
00000000
00000000
00000000
,
00010000
00001000
00100000
00010000
01000000
01010000
00000000
00000000
,
00010000
10000000
01000000
00100000
00001000
00101000
00000000
00010000
,
00010100
00000100
00001000
00000010
00001010
00000010
00000100
00000001
,
00000101
00000000
00000000
00000100
00000000
00000000
00000010
00000000
00000000
00001000
00000000
00000000
00000100
00000000
00001000
00000000
00010000
00000000
00100000
00000000
00000000
00100000
00000000
00000000
,
10100000
10000000
01000000
00010000
01000000
10000000
01000000
00010000
,
00001000
00000000
00000000
00000100
00000000
00000000
00000001
00000000
00000000
00000100
00000000
00000000
00011000
00000000
00000000
00011000
00000000
00000000
00001000
00010000
00001000
00010000
00001000
00010000
,
00001000
00010000
00100000
10000000
00100000
00010000
00001000
00000010
,
00000001
00000000
00000000
00000010
00000000
00000000
00001000
00000000
00000000
00010000
00000000
00000000
00011000
00000000
00000000
00011000
00000000
00000000
00010000
00001000
00010000
00001000
00010000
00001000
,
00010000
00000000
00000000
00010100
00000000
00000000
00001100
00000000
00001100
00000000
00000000
00001001
00000000
00000000
00000101
00000000
,
00000101
00000000
00000000
00001001
00000000
00000000
00001010
00000000
00001100
00000000
00000000
00011000
00000000
00000000
00000000
00000000
,
00001000
00000000
00000000
00010000
00000000
00000000
00100000
00000000
10000000
00000000
00000000
01000000
00000000
00000000
00010000
00000000
,
00001000
00010000
00001000
00010000
00000000
00000000
00000100
00000000
00000000
00000010
00000000
00000000
00000001
00000000
00000100
00000000
00001000
00000000
00000100
00000000
00000000
00000001
00000000
00000000
,
00000101
00000000
00000000
00000000
00000001
00000000
00000100
00000000
00000010
00001000
00000010
00001000
00000010
00000000
00000000
00000000
,
00010100
00000000
00000100
00000000
00010000
00000000
00001000
00000000
00100000
00010000
00100000
00010000
00100000
00000000
01000000
00000000
,
01100000
00000000
00000000
00000000
01000000
10000000
01000000
00000000
01000000
00010000
01000000
00010000
01000000
00000000
00000000
00000000
,
00010000
00000000
00000000
00000000
00000000
00000000
00001000
00000000
00000000
00000000
00000000
00000000
00000100
00000000
00000000
00001000
00000000
00000000
00000100
00000000
00000000
00000000
00000000
00000000
00000100
00000000
00000000
00000001
00000000
00000000
00000100
00000000
00000000
00000001
00000000
00000000
00000100
00000000
00000000
00000000
00001000
00000000
00000000
00000000
00010000
00000000
00000000
00000000
,
00011000
00000000
00000000
00000000
00001000
00010000
00001000
00000000
00010000
00001000
00010000
00001000
00010000
00000000
00000000
00000000
,
00001000
00010000
00000010
00000000
00001000
00100000
00010000
00000000
01000000
00000000
00100000
00000000
10000000
00000000
10100000
00000000
,
10000000
00000000
00000000
00000000
01000000
00000000
00000000
00000000
00010000
00000000
00000000
00000000
00001000
00000000
00000000
00000000
00000100
00000000
00000000
00000000
00000001
00000000
00000000
00000000
00000100
00000000
00000000
00001000
00000000
00000000
00000100
00000000
00000000
00001000
00000000
00000000
00000100
00000000
00000000
00000000
00000000
00000000
00000000
00000000
00000000
00000000
00000000
00000000
,
00001100
00000000
00000000
00011000
00000000
00000000
00000000
00000000
00110000
00000000
00000000
00011000
00000000
00000000
00000000
00000000
,
00011000
00000000
00000000
00000000
00100000
00000000
00010000
00000000
00010000
01000000
10000000
00000000
10000000
01000000
00010000
00000000
,
00110000
00000000
00000000
00000000
00000000
00000000
00000000
00000000
00000000
00000000
00000000
00000000
00011000
00000000
00000000
00000000
00000000
00000000
00000000
00000000
00000000
00000000
00000000
00000000
00001000
00000000
00000000
00000010
00000000
00000000
00001000
00000000
00000000
00000000
00000000
00000000
00000001
00000000
00001000
00000000
00000001
00000000
00001000
00000000
00000001
00000000
00001000
00000000
,
00000001
00000000
00000100
00000000
00000010
00000000
00000110
00000000
00001000
00000100
00000001
00000000
00000001
00000100
00001000
00000000
,
00000100
00000000
00000000
00000000
00000000
00000000
00010000
00000000
00000000
00000000
00000000
00000000
00011000
00000000
00000000
00000000
00000000
00000000
00000000
00000000
00000000
00000000
00000000
00000000
00001000
00000000
00000000
00010000
00000000
00000000
00001000
00000000
00000000
00000000
00000000
00000000
00010000
00000000
00001000
00000000
00010000
00000000
00001000
00000000
00010000
00000000
00001000
00000000
,
00010000
00000000
00000000
00000000
00001000
00000000
00010000
00000000
00010000
00001000
00010000
00000000
00001000
00010000
00001000
00000000
,
00011000
00000000
00000000
00000000
00000000
00000000
00000000
00000000
00000000
00000000
00000000
00000000
00110000
00000000
00000000
00000000
00000000
00000000
00000000
00000000
00000000
00000000
00000000
00000000
00010000
00000000
00000000
01000000
00000000
00000000
00100000
00000000
00000000
00000000
00000000
00000000
01000000
00000000
00010000
00000000
01000000
00000000
00010000
00000000
01000000
00000000
00010000
00000000
,
01000000
00010000
00100000
00001000
00010000
00000100
00010000
00001000
,
00011000
00000000
00000000
00001000
00000000
00000000
00101000
00000000
00000000
00000000
00000000
00000000
00010000
00000000
00000100
00000000
00010000
00000000
00001000
00000000
00000000
00000000
00000000
00000000
,
00011000
00000000
00010000
00100000
10000000
01000000
00010000
00000000
,
00001000
00000010
00000001
00000100
00001000
00000100
00000001
00000010
,
00000011
00000000
00001001
00000000
00001100
00000100
00010000
00011000
,
00100000
00010000
01000000
00100000
10100000
10000000
01000000
00010000
,
00021000
00000000
00000000
00000000
00000000
00000000
00001000
00000000
00000000
00000000
00000000
00000000
00000000
00000000
00000000
00030000
00000000
00000000
00001000
00000000
00010000
00000000
00001000
00000000
,
00000100
00000001
00000100
00001000
00010000
00001000
00010000
00001000
,
00011000
00000000
00001000
00000000
00100000
00010000
01000000
00100000
,
10000000
01000000
00100000
00001000
00010000
00000100
00000010
00000001
,
00000101
00000001
00000100
00000010
00001000
00000100
00010000
00001000
,
00100000
00000000
00000000
00010000
00000000
00000000
01000000
00000000
00000000
00100000
00000000
00000000
10000000
00000000
00000000
01000000
00000000
00000000
00100000
00010000
00100000
00010000
00100000
00010000
,
00100000
00001000
00010000
00000100
00001000
00000010
00000100
00000001
,
00000010
00000000
00000000
00000100
00000000
00000000
00001000
00000000
00000000
00000100
00000000
00000000
00000010
00000000
00000000
00000001
00000000
00000000
00000100
00000010
00000100
00000010
00000100
00000010
,
00000100
00000000
00000000
00000001
00000000
00000000
00000200
00000000
00000000
00000000
00000000
00000000
00000000
00000000
00000000
00000300
00000000
00000000
00001000
00000000
00010000
00000000
00100000
00000000
,
10000000
00000000
00000000
01000000
00000000
00000000
00100000
00000000
00000000
00001000
00000000
00000000
00010000
00000000
00000000
00000100
00000000
00000000
00001000
00000100
00001000
00000100
00001000
00000100
,
00001000
00000010
00000100
00000001
00000010
00000100
00001000
00000100
,
00010000
00001000
00100000
00010000
01000000
10000000
01000000
00010000
,
MMMMMMMM
00000000
MMMMMMMM
00000000
,
MMMMMMMM
00000000
00000000
00000000
00000000
00000000
00000000
00000000
00011000
00000000
00000000
00011000
00000000
00000000
00000000
00000000
,
10010000
00000000
00000000
00000000
10000000
00000000
01000000
00000000
10000000
00100000
00010000
00000000
00001000
00000010
00000001
00000000
,
00000010
00000000
00000000
00000000
00000000
00000000
00001000
00000000
00000000
00000000
00000000
00000000
00000100
00000000
00000000
00000000
00000000
00000000
00010000
00000000
00000000
00000000
00000000
00000000
00001000
00000000
00000000
00010000
00000000
00000000
00001000
00000000
00000000
00000000
00000000
00000000
00010000
00000000
00001000
00000000
00010000
00000000
00001000
00000000
00010000
00000000
00001000
00000000
,
00010000
00000000
00000000
00000000
00010000
00000000
00100000
00000000
10000000
01000000
00010000
00000000
00001000
00000100
00000001
00000000
,
00000100
00000000
00000000
00000000
00000000
00000000
00001000
00000000
00000000
00000000
00000000
00000000
00010000
00000000
00000000
00000000
00000000
00000000
00000000
00000000
00000000
00000000
00000000
00000000
00001000
00000000
00000000
00010000
00000000
00000000
00001000
00000000
00000000
00000000
00000000
00000000
00010000
00000000
00001000
00000000
00010000
00000000
00001000
00000000
00010000
00000000
00001000
00000000
,
00010000
00000000
00000000
00000000
00001000
00000000
00000010
00000000
00000001
00000100
00001000
00000000
00010000
00100000
10000000
00000000
,
01000000
00000000
00000000
00000000
00000000
00000000
00010000
00000000
00000000
00000000
00000000
00000000
00001000
00000000
00000000
00000000
00000000
00000000
00000000
00000000
00000000
00000000
00000000
00000000
00010000
00000000
00000000
00001000
00000000
00000000
00010000
00000000
00000000
00000000
00000000
00000000
00001000
00000000
00010000
00000000
00001000
00000000
00010000
00000000
00001000
00000000
00010000
00000000
,
00001000
00000100
00000001
00000100
00001000
00010000
00100000
10000000
,
00100000
00000000
00000000
00011000
00000000
00000000
00010000
00001000
00010000
00001000
00000000
00000000
;

//---------------dance-double - ----------------
#NOTES:
     dance-double:
     :
     Medium:
     6:
     0.480,0.613,0.244,0.145,0.088:
00000000
00000000
00000000
00000000
,
00000000
00000000
00000000
00000000
00000000
00000000
00000000
00000000
00000000
00000000
00000000
00000000
00000000
00000000
00000000
20000000
,
00000000
30002000
00000000
00023000
00000000
00030002
00000000
00020003
00000000
00032000
00000000
20003000
00000000
30020000
00000000
00030000
,
10010000
00000000
10000000
00000000
01000000
01000000
01000000
00000000
,
00100000
00000000
00001000
00000000
00010000
00010000
00010000
00001000
,
00010000
00000000
00000100
00000000
00001000
00001000
00001000
00000000
,
00000010
00000000
00000100
00000000
00000001
00000001
00000001
00000000
,
00000010
00000000
00000100
00000000
00001000
00000100
00001000
00000000
,
00010000
00001000
00010000
00001000
00010000
00001000
00010000
00000000
,
00100000
00000000
00010000
00000000
01000000
00100000
01000000
00000000
,
20020000
00000000
00000000
30030000
,
00011000
00000000
00000100
00000000
00001000
00000010
00000100
00000000
,
00000001
00000000
00000001
00000000
00000010
00000100
00001000
00000000
,
00011000
00000000
00010000
00000000
01000000
00100000
10000000
00000000
,
01000000
00000000
01000000
00000000
00100000
00010000
01000000
00000000
,
01010000
00000000
00100000
00000000
00001000
00010000
00001000
00000000
,
00010000
00000000
00000100
00000000
00001000
00000010
00000100
00000000
,
00000100
00000001
00000100
00001000
00000100
00000001
00000100
00001000
,
00010000
00000000
00000000
00001000
00000000
00000000
00010000
00000000
00000000
00001000
00000000
00000000
00010000
00000000
00001000
00000000
00010000
00000000
00001000
00000000
00000000
00000000
00000000
00000000
,
10010000
00000000
10000000
00000000
01000000
01000000
01000000
00000000
,
00100000
00000000
00001000
00000000
00010000
00010000
00010000
00000000
,
00000100
00000000
00001000
00000000
00000010
00000010
00000010
00000000
,
00000100
00000000
00000001
00000000
00000010
00000010
00000010
00000000
,
00000100
00010000
00001000
00010000
00001000
00020000
00000000
00000000
,
00031000
00010000
00001000
00010000
00001000
01000000
00000000
01000000
,
00100000
00000000
00100000
10000000
00100000
00000000
00100000
00010000
,
00100000
00000000
00100000
01000000
00100000
02000000
00000000
00000000
,
03010000
00000000
00100000
00001000
00010000
00000000
00000100
00000000
,
00001000
00000000
00000010
00000100
00000001
00000100
00000000
00000000
,
00001000
00000000
00010000
00000000
00010000
00001000
00010000
00001000
,
00010000
00000000
00100000
10000000
01000000
00020000
00000000
00030000
,
00001000
00000000
00000000
00000100
00000000
00000000
00000001
00000000
00000100
00000000
00000000
00001000
00000000
00000000
00000100
00000000
,
00000001
00000000
00000000
00000010
00000000
00000000
00001000
00000000
00000010
00000000
00000000
00001000
00000000
00000000
00000000
00000000
,
00010000
00000000
00000000
01000000
00000000
00000000
10000000
00000000
00100000
00000000
00000000
00010000
00000000
00000000
00100000
00000000
,
10000000
00000000
00000000
01000000
00000000
00000000
00010000
00000000
00001000
00000000
00000000
00010000
00000000
00000000
00000000
00000000
,
00011000
00000000
00010000
00000000
00000100
00010000
00000100
00000000
,
00001000
00000000
00000010
00000000
00000100
00000001
00000100
00000000
,
00000010
00000000
00010000
00000000
00001000
00001000
00001000
00000000
,
00100000
00000000
00010000
00000000
10000000
10000000
10000000
00000000
,
01000000
00000000
00100000
00000000
00001000
00010000
00001000
00000000
,
00010000
00001000
00010000
00001000
00011000
00011000
00011000
00000000
,
00010000
00000000
00000100
00000000
00001000
00000100
00001000
00000000
,
00002002
00000000
00000000
00003003
,
00001001
00000000
00000001
00000100
00001000
00000000
00010000
01000000
,
10000000
00000000
10000000
00000000
10000000
01000000
00010000
00000000
,
10010000
00000000
10000000
01000000
00010000
00000000
00001000
00000100
,
00000001
00000000
00000001
00000000
00000001
00000100
00001000
00000000
,
00001001
00000000
00000001
00000010
00001000
00000000
00010000
00100000
,
10000000
00000000
10000000
00000000
10000000
00100000
00010000
00000000
,
10000000
00100000
00010000
00100000
10000000
00100000
00010000
00001000
,
00000100
00000000
00000000
00000001
00000000
00000000
00000100
00000000
00000000
00000000
00000000
00000000
00000100
00000000
00000001
00000000
00000100
00000000
00000001
00000000
00000000
00000000
00000000
00000000
,
00001001
00000100
00002000
00000000
,
00013000
00000000
00001000
00010000
00001000
00000000
00010000
00001000
,
00010000
00000000
01000000
00000000
10000000
00000000
00100000
01000000
,
00000000
00010000
01000000
00000000
01010000
00000000
01000000
00010000
,
00001000
00000200
00000000
00000300
,
00000001
00000000
00000010
00000000
00000100
00001000
00000100
00000000
,
00010100
00000000
00010000
00000000
00001000
00000000
00100000
00001000
,
00000000
00010000
00001000
00000000
00011000
00000000
00100100
00000000
,
00011000
00001000
00100000
00010000
,
01000000
00000000
00100000
01000000
00100000
00000000
10000000
00000000
,
01000000
00000000
00010000
00000000
00001000
00000000
00000100
00000001
,
00000000
00001000
00000001
00000000
00000011
00000000
00000001
00000010
,
00000200
00002000
00000000
00003300
,
00000100
00000000
00010000
00000000
00001000
00010000
00001000
00000000
,
00110000
00000000
00010000
00000000
10000000
00000000
01000000
00100000
,
00000000
00010000
00100000
00000000
00101000
00000000
00011000
00000000
,
00010010
00000000
00100010
00000000
,
01000100
00000000
00000000
00000000
00000000
00000000
00000000
00000000
00011000
00000000
00000000
00011000
00000000
00000000
00000000
00000000
,
00011000
00000000
00010000
01000000
10000000
01000000
00010000
00001000
,
00010000
00000000
00001000
00000000
00010000
00001000
00010000
00000000
,
00011000
00000000
00001000
00000100
00000001
00000100
00001000
00010000
,
00001000
00000000
00010000
00000000
00001000
00010000
00001000
00000000
,
00011000
00000000
00010000
00100000
10000000
00100000
00010000
00001000
,
00010000
00000000
00001000
00000000
00010000
00001000
00010000
00000000
,
00001000
00000010
00000001
00000010
00001000
00000010
00000001
00000010
,
00001000
00000000
00000000
00010000
00000000
00000000
00001000
00010000
00001000
00010000
00000000
00000000
;

//---------------dance-double - ----------------
#NOTES:
     dance-double:
     :
     Easy:
     1:
     0.420,0.526,0.639,0.084,0.042: // measure 1
00000000
00000000
00000000
00000000
,  // measure 2
00000000
00000000
00000000
00000000
00000000
00000000
00000000
00000000
00000000
00000000
00000000
00000000
00000000
00000000
00000000
00010000
,  // measure 3
00000000
00001000
00000000
00010000
00000000
00001000
00000000
00010000
00000000
00001000
00000000
00010000
00000000
00002000
00000000
00003000
,  // measure 4
00010000
00001000
00100000
00110000
,  // measure 5
00010000
01000000
00100000
01100000
,  // measure 6
01000000
00010000
00100000
00110000
,  // measure 7
00001000
00010000
00001000
00011000
,  // measure 8
00000100
00001000
00000100
00001100
,  // measure 9
00000001
00000100
00000001
00000101
,  // measure 10
00000010
00001000
00000100
00011000
,  // measure 11
00022000
00000000
00000000
00033000
,  // measure 12
00011000
00100000
10000000
01000000
,  // measure 13
00010000
00001000
00000100
00000001
,  // measure 14
00001001
00000010
00001000
00010000
,  // measure 15
00100000
10000000
01000000
00010000
,  // measure 16
00011000
00000100
00000001
00000010
,  // measure 17
00001000
00010000
01000000
10000000
,  // measure 18
10010000
10000000
00100000
00010000
,  // measure 19
00001000
00000100
00000001
00000100
,  // measure 20
00011000
00001000
00100000
00010000
,  // measure 21
01000000
00100000
10000000
01000000
,  // measure 22
00110000
00100000
00001000
00010000
,  // measure 23
00000100
00001000
00000001
00000100
,  // measure 24
00001010
00000000
00001000
00000000
00000100
00002000
00000000
00000000
,  // measure 25
00013000
00000000
00100000
00000000
00010000
00001000
00000000
00001000
,  // measure 26
00010000
00100000
10000000
01000000
,  // measure 27
00010000
00000000
00001000
00000000
00000100
00000001
00000000
00000000
,  // measure 28
00000101
00001000
00000100
00010000
,  // measure 29
00001000
00000000
00100000
00000000
00010000
00200000
00000000
00000000
,  // measure 30
01300000
10000000
00100000
01000000
,  // measure 31
00001000
00000000
00010000
00000000
00000100
00020000
00000000
00030000
,  // measure 32
00011000
00000000
00000000
00000100
00001000
00000000
00000000
00000001
,  // measure 33
00000100
00000000
00000000
00000000
00000000
00000000
00000001
00000000
00001000
00000000
00000000
00010000
00000000
00000000
00000000
00000000
,  // measure 34
10010000
00000000
00000000
10000000
00100000
00000000
00000000
10000000
,  // measure 35
00010000
00000000
00000000
00000000
00000000
00000000
10000000
00000000
01000000
00000000
00000000
00010000
00000000
00000000
00000000
00000000
,  // measure 36
00011000
00000100
00001000
00000010
,  // measure 37
00000110
00000100
00000001
00000010
,  // measure 38
00000011
00000000
00000100
00000000
00001000
00001000
00001000
00000000
,  // measure 39
00010000
00000000
00100000
00000000
10000000
10000000
10000000
00000000
,  // measure 40
11000000
00000000
00100000
00000000
00001000
00001000
00001000
00000000
,  // measure 41
00010000
00001000
00010000
00001000
00010000
00010000
00010000
00000000
,  // measure 42
00010100
00000000
00000100
00000000
00001000
00001000
00001000
00000000
,  // measure 43
00002002
00000000
00000000
00003003
,  // measure 44
MMMMMMMM
00000001
00000101
00001000
,  // measure 45
00001100
00010000
00011000
00011000
,  // measure 46
MMMMMMMM
00010000
01010000
10000000
,  // measure 47
11000000
10000000
10010000
10010000
,  // measure 48
MMMMMMMM
00100000
10100000
00100000
,  // measure 49
00110000
00100000
00011000
00001100
,  // measure 50
00000010
00000001
00000100
00001000
,  // measure 51
00010000
00100000
10000000
01000000
,  // measure 52
MMMMMMMM
00110000
00001100
0000MM00
,  // measure 53
00001000
00000010
00000100
00000001
,  // measure 54
MMMMMMMM
00000000
00000001
00000000
00000010
00000000
00000100
00001000
,  // measure 55
00000000
00000100
00010000
00000000
00011000
00000000
00010000
00000000
,  // measure 56
MMMMMMMM
00002000
00000000
00003000
,  // measure 57
00010000
00001000
00100000
00010000
,  // measure 58
MMMMMMMM
00000000
10000000
00000000
01000000
00000000
00100000
00010000
,  // measure 59
00000000
10000000
00010000
00000000
10010000
00000000
10010000
00000000
,  // measure 60
MMMMMMMM
00010000
00000100
00001000
,  // measure 61
00000010
00000100
00000001
00000010
,  // measure 62
MMMMMMMM
00000000
00000100
00000000
00010000
00000000
00001000
00100000
,  // measure 63
00000000
00010000
00100000
00000000
00110000
00000000
10010000
00000000
,  // measure 64
MMMMMMMM
02020000
00000000
03030000
,  // measure 65
01000000
00001000
00010000
00011000
,  // measure 66
MMMMMMMM
00000000
00000100
00000000
00001000
00000000
00000010
00001000
,  // measure 67
00000000
00000001
00001000
00000000
00001100
00000000
00001100
00000000
,  // measure 68
00011000
00000000
10010000
00000000
,  // measure 69
00011000
00000000
00000000
00000000
00000000
00000000
00000000
00000000
00001001
00000000
00000000
00001001
00000000
00000000
00000000
00000000
,  // measure 70
00001001
00000110
00001001
00001001
,  // measure 71
00001100
00000101
00001100
00000101
,  // measure 72
00010100
00011000
00101000
00101000
,  // measure 73
01010000
10100000
01010000
10010000
,  // measure 74
11000000
10010000
01010000
01010000
,  // measure 75
01001000
01001000
00011000
00011000
,  // measure 76
00001100
00000101
00000011
00001010
,  // measure 77
00011000
10010000
00011000
00011000
;
