#TITLE:Cat Cafe;
#SUBTITLE:;
#ARTIST:Yoshi & Komono;
#TITLETRANSLIT:;
#SUBTITLETRANSLIT:;
#ARTISTTRANSLIT:;
#GENRE:Meowcchiato;
#CREDIT:;
#BANNER:[ROUND J] - Cat Cafe.png;
#BACKGROUND:[ROUND J] - Cat Cafe-bg.png;
#LYRICSPATH:;
#CDTITLE:cdtitle.png;
#MUSIC:[ROUND J] - Cat Cafe.ogg;
#OFFSET:0.004000;
#SAMPLESTART:42.647694;
#SAMPLELENGTH:14.222221;
#SELECTABLE:YES;
#BPMS:0.000000=135.000000
,30.000000=67.500000
,31.000000=135.000000
,125.000000=67.500000
,126.000000=135.000000
,156.000000=67.500000
,157.000000=135.000000
,185.000000=67.500000
,187.000000=135.000000
,249.000000=67.500000
;
#STOPS:
;
#BGCHANGES:;
#KEYSOUNDS:;
#ATTACKS:;

//---------------dance-single - ----------------
#NOTES:
     dance-single:
     :
     Challenge:
     10:
     0.644246,0.965082,0.636091,0.742106,0.676866,553.000000,475.000000,78.000000,91.000000,69.000000,0.000000,0.644246,0.965082,0.636091,0.742106,0.676866,553.000000,475.000000,78.000000,91.000000,69.000000,0.000000:
0000
0000
0000
0000
,
0000
0000
0000
0000
,
0000
0000
0000
0000
,
0000
0000
0000
0000
0000
0000
0000
0000
0000
0000
0000
0000
0000
0000
0000
1000
,
0001
0000
0000
0000
0010
0000
0010
0000
0010
0000
0001
0000
0100
0000
0010
1000
,
0001
0000
0000
0001
0000
0000
0010
0000
0000
0000
0000
0000
0120
0000
0030
0100
,
1000
0000
0000
0000
0000
0000
1000
0000
0010
0000
0100
0000
0001
0000
1000
0100
,
0010
0000
0000
0010
0000
0000
0100
0000
0000
0000
0000
0000
1001
0000
0000
0000
,
0001
0000
0001
0000
0001
0000
0100
0000
1000
0000
0100
0010
1000
0000
0000
1100
,
0000
0000
0000
0011
0000
0000
1001
0000
0000
0000
0000
0000
0001
0100
0001
0000
0000
0000
1010
0000
0000
0000
0000
0000
,
0000
0000
0010
1000
0100
0000
0001
0000
0100
0000
0010
0001
1000
0000
0000
1010
,
0000
0000
0000
0101
0000
0000
1001
0000
0000
0000
0000
0000
0001
0010
0100
1000
0000
0000
1100
0000
0000
0000
0000
0000
,
1000
0000
1000
0000
1000
0000
0010
0100
0001
1000
0100
0010
0001
0000
0000
1100
,
0000
0011
1001
0000
1010
0000
0101
0000
,
0000
0000
0001
0000
0100
0000
1000
0000
0100
0000
0001
1000
0100
0000
0000
0010
,
0000
0000
0000
0001
0000
0000
1000
0100
1000
0100
1000
0100
0010
0001
0010
0001
0010
0001
2000
0000
0000
0000
0000
0000
,
0000
3001
MMMM
0000
2002
0000
0000
0003
,
3001
0000
0000
0000
0000
0000
1000
0000
0001
0000
1000
0000
0002
0000
0000
0000
0000
0000
0000
0000
0000
0003
0000
0000
0202
0000
0000
0000
0000
0000
0000
0000
0000
0303
0000
0000
2200
0000
0000
0000
0000
0000
3000
0000
0000
0300
0000
0000
,
1000
0000
0000
0100
0000
0000
0010
0000
0000
0000
0000
0000
M1MM
0000
0000
1000
0000
0000
0001
0000
0000
0100
0000
0000
0220
0000
0000
0000
0000
0000
0000
0000
0000
0000
0000
0000
0300
0000
0000
0030
0000
0000
0100
0000
0001
0000
0100
0000
,
0001
0000
0000
0000
1000
0000
0000
0000
0100
0000
0000
0000
0220
0000
0000
0000
0000
0000
0000
0000
0000
0330
0000
0000
2200
0000
0000
0000
0000
0000
0000
0000
0000
3300
0000
0000
2002
0000
0000
0000
0000
0000
0000
0000
0000
0000
0000
0000
,
3000
1003
MMMM
0000
2002
0000
0000
0003
,
3001
0000
0010
0001
2002
0000
0000
3003
0022
0000
0000
0033
2020
0000
0000
0000
,
3030
0000
0011
0000
MMM1
0100
0010
1000
2002
0000
0000
0000
0000
0000
0000
0000
,
3003
0000
0000
0000
0000
0000
0001
0000
0000
0000
0000
0000
1000
0000
0000
0000
0000
0000
0010
0000
0100
0000
0010
0000
0100
0000
0000
0010
0000
0000
1000
0000
0000
0001
0000
0000
0020
0000
0000
0000
0000
0000
0000
0000
0000
1000
0000
0000
,
0000
0000
0130
0000
0011
0000
00MM
0000
1020
0000
0000
0000
0100
0000
0000
0031
,
0M10
0000
10M0
0100
0010
0000
0012
0000
0000
0003
0100
0010
2010
0000
0000
3100
,
0000
0000
0011
0000
1MMM
0010
0100
0001
0201
0000
0000
0000
1000
0000
0000
0310
,
M100
0001
0010
0100
2100
0000
0000
0000
3001
0000
1001
0000
1020
0000
0000
0001
,
0000
0000
0130
0000
1010
0000
1MM0
0001
0021
0000
0000
0000
0100
0000
0000
1030
,
0M10
0000
00M1
0000
0202
0000
0000
0303
2020
0000
0000
3030
1002
0000
0000
0013
,
0001
0000
0000
0100
0000
0000
0MM1
1000
0001
1000
0001
1000
0200
0000
0000
0000
0000
0000
0000
0000
0000
0000
0000
0000
,
0300
0010
MMMM
0000
0001
0000
0000
1000
,
0000
0000
0000
0000
M000
0000
1000
0000
0001
0000
0100
0010
0100
0000
0001
0000
,
1000
0000
0100
0000
0010
0001
1000
0010
0100
0000
0000
0000
0010
0000
1000
0000
,
0100
0000
0000
0100
0010
0000
0001
0000
0100
0000
0010
1000
0010
0000
0100
0000
,
0001
0000
0000
0000
0000
0000
0000
0000
0000
1000
0000
0000
0001
0000
0010
0000
0100
0000
1000
0000
0000
0001
0000
0000
0200
0000
0000
0000
0000
0000
0000
0000
0000
1300
0000
0000
0100
0000
0000
0000
0000
0000
0002
0000
0000
0000
0000
0000
,
0013
0000
0000
0010
0001
1000
0001
1000
0020
0000
0000
0031
0010
0000
2000
0000
,
3200
0000
0310
0001
2001
0000
3200
0000
0320
0000
0000
1030
0010
0000
0002
0000
,
0103
0000
0000
0100
0010
0000
1000
0001
1000
0000
0000
1000
0000
0000
0100
0000
,
0000
0000
MMMM
0000
1001
0000
0000
1000
0010
0000
1000
0000
0001
0010
0001
0010
,
0100
0000
1000
0001
0100
0000
0000
0100
0001
0000
0010
0000
0001
0000
0001
0000
,
0001
0100
0010
1000
0100
0000
0000
0100
1000
0000
0010
0000
0100
0001
0100
0001
,
1000
0000
0100
0010
0001
0000
0000
0001
0100
0000
1000
0000
0100
0010
0100
0010
,
1000
0000
0000
0000
0000
0000
0001
0000
1000
0000
0001
0000
1000
0000
0000
0000
0000
0000
0000
0000
0000
1100
0000
0000
0000
0000
0000
0000
0000
0000
1001
0000
0000
0000
0000
0000
0001
0000
0000
1000
0000
0000
0001
0000
0000
1000
0000
0000
,
0100
0000
0010
0001
1001
0000
0000
0101
0000
0000
0010
1000
0001
0000
0001
0000
,
0001
0000
1000
0000
0001
0000
1000
0000
0100
0000
0010
0000
0001
0000
0000
1000
0000
0000
0001
0000
0000
1000
0000
0000
0010
0000
0000
0100
0000
0000
0010
0000
0000
0100
0000
0000
0001
0000
0100
0000
0001
0000
0100
0000
0001
0000
0100
0000
,
0010
0000
0000
0000
0000
0000
0000
0000
1000
0000
0000
0000
0000
0000
0000
0000
0010
0000
0000
0000
0000
0000
0000
0000
1000
0000
0000
0000
0000
0000
0000
0000
0010
0000
0000
0000
0000
0000
0000
0000
1000
0000
0000
0000
0000
0000
0000
0000
0002
0000
0000
0000
0000
0000
0000
0000
0000
0000
0000
0000
0000
0000
0000
0000
0000
0000
0000
0000
0000
0000
0000
0000
0000
0000
0000
0000
0000
0000
0000
0000
0000
0000
0000
0000
0000
0000
0000
0000
0000
0000
0000
0000
0000
0000
0000
0000
0003
0000
0000
0000
0000
0000
0000
0000
0000
0000
0000
0000
1000
0000
0000
0000
0000
0000
0100
0000
0000
0000
0000
0000
0010
0000
0000
0000
0000
0000
0100
0000
0000
0000
0000
0000
0010
0000
0000
0000
0000
0000
0001
0000
0000
0000
0000
0000
1002
0000
0000
0000
0000
0000
0000
0000
0000
0000
0000
0000
0000
0000
0000
0000
0000
0000
0000
0000
0000
0000
0000
0000
0000
0000
0000
0000
0000
0000
0000
0000
0000
0000
0000
0000
0000
0000
0000
0000
0000
0000
0000
0000
0000
0000
0000
0000
,
0000
1003
MMMM
0000
2002
0000
0000
3000
,
1003
0000
0000
0000
0000
0000
0001
0000
1000
0000
0001
0000
2000
0000
0000
0000
0000
0000
0000
0000
0000
3000
0000
0000
2200
0000
0000
0000
0000
0000
0000
0000
0000
3300
0000
0000
0202
0000
0000
0000
0000
0000
0003
0000
0000
0300
0000
0000
,
0001
0000
0000
0100
0000
0000
0010
0000
0000
0000
0000
0000
M1MM
0000
0000
0001
0000
0000
1000
0000
0000
0100
0000
0000
0220
0000
0000
0000
0000
0000
0000
0000
0000
0000
0000
0000
0300
0000
0000
0030
0000
0000
0100
0000
1000
0000
0100
0000
,
1000
0000
0000
0000
0001
0000
0000
0000
0100
0000
0000
0000
0220
0000
0000
0000
0000
0000
0000
0000
0000
0330
0000
0000
0202
0000
0000
0000
0000
0000
0000
0000
0000
0303
0000
0000
2002
0000
0000
0000
0000
0000
0000
0000
0000
0000
0000
0000
,
0003
3001
MMMM
0000
2002
0000
0000
3000
,
1003
0000
0010
1000
2002
0000
0000
3003
2020
0000
0000
3030
0022
0000
0000
0000
,
0033
0000
1010
0000
1MMM
0100
0010
0001
2002
0000
0000
0000
0000
0000
0000
0000
,
3003
0000
0000
0000
0000
0000
1000
0000
0000
0000
0000
0000
0001
0000
0000
0000
0000
0000
0010
0000
0100
0000
0010
0000
0100
0000
0000
0010
0000
0000
0001
0000
0000
1000
0000
0000
0020
0000
0000
0000
0000
0000
0000
0000
0000
0001
0000
0000
,
0000
0000
0130
0000
1010
0000
M0M0
0000
0021
0000
0000
0000
0100
0000
0000
1030
,
0M10
0000
00M1
0100
0010
0000
2010
0000
0000
3000
0100
0010
0012
0000
0000
0103
,
0000
0000
1010
0000
MMM1
0010
0100
1000
1200
0000
0000
0000
0001
0000
0000
0310
,
010M
1000
0010
0100
0102
0000
0000
0000
1003
0000
1001
0000
0021
0000
0000
1000
,
0000
0000
0130
0000
0011
0000
0MM1
1000
1020
0000
0000
0000
0100
0000
0000
0031
,
0M10
0000
10M0
0000
2200
0000
0000
3300
0022
0000
0000
0033
2001
0000
0000
3010
,
1000
0000
0000
0100
0000
0000
1MM0
0001
1000
0001
1000
0001
0200
0000
0000
0000
0000
0000
0000
0000
0000
0000
0000
0000
,
0300
0000
0000
0000
0010
0000
0000
0000
MMMM
0000
0000
0000
0000
0000
0000
0000
1001
0000
0000
0000
0001
0000
0001
0000
0001
0000
0100
0000
0010
0000
1000
0001
,
0000
0000
0000
0000
0000
0000
0000
0000
0000
0000
0000
0000
0000
0000
0000
0000
1001
0000
0000
0000
0000
0000
0000
0000
0001
0000
0010
0000
0100
0000
1000
0100
;

//---------------dance-single - ----------------
#NOTES:
     dance-single:
     :
     Hard:
     9:
     0.511436,0.573832,0.285425,0.693176,0.444448,439.000000,404.000000,35.000000,85.000000,46.000000,0.000000,0.511436,0.573832,0.285425,0.693176,0.444448,439.000000,404.000000,35.000000,85.000000,46.000000,0.000000:
0000
0000
0000
0000
,
0000
0000
0000
0000
,
0000
0000
0000
0000
,
0000
0000
0000
0000
,
1001
0000
0000
0000
0001
0000
0001
0000
0001
0000
0010
0000
0100
0000
1000
0001
,
1000
0000
0000
1000
0000
0000
0010
0000
0000
0000
0000
0000
0210
0000
0000
0000
,
0301
0000
0000
0000
0000
0000
0001
0000
1000
0000
0100
0000
0010
0000
0001
1000
,
0001
0000
0000
0001
0000
0000
0100
0000
0000
0000
0000
0000
1001
0000
0000
0000
,
0001
0000
0001
0000
0001
0000
0100
0000
0010
0000
1000
0001
1000
0000
0000
0100
,
0000
1000
1001
0000
0010
0000
1001
0000
,
0000
0000
1000
0010
1000
0000
0100
0000
0010
0000
0001
1000
0001
0000
0000
0100
,
0000
0001
1001
0000
0100
0000
1001
0000
,
1000
0000
1000
0000
1000
0000
0010
0000
0100
0000
0001
1000
0001
0000
1000
0100
,
0000
1000
1001
0000
0010
0000
1001
0000
,
0000
0000
0001
0000
0100
0000
1000
0000
0100
0000
0001
0100
0001
0000
0000
1000
,
0000
0000
0100
0000
0040
0004
0000
0000
0000
0000
0030
0003
2000
0000
0000
0000
,
0000
3001
02MM
0000
0302
0000
0000
0003
,
1000
0000
0100
0010
0200
0000
0000
0000
2300
0000
0000
0000
3020
0000
0000
0030
,
0100
0001
0200
0000
03M1
1000
0M01
1000
0200
0000
0000
0000
0000
0300
1000
0001
,
1000
0010
0100
0002
0000
0000
0203
0000
0000
0302
0000
0000
,
0000
1003
M2M0
0000
2300
0000
0000
0000
,
3001
0000
0010
0100
0020
0000
0000
0000
2030
0000
0000
0000
3020
0000
0000
0000
,
0000
0000
0032
0000
M103
0010
010M
0010
2000
0000
0000
0000
0000
0000
0000
0000
,
3000
0000
0001
0000
0400
0040
0000
0000
0000
0300
0030
0000
1020
0000
0000
1000
,
0000
0000
0130
0000
M1M1
0000
0000
0000
0021
0000
0000
0000
0100
0000
0000
0130
,
M01M
0000
0001
1000
0010
0000
1020
0000
0000
0000
0130
0001
0200
0000
0000
0310
,
0000
0000
2000
0000
3M01
0010
M001
0010
0200
0000
0000
0000
0010
0000
0000
0000
,
13M0
0001
1000
0001
0200
0000
0000
0000
0301
0000
1001
0000
1200
0000
0000
1000
,
0000
0000
0310
0000
MM11
0000
0001
1000
0002
0000
0000
0000
0100
0000
0000
0103
,
M0M1
1000
0020
0000
0032
0000
0023
0000
,
1030
0000
0020
0000
M130
0001
10M0
0100
0020
0000
0000
0000
0000
0000
0000
0000
,
0000
0130
2MM0
3000
0001
0000
0000
1000
,
0000
0000
0000
0000
0000
0000
1000
0000
0001
0000
0100
0010
0000
0010
1000
0000
,
0100
0000
0100
0000
1000
0010
1000
0000
0001
0000
0000
0000
0001
0000
0100
0000
,
1000
0000
0000
1000
0100
0000
0001
0000
0010
0000
0100
1000
0000
1000
0010
0000
,
0100
0000
0000
0100
0001
1000
0001
0000
0020
0000
0000
0130
0010
0000
0001
0000
,
0100
0000
0000
0100
0010
1000
0010
1000
0002
0000
0000
0103
0001
0000
1000
0000
,
0100
0000
0010
0000
0110
0000
0000
0000
2100
0000
0000
3100
1000
0000
0010
0000
,
0100
0000
0000
0100
0001
0000
1000
0001
1000
0000
0000
1000
0000
0000
0100
0000
,
0000
0000
0110
0000
2001
0000
0000
3020
0000
0000
0230
0000
0301
0000
0100
0000
,
0010
0000
1000
0001
2000
0000
0000
3200
0000
0000
0302
0000
0103
0000
0010
0000
,
0100
0010
0100
0010
0002
0000
0000
0203
0000
0000
0320
0000
1030
0000
0100
0000
,
0010
0000
0001
1000
0002
0000
0000
0203
0000
0000
2300
0000
3100
0000
0010
0000
,
0100
0000
0001
1000
0001
0000
0000
0011
0000
0000
1001
0000
1002
0000
0000
0000
,
0103
0000
0000
0010
1000
0000
0000
1010
0000
0000
1001
0000
1200
0000
0000
0000
,
0310
0100
0010
0100
1000
0000
0100
0000
0010
0000
0001
0000
0400
0040
0000
0300
,
4030
0000
0004
0000
0000
0000
3000
0000
0023
0000
0000
0000
0000
0000
0000
0000
0030
0000
0001
1000
0001
1000
0001
1000
0002
0000
0000
0000
0000
0000
0000
0000
,
0000
1003
M2M0
0000
2300
0000
0000
3000
,
0001
0000
0100
0010
0200
0000
0000
0000
0302
0000
0000
0000
0023
0000
0000
0030
,
0100
1000
0200
0000
13M0
0001
1M00
0001
0200
0000
0000
0000
0000
0300
0001
1000
,
0001
0010
0100
2000
0000
0000
3200
0000
0000
2300
0000
0000
,
0000
3001
02MM
0000
0302
0000
0000
0000
,
1003
0000
0010
0100
0020
0000
0000
0000
0032
0000
0000
0000
0023
0000
0000
0000
,
0000
0000
2030
0000
310M
0010
M100
0010
0002
0000
0000
0000
0000
0000
0000
0000
,
0003
0000
1000
0000
0400
0040
0000
0000
0000
0300
0030
0000
0021
0000
0000
0001
,
0000
0000
0130
0000
11MM
0000
0000
0000
1020
0000
0000
0000
0100
0000
0000
0130
,
M01M
0000
1000
0001
0010
0000
0021
0000
0000
0000
0130
1000
0200
0000
0000
0310
,
0000
0000
0002
0000
1M03
0010
100M
0010
0200
0000
0000
0000
0010
0000
0000
0000
,
03M1
1000
0001
1000
0200
0000
0000
0000
1300
0000
1001
0000
0201
0000
0000
0001
,
0000
0000
0310
0000
1M1M
0000
1000
0001
2000
0000
0000
0000
0100
0000
0000
3100
,
10MM
0001
0020
0000
2030
0000
3020
0000
,
0031
0000
0020
0000
013M
1000
00M1
0100
0020
0000
0000
0000
0000
0000
0000
0000
,
0000
0000
0000
0000
0130
0000
0000
0000
0MM2
0000
0000
0000
0003
0000
0000
0000
1001
0000
0000
0000
0001
0000
0001
0000
0001
0000
0100
0000
0010
0000
1000
0001
,
0000
0000
0000
0000
0000
0000
0000
0000
0000
0000
0000
0000
0000
0000
0000
0000
1001
0000
0000
0000
0000
0000
0000
0000
0001
0000
0010
0000
0100
0000
1000
0100
;

//---------------dance-single - ----------------
#NOTES:
     dance-single:
     :
     Medium:
     6:
     0.375130,0.417333,0.220185,0.766571,0.126403,322.000000,295.000000,27.000000,94.000000,0.000000,0.000000,0.375130,0.417333,0.220185,0.766571,0.126403,322.000000,295.000000,27.000000,94.000000,0.000000,0.000000:
0000
0000
0000
0000
,
0000
0000
0000
0000
,
0000
0000
0000
0000
,
0000
0000
0000
0000
,
1001
0000
0001
0010
0001
0010
0100
0000
,
1000
0000
0000
0001
0000
0000
1000
0000
0000
0000
0000
0000
2010
0000
0000
0000
,
3001
0000
0000
0001
1000
0100
1000
0000
,
0010
0000
0000
1000
0000
0000
0001
0000
0000
0000
0000
0000
1001
0000
0000
0000
,
0001
0000
0100
0000
0001
0000
0100
0000
0010
0000
1000
0000
0001
0000
0000
0010
,
0000
0100
1000
0000
0000
0000
1001
0000
,
0000
0000
1000
0000
0010
0000
0100
0000
0001
0000
0010
0000
0100
0000
0000
0010
,
0000
0001
1000
0000
0000
0000
1001
0000
,
0001
0000
0010
0000
0100
0000
1000
0000
0010
0000
0100
0000
0001
0000
0000
0001
,
0000
1000
0100
0000
0110
0000
1001
0000
,
0000
0000
1000
0000
0100
0000
0010
0000
0001
0000
0100
0000
0010
0000
0000
1000
,
0000
0100
0020
0000
0030
0000
2001
0000
,
0000
3100
0100
0000
1002
0000
0000
0000
,
1003
0010
0200
0000
0320
0000
2030
0000
,
3100
0020
0031
0010
0021
0000
0000
0031
,
1000
1020
0230
0302
,
0000
0103
0100
0000
2001
0000
0000
0000
,
3001
0010
0200
0000
0302
0000
0203
0000
,
0300
0020
0031
1000
2001
0000
0000
0000
,
3000
0000
0010
0000
0200
0000
0000
0000
0300
0000
0000
0000
0002
0000
0000
0100
,
0000
0000
0103
0000
0001
0000
0000
0000
2000
0000
0000
0000
0100
0000
0000
0100
,
3000
0000
1000
0000
0010
0000
0002
0000
0000
0000
0013
0000
2000
0000
0000
0100
,
0000
3200
0310
0000
0012
0000
1000
0000
,
0103
0000
0001
0000
0020
0000
0000
0000
1030
0000
0010
0000
0002
0000
0000
0100
,
0000
0000
0103
0000
0001
0000
1000
0000
0200
0000
0000
0000
1000
0000
0000
1000
,
0300
0100
0020
0000
2030
0000
3020
0000
,
0031
0010
0100
1000
2002
0000
0000
0000
,
3003
0000
0110
0000
0001
0000
0000
1000
,
0000
0000
0000
0000
0000
0000
1000
0000
0001
0000
0000
0001
0000
0000
1000
0000
,
0100
0000
0010
0001
0100
0000
0100
0010
,
1000
0000
0000
0000
0010
0000
1000
0000
0100
0000
0000
0001
0000
0000
0100
0000
,
1000
0000
0000
0000
0010
0000
0100
0000
0002
0000
0003
0200
0000
0300
0020
0000
,
1030
0000
0000
0000
1010
0000
0000
0000
2000
0000
3000
0200
0000
0300
0020
0000
,
0032
0000
0003
0200
0000
0300
0020
0000
2030
0000
3000
0200
0000
0300
2000
0000
,
3010
0000
0000
0000
0110
0000
0000
0000
0001
0000
0000
1000
0000
0000
0001
0000
,
0000
0000
0001
0000
2000
0000
0000
3200
0000
0000
0320
0000
0031
0000
0000
0000
,
1000
0000
0000
0000
0200
0000
0000
0320
0000
0000
0032
0000
0203
0000
0000
0000
,
0300
0000
0000
0000
0002
0000
0000
0203
0000
0000
0320
0000
1030
0000
0000
0000
,
0001
0000
0000
0000
0200
0000
0000
0320
0000
0000
2030
0000
3200
0000
0000
0000
,
1300
0000
0001
0000
1000
0000
0000
1000
0000
0000
0010
0000
0100
0000
0000
0000
,
0001
0000
1000
0000
0100
0000
0000
0100
0000
0000
0010
0000
0002
0000
0000
0000
,
0003
0000
1000
0100
0010
0001
0200
0000
,
0320
2030
3001
1002
,
0000
0103
0100
0000
2001
0000
0000
0000
,
3001
0010
0200
0000
0320
0000
0032
0000
,
0103
0020
1030
0010
1020
0000
0000
1030
,
0001
0021
0230
2300
,
0000
3100
0100
0000
1002
0000
0000
0000
,
1003
0010
0200
0000
2300
0000
3200
0000
,
0300
0020
1030
0001
1002
0000
0000
0000
,
0003
0000
0010
0000
0200
0000
0000
0000
0300
0000
0000
0000
2000
0000
0000
0100
,
0000
0000
3100
0000
1000
0000
0000
0000
0002
0000
0000
0000
0100
0000
0000
0100
,
0003
0000
0001
0000
0010
0000
2000
0000
0000
0000
3010
0000
0002
0000
0000
0100
,
0000
0203
0310
0000
2010
0000
0001
0000
,
3100
0000
1000
0000
0020
0000
0000
0000
0031
0000
0010
0000
2000
0000
0000
0100
,
0000
0000
3100
0000
1000
0000
0001
0000
0200
0000
0000
0000
0001
0000
0000
0001
,
0300
0100
0020
0000
0032
0000
0023
0000
,
1030
0010
0100
0001
2002
0000
0000
0000
,
3003
0000
0000
0000
0000
0000
0000
0000
0110
0000
0000
0000
0000
0000
0000
0000
1000
0000
0000
0000
0001
0000
0000
0000
0001
0000
0000
0000
1000
0000
0000
0100
,
0000
0000
0000
0000
0000
0000
0000
0000
0000
0000
0000
0000
0000
0000
0000
0000
1000
0000
0000
0000
0000
0000
0000
0000
0010
0000
0000
0000
0100
0000
0000
0001
;

//---------------dance-single - ----------------
#NOTES:
     dance-single:
     :
     Easy:
     4:
     0.311055,0.365344,0.415906,0.440371,0.000000,267.000000,216.000000,51.000000,54.000000,0.000000,0.000000,0.311055,0.365344,0.415906,0.440371,0.000000,267.000000,216.000000,51.000000,54.000000,0.000000,0.000000:
0000
0000
0000
0000
,
0000
0000
0000
0000
,
0000
0000
0000
0000
,
0000
0000
0000
0000
,
1000
0001
0001
0100
,
0020
0000
0000
0030
0000
0000
1000
0000
,
0001
0000
1000
0100
,
0020
0000
0000
0030
0000
0000
1001
0000
,
0001
1000
0100
0010
,
0001
1000
0000
1001
,
0000
0001
1000
0000
0010
0000
0100
0000
,
0001
1000
0000
1001
,
1000
0100
0010
0001
,
0100
0010
1000
1001
,
0000
0001
0010
0000
0100
0000
1000
0000
,
0000
0002
0003
2001
,
0000
3010
0000
0000
1002
0000
0000
0000
,
0013
1100
0011
2001
,
3010
0200
0300
0000
0102
0000
0000
0000
,
1003
1001
0110
2001
,
0000
3100
0000
0000
1002
0000
0000
0000
,
1003
0010
1000
0000
0011
0000
1200
0000
,
0000
0320
0031
0000
2001
0000
0000
0000
,
3000
0010
0200
0000
0300
0000
0002
0000
,
0013
0011
2000
0010
,
3010
0000
0100
0020
0000
1030
0002
0000
,
0003
2000
3100
0000
0012
0000
1000
0000
,
0103
0000
0120
0000
0030
1000
0002
0000
,
0013
0011
2000
0010
,
3001
0101
0011
1200
,
0310
0000
0001
1000
0002
0000
0000
0000
,
0003
0000
0100
0000
0001
0000
0000
1000
,
0000
0000
0000
1000
0001
0000
1000
0000
,
0010
0001
0010
1000
,
0100
0010
0001
0100
,
1000
0100
0001
0011
,
1000
1010
0001
0101
,
1000
1100
0010
1001
,
0100
0000
1001
0000
0002
0000
0000
0003
,
0000
1000
1000
0010
,
0010
1000
0001
0020
,
0030
0100
0100
0010
,
0010
0100
1000
0002
,
0103
0010
0010
1000
,
0001
0010
0010
0200
,
0300
0010
0001
0200
,
0310
2002
3003
1002
,
0000
0013
0000
0000
2001
0000
0000
0000
,
3010
0101
1010
1002
,
0013
0200
0300
0000
2100
0000
0000
0000
,
3001
1001
0110
1002
,
0000
0103
0000
0000
2001
0000
0000
0000
,
3001
0010
0001
0000
1010
0000
0201
0000
,
0000
0320
1030
0000
1002
0000
0000
0000
,
0003
0010
0200
0000
0300
0000
2000
0000
,
3010
1010
0002
0010
,
0013
0000
0100
0020
0000
0031
2000
0000
,
3000
0002
0103
0000
2010
0000
0001
0000
,
3100
0000
0120
0000
0030
0001
2000
0000
,
3010
1010
0002
0010
,
1003
1100
1010
0201
,
0310
0000
1000
0001
2000
0000
0000
0000
,
3000
0000
0100
0000
1000
0010
0100
0001
,
1000
0000
0000
0000
0001
0000
0010
0100
,
1000
0000
0000
0000
;

//---------------dance-single - ----------------
#NOTES:
     dance-single:
     :
     Beginner:
     2:
     0.194555,0.258922,0.244650,0.309890,0.000000,167.000000,137.000000,30.000000,38.000000,0.000000,0.000000,0.194555,0.258922,0.244650,0.309890,0.000000,167.000000,137.000000,30.000000,38.000000,0.000000,0.000000:
0000
0000
0000
0000
,
0000
0000
0000
0000
,
0000
0000
0000
0000
,
0000
0000
0000
0000
,
0000
0001
0001
0001
,
0002
0000
0000
0003
0000
0000
0000
0000
,
0000
0000
1000
1000
,
2000
0000
0000
3000
0000
0000
0000
0000
,
0010
0010
0010
0010
,
0000
1000
0000
0001
,
0000
1000
1000
1000
,
0000
0100
0000
0000
,
0010
0010
0010
0010
,
0000
0001
0000
0100
,
0000
0001
0001
0001
,
0000
1000
0000
2002
,
0000
3003
0000
0000
2002
0000
0000
0000
,
3003
1001
1001
2002
,
0000
3003
0000
0000
2002
0000
0000
0000
,
3003
0110
0110
0220
,
0000
0330
0000
0000
0220
0000
0000
0000
,
0330
0110
0110
0220
,
0000
0330
0000
0000
0220
0000
0000
0000
,
0330
1001
0000
0001
,
0001
0001
0000
1000
,
1000
1000
0000
0100
,
0100
0100
0000
0010
,
0010
0010
0000
0001
,
0001
0001
0000
0100
,
0100
0100
0000
0010
,
0010
0010
0020
0000
,
0030
0000
1000
0000
2000
0000
0000
3000
,
0000
0000
0001
0001
,
0001
0000
0010
0000
,
0100
0000
1000
1000
,
1000
0000
0001
0000
,
0100
0000
0010
0000
,
1000
0000
0100
0000
,
0010
0000
0001
0000
,
0000
1000
0000
1000
,
0000
1000
0000
0010
,
0000
0100
0000
0100
,
0000
0001
0000
1000
,
0000
0001
0001
0001
,
0000
1000
1000
1000
,
0000
0001
0000
1000
,
0000
0200
0300
2002
,
0000
3003
0000
0000
2002
0000
0000
0000
,
3003
1001
1001
2002
,
0000
3003
0000
0000
2002
0000
0000
0000
,
3003
0110
0110
0220
,
0000
0330
0000
0000
0220
0000
0000
0000
,
0330
0110
0110
0220
,
0000
0330
0000
0000
0220
0000
0000
0000
,
0330
1001
0000
1000
,
1000
1000
0000
0001
,
0001
0001
0000
0100
,
0100
0100
0000
0010
,
0010
0010
0000
1000
,
1000
1000
0000
0100
,
0100
0100
0000
0010
,
0010
0010
0020
0000
,
0030
0000
0001
0000
,
0000
0000
1000
0000
;
