#VERSION:0.83;
#TITLE:Captain Fantastic;
#SUBTITLE:;
#ARTIST:Matt Land;
#TITLETRANSLIT:;
#SUBTITLETRANSLIT:;
#ARTISTTRANSLIT:;
#GENRE:;
#ORIGIN:;
#CREDIT:;
#BANNER:;
#BACKGROUND:;
#PREVIEWVID:;
#JACKET:;
#CDIMAGE:;
#DISCIMAGE:;
#LYRICSPATH:;
#CDTITLE:;
#MUSIC:[ROUND J] - Captain Fantastic.mp3;
#OFFSET:-0.100000;
#SAMPLESTART:49.724998;
#SAMPLELENGTH:12.000000;
#SELECTABLE:YES;
#BPMS:0.000=155.020;
#STOPS:;
#DELAYS:;
#WARPS:;
#TIMESIGNATURES:0.000=4=4;
#TICKCOUNTS:0.000=4;
#COMBOS:0.000=1;
#SPEEDS:0.000=1.000=0.000=0;
#SCROLLS:0.000=1.000;
#FAKES:;
#LABELS:0.000=Song Start;
#BGCHANGES:;
#KEYSOUNDS:;
#ATTACKS:
;

//---------------dance-single - ----------------
#NOTEDATA:;
#CHARTNAME:;
#STEPSTYPE:dance-single;
#DESCRIPTION:;
#CHARTSTYLE:;
#DIFFICULTY:Beginner;
#METER:2;
#RADARVALUES:0.156879,0.219082,0.000000,0.065889,0.000000,100.000000,100.000000,0.000000,6.000000,0.000000,0.000000,0.000000,0.000000,0.000000,0.156879,0.219082,0.000000,0.065889,0.000000,100.000000,100.000000,0.000000,6.000000,0.000000,0.000000,0.000000,0.000000,0.000000;
#CREDIT:;
#NOTES:
0000
0000
0000
0000
,
0000
0000
0000
0000
,
0000
0000
0000
0000
,
0000
0000
0000
0000
,
1000
0000
0000
0000
,
0010
0000
0000
0000
,
0200
0000
0000
0000
,
0301
0000
0000
0000
,
1000
0000
1000
0000
,
0001
0000
0001
0000
,
0010
0000
0100
0000
,
1000
0000
0001
0000
,
1000
0000
1000
0000
,
0001
0000
0001
0000
,
0100
0000
0010
0000
,
1000
0000
0001
0000
,
1000
0000
0000
0000
,
0010
0010
0010
0010
,
0100
0000
0000
0000
,
0001
0000
1000
0000
,
0100
0000
0000
0000
,
0010
0010
0010
0010
,
0001
0000
0010
0000
,
0100
0000
1000
0000
,
0002
0000
0103
0000
,
0010
0000
1000
0000
,
0100
0000
0010
0000
,
0001
0000
1000
0000
,
0200
0000
0310
0000
,
0100
0000
1000
0000
,
0010
0000
0100
0000
,
0001
0000
0000
0000
,
1000
0000
0010
0000
,
0100
0000
0001
0000
,
2000
0000
3001
0000
,
1000
0000
0000
0000
,
0010
0000
1000
0000
,
0010
0000
0100
0000
,
0001
0000
0010
0000
,
0100
0000
1000
1000
,
1000
0000
0001
0000
,
0100
0000
0010
0000
,
0200
0000
0310
0000
,
0100
0000
0000
0000
,
0001
0000
0010
0000
,
0100
0000
1000
0000
,
0010
0000
0100
0000
,
0001
0000
0100
0000
,
0010
0000
0010
0000
,
0100
0000
0100
0000
,
0001
0000
1000
0000
,
0100
0000
0010
0000
,
0001
0000
0001
0000
,
1000
0000
1000
0000
,
0100
0000
0010
0000
,
0100
0000
1000
0000
,
0002
0000
0000
0000
,
0003
0000
0000
0000
;

//---------------dance-single - ----------------
#NOTEDATA:;
#CHARTNAME:;
#STEPSTYPE:dance-single;
#DESCRIPTION:;
#CHARTSTYLE:;
#DIFFICULTY:Medium;
#METER:4;
#RADARVALUES:0.276107,0.281676,0.043926,0.098834,0.000000,176.000000,172.000000,4.000000,9.000000,0.000000,0.000000,0.000000,0.000000,0.000000,0.276107,0.281676,0.043926,0.098834,0.000000,176.000000,172.000000,4.000000,9.000000,0.000000,0.000000,0.000000,0.000000,0.000000;
#CREDIT:;
#NOTES:
0000
0000
0000
0000
,
0000
0000
0000
0000
,
0000
0000
0000
0000
,
0000
0000
0000
0000
,
1000
0000
0100
0000
,
0010
0010
0010
0010
,
0001
0000
0100
0000
,
0020
0000
0100
0100
,
0130
0010
0100
0100
,
0010
0100
0010
0010
,
1000
0000
0100
0000
,
0001
0000
0010
0000
,
1000
0001
1000
1000
,
0001
1000
0001
0001
,
0010
0000
1000
0000
,
0100
0000
0001
0000
,
1000
0100
0010
0010
,
0001
0100
1000
0100
,
0001
0000
1000
0000
,
0100
0000
0010
0000
,
0001
0010
0100
0100
,
1000
0010
0001
0010
,
1000
0000
1000
0000
,
0001
0000
0001
0000
,
2000
0010
3100
1000
,
0001
0000
0001
0000
,
1001
0000
0110
0000
,
1000
0100
0010
0001
,
0020
0100
0031
0010
,
0100
0000
1000
0000
,
1100
0000
0101
0000
,
0100
0001
1000
1000
,
0001
0100
0010
0010
,
1000
0001
0010
0100
,
2000
0100
3002
0103
,
0001
1000
0010
0100
,
0001
1000
0100
0100
,
0010
0100
1000
0001
,
0100
0010
0001
0010
,
0100
0001
1000
1000
,
0001
0010
0100
0100
,
1000
0010
0100
0001
,
0200
0001
0320
1030
,
0010
0100
0010
1000
,
0001
0010
0200
1300
,
0010
0100
0010
1000
,
0100
0010
1000
0010
,
0100
1000
0001
0001
,
0100
0010
0100
0100
,
0010
0100
0010
0010
,
1000
0000
0100
0000
,
0001
0000
0010
0000
,
1000
0001
1000
1000
,
0001
1000
0001
0001
,
1000
0000
0010
0000
,
0001
0000
0100
0000
,
2000
0000
0000
0000
,
3000
0000
0000
0000
;

//---------------dance-single - ----------------
#NOTEDATA:;
#CHARTNAME:;
#STEPSTYPE:dance-single;
#DESCRIPTION:;
#CHARTSTYLE:;
#DIFFICULTY:Hard;
#METER:7;
#RADARVALUES:0.481618,0.532055,0.461224,0.274538,0.038435,307.000000,265.000000,42.000000,25.000000,0.000000,0.000000,0.000000,0.000000,0.000000,0.481618,0.532055,0.461224,0.274538,0.038435,307.000000,265.000000,42.000000,25.000000,0.000000,0.000000,0.000000,0.000000,0.000000;
#CREDIT:;
#NOTES:
// measure 0
0000
0000
0000
0000
,  // measure 1
0000
0000
0000
0000
,  // measure 2
0000
0000
0000
0000
,  // measure 3
0000
0000
0000
0000
,  // measure 4
0001
0100
0000
1000
0000
0100
0000
0001
,  // measure 5
1000
0100
0010
0001
,  // measure 6
1000
0010
0000
0001
0000
0010
0000
1000
,  // measure 7
2002
3000
0100
1003
,  // measure 8
1001
0000
0001
0010
0100
0000
1100
0000
,  // measure 9
1001
0000
1000
0010
0100
0000
0101
0000
,  // measure 10
2001
0010
0100
0001
,  // measure 11
3002
0100
0010
1003
,  // measure 12
1001
0000
0001
0100
0010
0000
1010
0000
,  // measure 13
1001
0000
1000
0100
0010
0000
0011
0000
,  // measure 14
2001
0100
0010
0001
,  // measure 15
3002
0000
0000
0000
0010
0000
0000
0000
0103
0000
0000
0001
0000
0000
1000
0000
,  // measure 16
0000
0001
0010
0100
0000
0010
0000
0001
,  // measure 17
0100
0000
0000
0100
0000
0000
0100
0000
0010
0000
0000
0010
0000
0000
0000
0000
,  // measure 18
1000
0001
0100
0010
0000
0110
0000
0000
,  // measure 19
0001
1000
0100
0010
0000
0110
0000
0000
,  // measure 20
0001
0100
0000
1000
0000
0100
0000
0001
,  // measure 21
0010
0000
0000
0010
0000
0000
0010
0000
0100
0000
0000
0100
0000
0000
0000
0000
,  // measure 22
1000
0010
0100
0000
0001
0010
0100
0000
,  // measure 23
0010
0001
0100
0010
0000
0010
0000
0010
,  // measure 24
0100
0001
0100
0001
0100
0001
0010
0100
,  // measure 25
0000
0010
0000
0001
0000
0000
0000
0000
,  // measure 26
1000
0020
0200
0300
1030
0200
0020
0030
,  // measure 27
1300
0000
0010
0000
0100
0000
0010
0000
1000
0000
0000
0001
0000
0000
0100
0000
,  // measure 28
0010
1000
0010
1000
0010
1000
0100
0010
,  // measure 29
0000
0100
0000
1000
0000
0000
0000
0000
,  // measure 30
0001
0100
0010
0000
1000
0100
0010
0000
,  // measure 31
0001
0100
0000
0000
0110
0000
1001
0000
,  // measure 32
0001
0010
0100
0010
0001
0000
0011
0000
,  // measure 33
1000
0010
0100
0001
0100
0000
0010
0000
,  // measure 34
0220
0000
0000
0330
2002
3003
1000
0100
,  // measure 35
0000
0001
0000
0100
0010
0001
0000
1000
,  // measure 36
0001
0100
0010
0100
0001
0000
0101
0000
,  // measure 37
1000
0100
0010
0001
0010
0000
0100
0000
,  // measure 38
0010
0001
1000
0010
0000
0110
0000
0011
,  // measure 39
0000
1001
0000
0001
0010
0100
0010
0100
,  // measure 40
1000
0010
0100
0010
1000
0000
1010
0000
,  // measure 41
1000
0100
0010
0001
0010
0000
0100
0000
,  // measure 42
0220
0000
0000
0330
2002
3003
1000
0010
,  // measure 43
0000
0001
0000
0010
0100
0001
0000
1000
,  // measure 44
0001
0010
0100
0210
0000
0000
1300
0000
,  // measure 45
0001
0100
0010
1000
0010
0100
1000
0000
,  // measure 46
0100
0001
0010
0100
0000
0110
0000
1100
,  // measure 47
0000
1001
0000
1000
1010
0000
0110
0000
,  // measure 48
1001
0000
1000
0100
0010
0000
0011
0000
,  // measure 49
1001
0000
0001
0100
0010
0000
1010
0000
,  // measure 50
1002
0100
0010
1000
,  // measure 51
2003
0010
0100
3001
,  // measure 52
1001
0000
0001
0010
0100
0000
1100
0000
,  // measure 53
1001
0000
1000
0010
0100
0000
0101
0000
,  // measure 54
2001
0010
0100
0001
,  // measure 55
3002
0000
0000
0000
0100
0000
0000
0000
0013
0000
0000
0001
0000
0000
1000
0000
,  // measure 56
2002
0000
0000
0000
,  // measure 57
3003
0000
0000
0000
;

//---------------dance-single - ----------------
#NOTEDATA:;
#CHARTNAME:;
#STEPSTYPE:dance-single;
#DESCRIPTION:;
#CHARTSTYLE:;
#DIFFICULTY:Challenge;
#METER:9;
#RADARVALUES:0.580452,0.688542,0.428280,0.131778,0.280029,370.000000,331.000000,39.000000,12.000000,0.000000,0.000000,0.000000,0.000000,0.000000,0.580452,0.688542,0.428280,0.131778,0.280029,370.000000,331.000000,39.000000,12.000000,0.000000,0.000000,0.000000,0.000000,0.000000;
#CREDIT:;
#NOTES:
// measure 0
0000
0000
0000
0000
,  // measure 1
0000
0000
0000
0000
,  // measure 2
0000
0000
0000
0000
,  // measure 3
0000
0000
0000
0000
,  // measure 4
1000
0001
0010
0100
1000
0100
0010
0100
,  // measure 5
1000
0000
0000
0010
0000
0000
0100
0000
0001
0000
0000
1000
0000
0000
0001
0000
,  // measure 6
0100
0010
0100
0010
1000
0010
1000
0001
,  // measure 7
2002
0003
0010
0100
,  // measure 8
3001
0000
0000
0001
0000
0000
0100
0000
0010
0000
0000
0010
0000
0000
1000
0010
,  // measure 9
1000
0000
0000
1000
0000
0000
0100
0000
0010
0000
0000
0010
0000
0000
0001
0000
,  // measure 10
1000
0000
0000
0100
0000
0000
0001
0000
0100
0000
0000
0010
0000
0000
0001
0000
,  // measure 11
1000
0000
0000
0010
0000
0000
0001
0000
0010
0000
0000
0100
0000
0000
0001
0000
,  // measure 12
1000
0000
0000
1000
0000
0000
0100
0000
0010
0000
0000
0010
0000
0000
0001
0010
,  // measure 13
0001
0000
0000
0001
0000
0000
0100
0000
0010
0000
0000
0010
0000
0000
1000
0000
,  // measure 14
0001
0000
0000
0100
0000
0000
1000
0000
0100
0000
0000
0010
0000
0000
1000
0000
,  // measure 15
0001
0000
0000
0010
0000
0000
1000
0000
0010
0000
0000
0110
0000
0000
1001
0000
,  // measure 16
0000
0001
0100
0010
0001
0010
1000
0100
,  // measure 17
0010
0000
0000
0100
0000
0000
1000
0000
0010
0000
0000
0100
0000
0000
0001
0000
,  // measure 18
0100
0010
0001
0011
0000
1010
0001
0010
,  // measure 19
0100
0010
1000
1010
0000
0011
1000
0010
,  // measure 20
0100
0101
0000
0110
0000
1010
0000
1001
,  // measure 21
0001
0000
0000
0100
0000
0000
0010
0000
1000
0000
0000
0010
0000
0000
0100
0000
,  // measure 22
0001
0010
1000
0000
0001
0100
1000
0000
,  // measure 23
0001
0100
1000
0100
0001
1000
0100
0000
,  // measure 24
1100
0100
0110
0010
0011
0001
0100
0010
,  // measure 25
0000
0100
0000
0001
0000
0000
0000
0000
,  // measure 26
1000
0200
0001
0000
0301
0200
1000
0000
,  // measure 27
1300
0000
0010
0000
0001
0000
0010
0000
1000
0000
0000
0001
0000
0000
0010
0000
,  // measure 28
0011
0010
0110
0100
1100
1000
0010
0100
,  // measure 29
0000
0010
0000
1000
0000
0000
0000
0000
,  // measure 30
0001
0000
0010
0000
0100
0010
0100
0010
0100
0000
1000
0000
0001
1000
0001
1000
,  // measure 31
0001
0100
0000
0000
0110
0000
1001
0000
,  // measure 32
1000
0100
0001
0100
0010
0100
0010
0001
,  // measure 33
0100
0010
0001
0010
1000
0100
0010
0001
,  // measure 34
0021
0000
1000
0030
1020
0000
0031
0100
,  // measure 35
0000
0010
0000
0001
0010
1000
0000
0001
,  // measure 36
0000
1000
0100
0010
1000
0010
0100
1000
,  // measure 37
0001
0100
1000
0100
0010
1000
0100
0010
,  // measure 38
0011
0100
1000
1010
0000
1100
0000
0101
,  // measure 39
0000
0000
0011
0000
0000
0000
0001
0000
1000
0001
1000
0001
0100
0010
0100
0010
,  // measure 40
1000
0010
0001
0010
0100
0010
0100
0001
,  // measure 41
0010
0100
0001
0100
1000
0010
0100
0001
,  // measure 42
0201
0000
1000
0300
1200
0000
0301
0010
,  // measure 43
0000
0100
0000
0001
0100
1000
0000
0001
,  // measure 44
0000
1000
0010
0200
2000
3300
0110
0000
,  // measure 45
0001
1000
0100
0001
0100
0010
0001
0000
,  // measure 46
0011
0100
1000
1010
0000
1100
0000
0101
,  // measure 47
0000
0011
0000
0001
1010
0000
1100
0000
,  // measure 48
0001
0000
0000
0001
0000
0000
0100
0000
0010
0000
0000
0010
0000
0000
1000
0010
,  // measure 49
1000
0000
0000
1000
0000
0000
0100
0000
0010
0000
0000
0010
0000
0000
0001
0000
,  // measure 50
1000
0000
0000
0100
0000
0000
0001
0000
0100
0000
0000
0010
0000
0000
0001
0000
,  // measure 51
1000
0000
0000
0010
0000
0000
0001
0000
0010
0000
0000
0100
0000
0000
0001
0000
,  // measure 52
1000
0000
0000
1000
0000
0000
0100
0000
0010
0000
0000
0010
0000
0000
0001
0010
,  // measure 53
0001
0000
0000
0001
0000
0000
0100
0000
0010
0000
0000
0010
0000
0000
1000
0000
,  // measure 54
0001
0000
0000
0100
0000
0000
1000
0000
0100
0000
0000
0010
0000
0000
1000
0000
,  // measure 55
0001
0000
0000
0010
0000
0000
1000
0000
0010
0000
0000
0110
0000
0000
1001
0000
,  // measure 56
2002
0000
0000
0000
,  // measure 57
3003
0000
0000
0000
;

//---------------dance-single - ----------------
#NOTEDATA:;
#CHARTNAME:;
#STEPSTYPE:dance-single;
#DESCRIPTION:;
#CHARTSTYLE:;
#DIFFICULTY:Easy;
#METER:3;
#RADARVALUES:0.177273,0.250379,0.000000,0.230612,0.000000,113.000000,113.000000,0.000000,21.000000,0.000000,0.000000,0.000000,0.000000,0.000000,0.177273,0.250379,0.000000,0.230612,0.000000,113.000000,113.000000,0.000000,21.000000,0.000000,0.000000,0.000000,0.000000,0.000000;
#CREDIT:;
#NOTES:
0000
0000
0000
0000
,
0000
0000
0000
0000
,
0000
0000
0000
0000
,
0000
0000
0000
0000
,
2000
0000
0000
0000
,
0001
0000
0001
0000
,
3020
0000
0000
0000
,
0230
0000
0010
0010
,
0320
0000
0000
0000
,
1000
0000
0000
0000
,
0230
0000
0000
0000
,
0302
0000
0000
0000
,
2003
0000
0000
0000
,
0010
0000
0000
0000
,
3200
0000
0000
0000
,
2300
0000
0000
0000
,
3001
0000
0100
0000
,
0010
0010
0010
0010
,
1000
0000
0100
0000
,
0010
0000
0001
0000
,
0100
0000
0010
0000
,
1000
1000
1000
1000
,
0001
0000
0100
0000
,
0010
0000
0000
0000
,
0100
0001
1000
0000
,
0100
0100
0100
0000
,
0020
0030
0002
0003
,
1000
0001
1000
0000
,
0001
0100
0010
0000
,
0100
0100
0100
0000
,
0001
0000
1000
0000
,
0100
0000
0010
0010
,
0001
1000
0100
0000
,
1000
0001
0100
0000
,
0020
0000
0130
0000
,
0001
1000
0100
0000
,
0010
0100
1000
0000
,
0001
0100
0010
0000
,
0100
0100
0001
0000
,
1000
0001
0010
0010
,
0100
1000
0001
0000
,
1000
0010
0100
0000
,
0020
0000
0130
0000
,
0001
0010
0100
0000
,
1000
0010
0200
0310
,
1000
0000
0100
0000
,
0010
0001
0100
0000
,
0010
1000
0100
0100
,
0020
0000
0000
0000
,
0001
0000
0000
0000
,
0230
0000
0000
0000
,
2300
0000
0000
0000
,
3002
0000
0000
0000
,
0100
0000
0000
0000
,
2003
0000
0000
0000
,
3020
0000
0000
0000
,
0230
0000
0000
0000
,
0300
0000
0000
0000
;
