#TITLE:Call of the Wind;
#SUBTITLE:;
#ARTIST:Xandria;
#TITLETRANSLIT:;
#SUBTITLETRANSLIT:;
#ARTISTTRANSLIT:;
#GENRE:;
#CREDIT:;
#BANNER:;
#BACKGROUND:Call of the Wind-bg.png;
#LYRICSPATH:;
#CDTITLE:;
#MUSIC:[ROUND J] - Call of the Wind.ogg;
#OFFSET:-0.076000;
#SAMPLESTART:49.700001;
#SAMPLELENGTH:14.700000;
#SELECTABLE:YES;
#BPMS:0.000000=130.000000
,104.000000=65.000000
,106.000000=130.000000
,175.994792=65.000000
,176.994792=130.000000
,178.994792=65.000000
,179.994792=130.000000
,181.994792=65.000000
,182.994792=130.000000
;
#STOPS:
;
#BGCHANGES:;
#KEYSOUNDS:;
#ATTACKS:;

//---------------dance-single - ----------------
#NOTES:
     dance-single:
     :
     Hard:
     8:
     0.542325,0.525675,0.399608,0.390094,0.689800,316.000000,42.000000,41.000000,0.000000,0.000000,0.000000,0.542325,0.525675,0.399608,0.390094,0.689800,316.000000,42.000000,41.000000,0.000000,0.000000,0.000000:
// measure 0
0000
0000
0000
0000
,  // measure 1
0000
0000
0000
0000
,  // measure 2
0000
0000
0000
0000
,  // measure 3
0000
0000
0000
0000
,  // measure 4
1000
0000
1000
0001
0000
0001
0100
0010
1000
0002
0000
0000
,  // measure 5
0013
0000
0010
0001
0000
0001
0100
0010
1000
0200
0000
0000
,  // measure 6
0310
0000
0010
0001
0000
0001
0100
0010
1000
0001
0000
1000
,  // measure 7
0001
0010
0001
0010
0100
0010
0100
1000
0001
0200
0000
0000
,  // measure 8
0301
0010
0001
0010
0000
0000
0100
1000
0100
1000
0000
0000
,  // measure 9
0010
1000
0010
1000
0000
0000
0001
0100
0001
0100
0000
0000
,  // measure 10
0110
0000
1000
0001
0000
0000
0010
0000
0010
0100
0000
0000
,  // measure 11
1000
0000
1000
0001
0000
0000
0100
0000
0010
1000
0010
0100
,  // measure 12
0001
0000
1000
0100
0000
0000
0010
0000
0001
1000
0000
0000
,  // measure 13
0010
0000
0100
0001
0000
0000
0010
0000
0001
0100
0000
0000
,  // measure 14
0010
0000
0010
1000
0000
0000
0001
0000
0001
1000
0000
0000
,  // measure 15
0100
0000
0100
0010
0000
0000
0001
0000
0010
0100
0010
0001
,  // measure 16
1000
0000
0010
0100
0000
0000
0001
0000
1000
0100
0000
0000
,  // measure 17
1000
0000
0001
0010
0001
0010
0100
0010
0100
1000
0001
1000
,  // measure 18
0001
0000
0100
0000
0010
0000
1010
0000
1001
0000
1100
0000
,  // measure 19
0100
0000
0010
0000
0001
0000
0012
0000
1000
0000
0103
0000
,  // measure 20
0001
0000
1000
0000
0100
0000
1100
0000
0110
0000
0011
0000
,  // measure 21
0002
0010
2003
0010
,  // measure 22
3001
0000
0100
0000
0010
0000
1010
0000
1001
0000
1100
0000
,  // measure 23
0100
0000
0010
0000
0001
0000
1001
0000
0101
0000
0110
0000
,  // measure 24
2010
3001
0012
1003
,  // measure 25
1010
1100
0101
0012
,  // measure 26
1003
0000
0000
0000
0000
0000
0000
0000
0000
0002
0000
0000
0103
0000
0000
0000
0010
0000
1000
0000
0010
0000
1000
0000
,  // measure 27
0001
0000
0010
0001
0010
0001
1000
0000
0100
0000
0010
0000
,  // measure 28
0002
0000
0000
0013
0000
0100
1000
0000
0001
0100
0010
0100
,  // measure 29
0010
0000
1000
0100
0010
0100
0010
0000
0001
0000
1000
0000
,  // measure 30
0020
0000
0000
0130
0000
0000
0001
0000
0100
0000
0010
0000
,  // measure 31
1000
0000
0100
0000
0010
0000
0011
0000
0110
0000
1100
0000
,  // measure 32
1002
0000
0000
0103
0000
0000
0010
0000
1000
0000
0001
0000
,  // measure 33
0020
0000
0000
0030
0100
0000
1100
0000
0101
0000
0110
0000
,  // measure 34
2002
0000
0000
3003
0000
0000
0001
0000
0100
0010
0100
0001
,  // measure 35
1000
0000
0001
0010
0100
1000
0001
0000
0100
0000
0010
0000
,  // measure 36
2000
0000
0000
3001
1000
0100
0010
0000
0010
0001
0100
0010
,  // measure 37
1000
0000
1000
0100
0010
0001
1000
0000
0010
0000
0100
0000
,  // measure 38
0002
0000
0000
1003
0000
0000
0001
0000
0100
0000
1000
0000
,  // measure 39
0100
0000
0001
0000
1000
0000
1100
0000
0110
0000
0011
0000
,  // measure 40
1002
0000
0000
0103
0000
0000
0010
0000
1000
0000
0100
0000
,  // measure 41
0020
0000
0000
0030
0100
0000
1100
0000
1010
0000
0101
0000
,  // measure 42
2002
0003
3002
2003
,  // measure 43
3020
0000
0000
0230
0000
0000
0301
0010
0100
1000
0000
0000
,  // measure 44
0002
0000
0000
0003
0000
0000
1000
0000
0100
0000
0010
0000
0001
0000
0000
0000
0000
0000
2000
0000
0000
3000
0000
0000
,  // measure 45
0010
0000
1000
0000
0100
0000
0010
0000
0000
0000
0000
0000
0200
0000
0000
0300
0000
0000
0022
0000
0000
0000
0000
0000
,  // measure 46
0033
0000
0000
1100
0000
0000
0101
0000
0000
1000
0100
0010
,  // measure 47
0001
0000
0000
1000
0000
0000
1000
0000
0000
0001
0010
0100
,  // measure 48
1000
0000
0000
0010
0000
0000
0010
0000
0000
0100
0001
1000
,  // measure 49
0100
0010
0010
0012
,  // measure 50
0000
2003
3020
0230
,  // measure 51
0001
0302
1000
2003
,  // measure 52
0100
3200
0010
0320
,  // measure 53
0001
0000
0000
0031
0000
1000
0000
0010
0000
0220
0000
0000
,  // measure 54
0000
0000
0000
0000
0000
0000
0330
0000
0000
1000
0000
0001
,  // measure 55
0000
1000
0000
1001
0000
0000
0000
0000
0000
0000
0000
0000
;

//---------------dance-single - ----------------
#NOTES:
     dance-single:
     :
     Challenge:
     9:
     0.686401,0.762228,0.256891,0.352036,1.000000,441.000000,27.000000,37.000000,0.000000,0.000000,0.000000,0.686401,0.762228,0.256891,0.352036,1.000000,441.000000,27.000000,37.000000,0.000000,0.000000,0.000000:
// measure 0
0000
0000
0000
0000
,  // measure 1
0000
0000
0000
0000
,  // measure 2
0000
0000
0000
0000
,  // measure 3
0000
0000
0000
0000
,  // measure 4
0001
0100
0001
0010
0100
0010
0001
0100
0010
2000
0000
0000
,  // measure 5
3100
0010
0100
1000
0010
1000
0100
0010
0001
0200
0000
0000
,  // measure 6
0310
0100
0010
1000
0100
1000
0010
0001
0010
1000
0100
1000
,  // measure 7
0001
0010
0001
0100
0010
0100
0001
0010
0100
2000
0000
0000
,  // measure 8
3010
1000
0100
0001
0000
0000
0001
0100
1000
0010
0000
0000
,  // measure 9
0100
0001
0010
1000
0010
0010
1000
0010
0001
0200
0000
0000
,  // measure 10
0310
0000
0010
1000
0000
0100
0010
0000
0010
0001
0000
0100
,  // measure 11
0010
0000
0010
1000
0000
0100
0010
0000
0001
0000
1000
0000
,  // measure 12
0010
0000
0010
0100
0000
0100
0001
0000
0001
1000
0000
0100
,  // measure 13
0010
0000
0010
0001
0000
0001
1000
0000
1000
0010
0000
0100
,  // measure 14
0001
0000
0001
1000
0000
0100
1000
0000
1000
0001
0000
0010
,  // measure 15
0001
0000
0001
0100
0000
0100
1000
0000
1000
0100
0000
0100
,  // measure 16
0001
0000
0001
0010
0000
0010
0100
0000
1000
0001
0000
0100
,  // measure 17
0010
0000
0010
1000
0100
0010
0001
0010
0100
1000
0001
1000
,  // measure 18
0001
0100
0001
0100
0001
0100
0010
1000
0100
0010
0001
1000
,  // measure 19
0100
1000
0100
1000
0100
1000
0001
0100
0010
1000
0100
0010
,  // measure 20
0001
1000
0001
1000
0001
1000
0010
0100
0001
0010
0100
0010
,  // measure 21
0200
0000
0000
0001
0000
0000
2300
0000
0000
3001
0000
0001
,  // measure 22
1000
0100
1000
0100
1000
0100
0010
0001
0100
0010
1000
0001
,  // measure 23
0100
0001
0100
0001
0100
0001
0100
0010
1000
0100
0010
0001
,  // measure 24
2000
0000
0000
3001
1000
0001
0011
0000
0000
0110
0000
0000
,  // measure 25
1100
1010
0110
0101
,  // measure 26
0001
0010
0001
1000
0010
1000
0100
0010
0100
2000
0000
0000
3010
0000
0000
0000
1000
0000
0100
0000
0001
0000
0100
0000
,  // measure 27
1000
0000
0010
0001
0010
1000
0001
0000
0010
0000
0100
0000
,  // measure 28
2000
0000
0000
3001
1000
0010
0001
0000
0001
0010
1000
0001
,  // measure 29
0010
0000
0010
0100
1000
0001
0100
0000
1000
0000
0100
0000
,  // measure 30
0002
0000
0000
0013
0100
0010
0001
0100
0010
1000
0100
0010
,  // measure 31
0001
0010
0100
1000
0010
0100
0001
1000
0100
1000
0001
0100
,  // measure 32
0020
0000
0000
1030
0000
0000
1000
0100
1000
0100
1000
0100
,  // measure 33
0020
0000
0000
0031
0010
0001
1000
0010
0001
0010
1000
0100
,  // measure 34
0020
0000
0031
0010
0100
1000
0001
0000
0001
0100
1000
0100
,  // measure 35
0001
0000
0010
1000
0010
0001
1000
0000
0010
0000
0100
0000
,  // measure 36
0002
0000
0000
1003
0001
0010
1000
0000
1000
0010
0001
1000
,  // measure 37
0010
0000
0010
0100
0001
1000
0100
0000
0001
0000
0100
0000
,  // measure 38
2000
0000
3000
0010
0100
0010
1000
0100
0010
0001
0100
0010
,  // measure 39
1000
0010
0100
0001
0010
0100
1000
0001
0100
0001
1000
0100
,  // measure 40
0020
0000
0000
0031
0000
0000
0001
0100
0001
0100
0001
0100
,  // measure 41
0020
0000
0000
1030
0001
1000
1100
0000
0101
0000
0110
0000
,  // measure 42
1002
0000
0000
0000
0000
0000
0000
0000
0000
0000
0000
0000
1003
0010
1000
0010
1000
0000
0010
0000
0100
0000
0001
0000
,  // measure 43
1000
0100
0010
0001
1000
0010
0100
0100
0100
0100
0000
0000
,  // measure 44
0020
2030
3002
0013
0010
0010
0010
0000
0000
0002
0023
0230
,  // measure 45
1300
1000
1000
1000
0000
0000
0002
0203
0301
2002
0000
0000
,  // measure 46
3003
0000
0000
1100
0000
0000
0011
0000
0000
0010
0001
0100
,  // measure 47
1000
0000
0000
0100
0000
0000
0100
0000
0000
0010
1000
0100
,  // measure 48
0001
0000
0000
0100
0000
0000
0100
0000
0000
0010
0001
0100
,  // measure 49
1000
0100
0100
0220
,  // measure 50
0330
1010
0101
1002
,  // measure 51
0013
0100
0010
0002
0000
0000
0103
0010
1000
1002
0000
0000
,  // measure 52
0013
0100
1000
0020
0000
0000
0130
0001
0100
2100
0000
0000
,  // measure 53
3100
0010
1000
1100
0000
0110
0000
0011
0000
2002
0000
0000
,  // measure 54
0000
0000
0000
0000
0000
0000
3003
0000
0000
1100
0000
0101
,  // measure 55
0000
0110
0000
1001
0000
0000
0000
0000
0000
0000
0000
0000
;

//---------------dance-single - ----------------
#NOTES:
     dance-single:
     :
     Medium:
     6:
     0.432229,0.420540,0.066601,0.599412,0.451938,248.000000,7.000000,63.000000,0.000000,0.000000,0.000000,0.432229,0.420540,0.066601,0.599412,0.451938,248.000000,7.000000,63.000000,0.000000,0.000000,0.000000:
0000
0000
0000
0000
,
0000
0000
0000
0000
,
0000
0000
0000
0000
,
0000
0000
0000
0000
,
1000
0000
0000
0010
0000
0000
1000
0000
0100
0020
0000
0000
,
0031
0000
0000
0010
0000
0000
0001
0000
0100
0020
0000
0000
,
1030
0000
0000
0001
0000
0000
0010
0000
0100
2000
0000
0000
,
3001
0000
0001
0100
0000
0100
0010
0000
1000
0002
0000
0000
,
0013
0000
0010
0100
0000
0000
1000
0000
1000
0100
0000
0000
,
1000
0000
1000
0001
0000
0000
0100
0001
0100
0001
0000
0000
,
0200
0000
0000
0310
0000
1000
0002
0000
0000
0013
0000
0001
,
2000
0000
0000
3010
0000
1000
0001
0000
0010
0000
0100
0000
,
2000
0010
0001
3200
,
0320
0000
0000
0001
0000
0000
1000
0000
0000
0130
0000
0010
,
0002
0000
0000
0103
0000
0010
2000
0000
0000
3100
0000
1000
,
0002
0023
0230
2300
,
3002
0010
1000
0203
,
0320
0001
0100
1030
,
0001
0000
0001
0000
0001
0000
1000
0000
0100
0000
1000
0000
,
0010
0000
0010
0000
0010
0000
2000
0000
0000
0100
0000
0000
,
3100
0000
0100
0000
0100
0000
0010
0000
0001
0000
1000
0000
,
0020
0100
0230
0000
,
0301
0000
0100
0000
0001
0000
1000
0000
0001
0000
1000
0000
,
0100
0000
1000
0000
0100
0000
0020
0000
0001
0000
0031
0000
,
2002
3003
0002
0023
,
0032
0203
0320
2030
,
3001
0000
0000
0000
0000
0000
2000
0000
0000
3000
0100
0000
,
0020
0000
0000
0030
0001
1000
0001
0000
0100
0000
0010
0000
,
2000
0000
0000
3000
0000
0001
0020
0000
0000
0030
0100
0000
,
2000
0000
0000
3000
0010
0000
0100
0000
0001
0000
1000
0000
,
0002
0000
0000
0003
0000
0000
0010
0000
0100
0000
0010
0000
,
0001
0000
1000
0000
0001
0000
0100
0000
0010
0000
1000
0000
,
0002
0000
0000
1003
0000
0000
0001
0000
0100
0000
0001
0000
,
2000
0000
0000
3000
0100
0000
1000
0000
0010
0000
0100
0000
,
0220
0000
0000
0330
0000
0000
2000
0000
0000
3000
0010
0000
,
0002
0000
0003
0000
1000
0001
1000
0000
0001
0000
0010
0000
,
0200
0000
0000
1300
0000
0001
0200
0000
0000
0300
0010
0000
,
2000
0000
0000
3000
0100
0000
0010
0000
0100
0000
1000
0000
,
0020
0000
0000
0030
0000
0000
0100
0000
0001
0000
0100
0000
,
0010
0000
1000
0000
0010
0000
1000
0000
0100
0000
1000
0000
,
0002
0000
0000
0003
0000
0000
0100
0000
0001
0000
0100
0000
,
0020
0000
0000
0030
1000
0000
0001
0000
0010
0000
0100
0000
,
2200
0300
0100
0100
,
0001
0000
0000
3010
0000
0000
0100
0001
0100
0001
0000
0000
,
0000
0000
0000
1000
0100
1000
0100
0000
0000
0000
0000
0000
,
0010
0001
0010
0001
0000
0000
0000
0000
0000
2002
0000
0000
,
3003
0000
0000
1010
0000
0000
0101
0000
0000
1000
0001
1000
,
0001
0000
0000
0010
0000
0000
0010
0000
0000
0001
1000
0001
,
1000
0000
0000
0010
0000
0000
0010
0000
0000
1000
0001
1000
,
0001
0010
0010
0120
,
0000
0032
2003
3020
,
0100
0230
0001
0302
,
1000
2003
0100
3200
,
0010
0000
0000
0310
0000
0001
0000
2000
0000
0200
0000
0000
,
0000
0000
0000
0000
0000
0000
3300
0000
0000
1000
0000
0010
,
0000
0100
0000
0001
0000
0000
0000
0000
0000
0000
0000
0000
;

//---------------dance-single - ----------------
#NOTES:
     dance-single:
     :
     Easy:
     3:
     0.292230,0.315405,0.114174,0.466209,0.019029,154.000000,12.000000,49.000000,0.000000,0.000000,0.000000,0.292230,0.315405,0.114174,0.466209,0.019029,154.000000,12.000000,49.000000,0.000000,0.000000,0.000000:
0000
0000
0000
0000
,
0000
0000
0000
0000
,
0000
0000
0000
0000
,
0000
0000
0000
0000
,
1000
0100
1000
0002
,
0103
0010
0100
0002
,
1003
0100
1000
0002
,
0013
0100
1000
0002
,
2003
3000
0020
0030
,
0200
0300
0002
0003
,
1000
0000
0100
0000
,
0010
0100
1000
0001
,
0200
0000
0000
0310
,
2000
0000
0000
3100
,
0010
0000
0001
0000
,
1000
0001
0100
0010
,
2000
0000
0000
3001
,
0020
0000
0100
0130
,
1000
0100
0010
0001
,
1000
0010
0110
0110
,
0001
0010
0100
1000
,
0002
0000
2003
0000
,
3010
0100
0001
1000
,
0100
1000
1001
1001
,
0002
0003
0100
0010
,
2000
3200
0320
0032
,
1003
0000
0002
0003
,
0200
0300
0010
1000
,
0002
0003
2000
3000
,
0200
0300
0010
0001
,
2000
3000
0001
0100
,
0010
1000
0001
0010
,
0200
0300
1000
0001
,
0200
0300
0010
1000
,
0200
0300
0020
0030
,
0002
0003
1000
0001
,
0200
0300
0020
0030
,
2000
3000
0001
0010
,
0200
0300
1000
0100
,
0010
0001
1000
0010
,
0200
0300
0001
0100
,
0020
0030
1000
0001
,
2002
0000
0000
0000
,
0000
3003
1001
1001
,
0000
0110
0110
0000
,
1001
1001
0000
0220
,
0330
2000
3002
0103
,
0100
0010
0010
1000
,
1000
0001
0001
0010
,
0010
0100
0100
2000
,
0000
3010
0100
0002
,
0000
2003
0000
3200
,
0000
0320
0000
0032
,
0000
0000
0000
0103
0000
0010
0000
0100
0000
0020
0000
0000
,
0000
0000
0000
0000
0000
0000
0000
0000
0000
1030
0000
0001
,
0000
1000
0000
0001
0000
0000
0000
0000
0000
0000
0000
0000
;

//---------------dance-single - ----------------
#NOTES:
     dance-single:
     :
     Beginner:
     2:
     0.118251,0.183986,0.009514,0.047572,0.000000,81.000000,1.000000,5.000000,0.000000,0.000000,0.000000,0.118251,0.183986,0.009514,0.047572,0.000000,81.000000,1.000000,5.000000,0.000000,0.000000,0.000000:
0000
0000
0000
0000
,
0000
0000
0000
0000
,
0000
0000
0000
0000
,
0000
0000
0000
0000
,
1000
0000
1000
0000
,
0001
0000
0001
0000
,
0100
0000
0100
0000
,
0010
0000
0010
0000
,
1000
0000
0001
0000
,
1000
0000
0001
0000
,
0010
0000
0000
0000
,
0100
0000
0000
0000
,
1000
0000
0000
0000
,
0001
0000
0000
0000
,
0100
0000
0000
0000
,
0010
0000
0000
0000
,
1000
0000
0000
0000
,
0001
0000
0000
0000
,
0010
0000
0010
0000
,
0010
0000
0000
0000
,
0100
0000
0100
0000
,
0100
0000
0000
0000
,
1000
0000
1000
0000
,
1000
0000
0000
0000
,
0001
0000
0001
0000
,
0001
0001
0001
0001
,
0000
0000
1000
0000
,
1000
0000
0100
0000
,
0000
0000
0010
0000
,
0010
0000
0001
0000
,
0000
0000
0001
0000
,
0001
0000
1000
0000
,
1000
0000
0010
0000
,
0000
0000
0100
0000
,
0000
0000
0001
0000
,
0001
0000
1000
0000
,
0000
0000
0100
0000
,
0100
0000
0010
0000
,
0000
0000
0001
0000
,
0001
0000
1000
0000
,
1000
0000
0010
0000
,
0000
0000
0100
0000
,
0200
0000
0300
0000
,
0000
0000
0001
0000
,
0000
1000
0000
0000
,
0001
0000
0000
2000
,
3000
0001
0001
0100
,
0000
0000
0000
0010
,
0000
0000
0000
0100
,
0000
0000
0000
0002
,
0003
1000
1000
1000
,
0000
0001
0000
1000
,
0000
0001
0000
0100
,
0000
0010
0000
0220
,
0000
0330
0000
0001
,
0000
1000
0000
0000
;
