#TITLE:Another Medium;
#SUBTITLE:;
#ARTIST:Toby Fox [Undertale OST];
#TITLETRANSLIT:;
#SUBTITLETRANSLIT:;
#ARTISTTRANSLIT:;
#CREDIT:;
#BANNER:[ROUND J] - Another Medium.png;
#BACKGROUND:[ROUND J] - Another Medium-bg.png;
#LYRICSPATH:;
#CDTITLE:;
#MUSIC:[ROUND J] - Another Medium.mp3;
#OFFSET:-0.160;
#SAMPLESTART:51.74;
#SAMPLELENGTH:12.000;
#SELECTABLE:YES;
#BPMS:0.000=130.000;
#STOPS:;
#BGCHANGES:;

//---------------dance-single - ----------------
#NOTES:
     dance-single:
     :
     Hard:
     8:
     0.373,0.454,0.098,0.232,0.007: // measure 1
0000
0000
0000
0000
,  // measure 2
0000
0000
0000
0000
,  // measure 3
0000
0000
0000
0000
,  // measure 4
0000
0000
0000
0000
,  // measure 5
0001
0100
0001
0010
0001
0100
0001
0010
,  // measure 6
1000
0100
1000
0001
1000
0100
1000
0001
,  // measure 7
1000
0010
0100
0001
0100
0010
0100
0001
,  // measure 8
0010
0100
0010
0001
0010
0100
0010
1000
,  // measure 9
0001
0010
0001
1000
0001
0010
0001
1000
,  // measure 10
0001
0010
0001
1000
0100
0010
0001
0010
,  // measure 11
0100
1000
0010
1000
0001
1000
0010
1000
,  // measure 12
0001
0100
0001
0100
1000
0010
1000
0010
,  // measure 13
0100
0000
0021
0100
,  // measure 14
0130
0000
1200
0010
,  // measure 15
0310
0000
2010
0001
,  // measure 16
3001
0000
0102
1000
,  // measure 17
1003
0000
1020
0100
,  // measure 18
0130
0000
1000
0010
1000
0000
0001
0100
,  // measure 19
0001
0000
0010
0100
0010
0000
0100
0010
,  // measure 20
0100
0000
1000
0010
1000
0010
0100
0010
,  // measure 21
0100
0000
0001
0100
0001
0100
0010
0100
,  // measure 22
0010
0000
1000
0010
1000
0010
1000
0100
,  // measure 23
0001
0000
0001
0100
0001
0100
0010
1000
,  // measure 24
0010
0000
0100
0001
0010
1000
0010
0100
,  // measure 25
0010
0000
1000
0100
0010
0001
1000
0100
,  // measure 26
0010
0000
0001
0010
0100
1000
0001
0010
,  // measure 27
0100
0000
1000
0010
1000
0000
1000
0010
,  // measure 28
1000
0000
0001
0010
0100
1000
0010
0100
,  // measure 29
0001
0000
1000
0020
0000
0000
0000
1030
,  // measure 30
1000
2000
0000
0000
3000
0100
0100
0000
,  // measure 31
0001
0010
0100
2000
0000
0000
0000
3000
,  // measure 32
0010
0020
0000
0000
0001
0000
0031
0000
,  // measure 33
0220
0000
0000
0000
,  // measure 34
0000
0000
0330
1100
,  // measure 35
2200
0000
0000
0000
,  // measure 36
0000
0000
0000
0000
0000
0000
0000
3300
,  // measure 37
0010
0000
0001
0020
0000
0000
0130
0100
,  // measure 38
0001
0002
0000
0000
0000
1000
1003
0000
,  // measure 39
0100
0000
0010
0200
0000
0000
0000
0300
,  // measure 40
1000
2000
0000
3000
0110
0000
0110
0000
,  // measure 41
0002
1000
1000
1000
,  // measure 42
0000
0000
0100
0000
0100
0003
0100
0000
,  // measure 43
2000
0010
0010
0010
,  // measure 44
0000
0001
0001
3001
,  // measure 45
0200
0000
0010
0000
,  // measure 46
0010
0000
0310
0010
,  // measure 47
2001
0000
0001
0000
,  // measure 48
0001
0000
3001
0100
,  // measure 49
0120
0000
0100
0000
,  // measure 50
0100
0000
0130
0000
,  // measure 51
0210
0000
0010
0000
,  // measure 52
0010
0000
0310
0000
,  // measure 53
2000
0100
0010
0100
,  // measure 54
0010
0100
0010
3100
,  // measure 55
0002
0010
0100
0010
,  // measure 56
0100
0010
0100
0013
,  // measure 57
2000
0100
0001
0100
,  // measure 58
0001
0100
0001
3100
,  // measure 59
0002
0010
1000
0010
,  // measure 60
1000
0010
1000
0013
,  // measure 61
1000
0100
0001
1000
0100
0010
0001
1000
,  // measure 62
0000
0000
1000
0100
0001
0010
0100
1000
,  // measure 63
0000
0000
0001
0010
1000
0100
0010
0001
,  // measure 64
0000
0000
1000
0010
1000
0010
0100
0000
,  // measure 65
0001
0100
0001
0100
0010
1000
0010
1000
,  // measure 66
0000
0000
0001
0100
0010
1000
0001
0100
,  // measure 67
0000
0000
1000
0010
0100
0001
1000
0010
,  // measure 68
0000
0000
0001
1000
0001
0100
0010
1000
,  // measure 69
0001
0000
1000
0002
0000
0003
1000
0000
,  // measure 70
0010
0200
0000
0300
0000
0001
0001
0000
,  // measure 71
1000
0000
0010
2000
0000
3000
0001
0000
,  // measure 72
1000
0020
0000
0030
0100
0000
0100
0000
,  // measure 73
0002
0000
0000
0000
,  // measure 74
1000
0000
0000
0000
0000
0000
0000
0000
0000
0000
0003
0000
0000
1001
0000
0000
,  // measure 75
0000
2000
0000
0000
0000
0000
0000
0000
0000
0000
0000
0000
0000
0000
0000
0000
,  // measure 76
0000
0000
0001
0001
,  // measure 77
3000
0000
0000
0000
;

//---------------dance-single - ----------------
#NOTES:
     dance-single:
     :
     Medium:
     6:
     0.275,0.374,0.176,0.246,0.004:
0000
0000
0000
0000
,
0000
0000
0000
0000
,
0000
0000
0000
0000
,
0000
0000
0000
0000
,
0000
0000
0000
0000
,
0001
0100
0010
1000
,
0120
0100
0100
0130
,
2010
0010
0010
3010
,
0201
0001
0001
0001
,
0001
0301
0010
0010
,
1002
0000
1000
0000
1000
0000
1000
0003
,
0010
0100
0010
0100
,
0010
0000
2000
0100
,
3100
0000
0200
0010
,
0310
0000
0020
0001
,
0031
0000
0002
1000
,
1003
0000
0120
0100
,
0130
1000
0010
0001
,
0100
1000
0010
0001
,
0100
0000
0010
0010
0010
0010
0100
0100
,
0100
0001
0001
0011
,
0011
1000
1000
1100
,
1100
0001
0001
0101
,
0101
1000
1010
1010
,
0001
1000
0001
1000
,
0100
0000
0001
0010
0001
0010
0001
0010
,
0001
1000
0001
1000
,
0001
0000
1000
0100
1000
0100
1000
0100
,
1000
0000
0010
0020
0000
0000
0030
0100
,
0200
0000
0000
0000
0300
0010
0100
0000
,
0001
0000
1000
2000
0000
0000
0000
3000
,
0001
0002
0000
0000
0000
0000
0003
0000
,
0010
0100
0010
0100
,
0010
0100
1000
1100
,
2200
0000
0000
0000
,
0000
0000
0000
0000
0000
0000
0000
3300
,
0010
0000
0001
0002
0000
0003
1000
0000
,
1000
2000
0000
0000
3000
0000
0010
0000
,
0100
0000
0010
0020
0000
0000
0000
0030
,
0100
0200
0000
0300
0010
0000
0100
0000
,
0002
0000
0000
0000
,
0000
0000
0000
0000
0000
0003
0100
0000
,
2000
0000
0000
0000
,
0000
0000
0000
3000
,
0200
0000
0000
0000
,
0000
0000
0300
0000
,
2000
0000
0001
0000
,
0001
0000
3001
0000
,
0020
0000
0100
0000
,
0100
0000
0130
0000
,
0200
0000
0010
0000
,
0010
0000
0310
0000
,
2000
0000
0010
0000
,
0010
0000
0010
3000
,
0002
0000
0100
0000
,
0100
0000
0100
0003
,
2000
0000
0001
0000
,
0001
0000
0001
3000
,
0002
0000
1000
0000
,
1000
0000
1000
0003
,
1000
0001
1000
1001
,
1001
0001
1000
1001
,
1001
0010
0100
0110
,
0110
0001
0100
0101
,
0101
1000
0010
1010
,
1010
0000
0100
0100
0100
0100
0100
0100
,
0000
1000
0010
1000
,
0010
0001
0100
0001
,
0100
0000
1000
2000
0000
3000
0010
0000
,
0010
0020
0000
0030
0000
0000
0001
0000
,
0100
0000
1000
2000
0000
3000
0001
0000
,
0010
0020
0000
0030
0000
0000
1000
0000
,
0002
0000
0000
0000
,
1000
0000
0000
0000
0000
0003
0000
0000
,
0000
2000
0000
0000
0000
0000
0000
0000
0000
0000
0000
0000
0000
0000
0000
0000
,
0000
0000
0000
0000
,
3000
0000
0000
0000
;

//---------------dance-single - ----------------
#NOTES:
     dance-single:
     :
     Easy:
     3:
     0.169,0.240,0.007,0.119,0.004:
0000
0000
0000
0000
,
0000
0000
0000
0000
,
0000
0000
0000
0000
,
0000
0000
0000
0000
,
0000
0000
0000
0000
,
0000
0000
0000
0000
,
0000
0000
0000
0000
,
0000
0000
0000
0000
,
1000
1000
0010
0010
,
0001
0001
0100
0100
,
1000
1000
0010
0010
,
0001
0001
0100
0100
,
1000
0000
0010
0000
,
0001
0000
0100
0000
,
1000
0000
0010
0000
,
0001
0000
0100
0000
,
1000
1000
0010
0010
,
0100
0100
0001
0001
,
1000
0010
0010
0100
,
0100
0001
0001
1000
,
0010
1000
0010
1000
,
0010
0100
0001
0100
,
0001
1000
0010
1000
,
0010
1000
0010
1000
,
0001
0100
0001
1000
,
0001
0100
0001
1000
,
0010
0100
0001
1000
,
0010
0100
0001
1000
,
0100
0000
0000
0010
0000
0000
0000
0000
,
0100
0000
0000
0110
,
0001
0000
0000
1000
0000
0000
0000
0000
,
0001
0000
1000
0001
,
0200
0000
0000
0000
,
0000
0000
0000
0300
0000
0000
0010
0000
,
0020
0000
0000
0000
,
0000
0000
0000
0030
,
1000
0000
0000
0002
0000
0003
0000
0000
,
0000
0200
0000
0000
0300
0000
0000
0000
,
0001
0000
0000
2000
0000
0000
3000
0000
,
0020
0000
0000
0030
0000
0000
0000
0000
,
0200
0000
0000
0000
,
0000
0000
0300
0001
,
0002
0000
0000
0000
,
0000
0000
0000
0003
,
1000
0000
0000
0000
,
1000
0000
0000
0000
,
0010
0000
0000
0000
,
0010
0000
0000
0000
,
0200
0000
0000
0000
,
0000
0000
0000
0000
0000
0300
0000
0000
,
0002
0000
0000
0000
,
0000
0000
0000
0000
0000
0003
0000
0000
,
1000
0000
0010
0000
,
1000
0000
0010
0000
,
0002
0000
0000
0000
,
0003
0000
1000
0000
,
2000
0000
0000
0000
,
0000
0000
3000
0000
,
0200
0000
0000
0000
,
0000
0000
0300
0000
,
0010
0010
0010
0010
,
0010
1000
1000
1000
,
1000
0100
0100
0100
,
0100
0001
0001
0001
,
0001
0010
0010
0010
,
0010
0100
0100
0100
,
0100
1000
1000
1000
,
1000
0001
0001
0001
,
0100
0000
0000
0020
0000
0030
0000
0000
,
0000
2000
0000
3000
0000
0000
0001
0000
,
0100
0000
0000
0010
0000
0000
0000
0000
,
1000
0000
0100
0010
,
0002
0000
0000
0000
,
0000
0000
0003
0000
,
0000
2000
0000
0000
0000
0000
0000
0000
0000
0000
0000
0000
0000
0000
0000
0000
,
0000
0000
0000
0000
0000
0000
0000
3000
;

//---------------dance-single - Copied from----------------
#NOTES:
     dance-single:
     Copied from:
     Beginner:
     1:
     0.066,0.080,0.000,0.042,0.004:
0000
0000
0000
0000
,
0000
0000
0000
0000
,
0000
0000
0000
0000
,
0000
0000
0000
0000
,
0001
0000
0000
0000
,
0000
0000
0000
0000
,
1000
0000
0000
0000
,
0000
0000
0000
0000
,
0001
0000
0000
0000
,
0000
0000
0000
0000
,
1000
0000
0000
0000
,
0000
0000
0000
0000
,
0100
0000
0000
0000
,
0010
0000
0000
0000
,
0100
0000
0000
0000
,
0010
0000
0000
0000
,
0100
0000
0000
0000
,
0010
0000
0000
0000
,
0100
0000
0000
0000
,
0010
0000
0000
0000
,
1000
0000
0000
0000
,
0000
1000
0000
0000
,
0000
0001
0000
0000
,
0000
0001
0000
0000
,
0000
1000
0000
0000
,
0000
1000
0000
0000
,
0000
0001
0000
0000
,
0000
0001
0000
0000
,
0000
0000
0000
0100
0000
0000
0000
0000
,
0000
0000
0000
0000
,
0000
0000
0000
0010
0000
0000
0000
0000
,
0000
0000
0000
0000
,
0200
0000
0000
0000
,
0000
0000
0000
0300
0000
0000
0000
0000
,
0020
0000
0000
0000
,
0000
0000
0030
0000
,
1000
0000
0000
0000
,
0000
0001
0000
0000
0000
0000
0000
0000
,
0000
0000
0000
1000
0000
0000
0000
0000
,
0000
0001
0000
0000
0000
0000
0000
0000
,
0200
0000
0000
0000
,
0000
0000
0300
0000
,
0020
0000
0000
0000
,
0000
0000
0000
0000
0000
0030
0000
0000
,
1000
0000
0000
0000
,
1000
0000
0000
0000
,
1000
0000
0000
0000
,
1000
0000
0000
0000
,
0001
0000
0000
0000
,
0001
0000
0000
0000
,
0001
0000
0000
0000
,
0001
0000
0000
0000
,
1000
0000
0000
0000
,
1000
0000
0000
0000
,
1000
0000
0000
0000
,
1000
0000
0000
0000
,
0001
0000
0000
0000
,
0001
0000
0000
0000
,
0001
0000
0000
0000
,
0001
0000
0000
0000
,
0100
0000
0000
0000
,
0100
0000
0000
0000
,
0100
0000
0000
0000
,
0100
0000
0000
0000
,
0100
0000
0000
0000
,
0100
0000
0000
0000
,
0010
0000
0000
0000
,
0000
0010
0000
0000
,
0000
0000
0000
1000
0000
0000
0000
0000
,
0000
0001
0000
0000
0000
0000
0000
0000
,
0000
0000
0000
0100
0000
0000
0000
0000
,
0000
0010
0000
0000
0000
0000
0000
0000
,
2000
0000
0000
0000
,
0000
0000
0000
0000
0000
3000
0000
0000
,
0000
0002
0000
0000
0000
0000
0000
0000
0000
0000
0000
0000
0000
0000
0000
0000
,
0000
0000
0000
0000
0000
0000
0000
0003
;
