#VERSION:0.83;
#TITLE:werewolf howls.;
#SUBTITLE:(1.5x recommended);
#ARTIST:かめりあ;
#TITLETRANSLIT:;
#SUBTITLETRANSLIT:;
#ARTISTTRANSLIT:Camellia;
#GENRE:;
#ORIGIN:;
#CREDIT:;
#BANNER:werewolf howls.png;
#BACKGROUND:werewolf howls-bg.png;
#PREVIEWVID:;
#JACKET:;
#CDIMAGE:;
#DISCIMAGE:;
#LYRICSPATH:;
#CDTITLE:;
#MUSIC:[ROUND I] - werewolf howls..ogg;
#OFFSET:-1.480000;
#SAMPLESTART:17.673588;
#SAMPLELENGTH:17.297300;
#SELECTABLE:YES;
#BPMS:0.000=6.938,
16.500=27.750,
18.000=55.500,
18.500=111.000,
19.000=222.000,
48.000=111.000,
50.000=222.000,
146.000=27.750,
164.000=55.500,
165.000=111.000,
167.000=222.000,
171.000=55.500,
172.000=222.000,
231.000=6.938,
231.375=111.000,
359.000=222.000,
567.000=111.000,
567.250=55.500,
567.625=27.750,
567.875=13.875,
567.938=6.938,
567.979=3.469;
#STOPS:203.500=0.270,
210.500=0.270,
217.500=0.270,
220.500=0.270,
223.500=0.270,
359.000=0.270;
#DELAYS:;
#WARPS:0.125=16.000,
148.000=16.000,
231.375=118.625,
390.000=16.000,
406.500=16.000,
423.000=16.000,
439.500=16.000,
456.000=16.000;
#TIMESIGNATURES:0.000=4=4;
#TICKCOUNTS:0.000=4;
#COMBOS:0.000=1;
#SPEEDS:0.000=1.100=0.000=0;
#SCROLLS:0.000=1.000;
#FAKES:;
#LABELS:0.000=Song Start;
#BGCHANGES:;
#KEYSOUNDS:;
#ATTACKS: TIME=-5.04:LEN=12.97:MODS=Stealth, Dark: TIME=45.40:LEN=3.51:MODS=Stealth: TIME=72.83:LEN=0.81:MODS=Stealth: TIME=113.64:LEN=57.30:MODS=Stealth,Dark;

//---------------dance-single - ----------------
#NOTEDATA:;
#CHARTNAME:ChiselEssiestudy ZSS-H;
#STEPSTYPE:dance-single;
#DESCRIPTION:;
#CHARTSTYLE:;
#DIFFICULTY:Hard;
#METER:10;
#RADARVALUES:0.736667,1.726437,0.243160,0.167697,0.377317,615.000000,586.000000,29.000000,20.000000,22.000000,0.000000,22.000000,0.000000,36.000000,0.736667,1.726437,0.243160,0.167697,0.377317,615.000000,586.000000,29.000000,20.000000,22.000000,0.000000,22.000000,0.000000,36.000000;
#CREDIT:ChiselEssiestudy;
#OFFSET:-1.480000;
#BPMS:0.000000=6.938000
,16.500000=27.750000
,18.000000=55.500000
,18.500000=111.000000
,19.000000=222.000000
,48.000000=111.000000
,50.000000=222.000000
,146.000000=27.750000
,164.000000=55.500000
,165.000000=111.000000
,167.000000=222.000000
,171.000000=55.500000
,172.000000=222.000000
,231.000000=6.938000
,231.375000=111.000000
,359.000000=222.000000
,567.000000=111.000000
,567.250000=55.500000
,567.625000=27.750000
,567.875000=13.875000
,567.937500=6.938000
,567.979187=3.469000
;
#STOPS:203.500000=0.270000
,210.500000=0.270000
,217.500000=0.270000
,220.500000=0.270000
,223.500000=0.270000
,359.000000=0.270000
;
#DELAYS:;
#WARPS:0.125000=16.000000
,148.000000=16.000000
,231.375000=118.625000
,390.000000=16.000000
,406.500000=16.000000
,423.000000=16.000000
,439.500000=16.000000
,456.000000=16.000000
;
#TIMESIGNATURES:0.000000=4=4
;
#TICKCOUNTS:0.000000=4
;
#COMBOS:0.000000=1
;
#SPEEDS:0.000000=1.100000=0.000000=0
;
#SCROLLS:0.000000=1.000000
;
#FAKES:;
#LABELS:0.000000=Song Start
;
#ATTACKS:TIME=-5.040000:LEN=12.970000:MODS=Stealth, Dark:TIME=45.400002:LEN=3.510000:MODS=Stealth:TIME=72.830002:LEN=0.810000:MODS=Stealth:TIME=113.639999:LEN=57.299999:MODS=Stealth,Dark:TIME=-5.040000:LEN=12.970000:MODS=Stealth, Dark:TIME=45.400002:LEN=3.510000:MODS=Stealth:TIME=72.830002:LEN=0.810000:MODS=Stealth:TIME=113.639999:LEN=57.299999:MODS=Stealth,Dark:TIME=-5.040000:LEN=12.970000:MODS=Stealth, Dark:TIME=45.400002:LEN=3.510000:MODS=Stealth:TIME=72.830002:LEN=0.810000:MODS=Stealth:TIME=113.639999:LEN=57.299999:MODS=Stealth,Dark:TIME=-5.040000:LEN=12.970000:MODS=Stealth, Dark:TIME=45.400002:LEN=3.510000:MODS=Stealth:TIME=72.830002:LEN=0.810000:MODS=Stealth:TIME=113.639999:LEN=57.299999:MODS=Stealth,Dark:TIME=-5.040000:LEN=12.970000:MODS=Stealth, Dark:TIME=45.400002:LEN=3.510000:MODS=Stealth:TIME=72.830002:LEN=0.810000:MODS=Stealth:TIME=113.639999:LEN=57.299999:MODS=Stealth,Dark:TIME=-5.040000:LEN=12.970000:MODS=Stealth, Dark:TIME=45.400002:LEN=3.510000:MODS=Stealth:TIME=72.830002:LEN=0.810000:MODS=Stealth:TIME=-5.040000:LEN=12.970000:MODS=Stealth, Dark:TIME=45.400002:LEN=3.510000:MODS=Stealth:TIME=72.830002:LEN=0.810000:MODS=Stealth:TIME=-5.040000:LEN=12.970000:MODS=Stealth, Dark:TIME=45.400002:LEN=3.510000:MODS=Stealth:TIME=72.830002:LEN=0.810000:MODS=Stealth:TIME=-5.040000:LEN=12.970000:MODS=Stealth, Dark:TIME=45.400002:LEN=3.510000:MODS=Stealth:TIME=72.830002:LEN=0.810000:MODS=Stealth:TIME=-5.040000:LEN=12.970000:MODS=Stealth, Dark:TIME=45.400002:LEN=3.510000:MODS=Stealth:TIME=72.830002:LEN=0.810000:MODS=Stealth:TIME=-5.040000:LEN=12.970000:MODS=Stealth, Dark:TIME=45.400002:LEN=3.510000:MODS=Stealth:TIME=72.830002:LEN=0.810000:MODS=Stealth:TIME=-5.023730:LEN=12.970000:MODS=Stealth, Dark:TIME=45.401356:LEN=3.510000:MODS=Stealth:TIME=72.832260:LEN=0.810000:MODS=Stealth;
#NOTES:
// measure 0
0000
0000
0000
0000
,  // measure 1
0000
0000
0000
0000
,  // measure 2
0000
0000
0000
0000
,  // measure 3
0000
0000
0000
0000
,  // measure 4
0000
0000
0000
0000
,  // measure 5
0011
0000
0000
0000
,  // measure 6
0000
0000
0000
0000
,  // measure 7
1001
1010
0000
0000
,  // measure 8
0000
0000
0000
0000
0000
0000
1000
0001
0100
0001
0000
0000
,  // measure 9
1000
0101
0010
0110
,  // measure 10
1000
0000
1001
0000
0010
1001
0101
0000
,  // measure 11
0010
0000
1000
0000
0010
0000
1000
0000
0100
0010
0001
0010
0100
1000
0010
1000
,  // measure 12
0200
0000
0000
0310
0001
1000
0001
0010
,  // measure 13
0001
0010
0100
1000
0001
1000
0001
0100
,  // measure 14
0010
0100
0001
1000
0010
1000
0010
0100
,  // measure 15
0010
1000
0001
1000
0001
1000
0001
0100
,  // measure 16
0010
0000
0000
1000
0100
0000
1000
0001
1000
0001
1000
0000
0010
0000
1000
0000
,  // measure 17
0001
1000
0100
1000
0010
1000
0010
0100
,  // measure 18
0001
1000
0100
0010
0001
1000
0001
0010
,  // measure 19
0001
1000
0100
0010
0001
1000
0100
1000
,  // measure 20
0001
0000
0000
0010
0001
1000
0100
0000
1000
0000
0100
0000
1000
0000
0001
0000
,  // measure 21
0100
0001
1000
0100
1000
0001
0100
0001
,  // measure 22
1000
0000
0000
0001
0000
0000
1000
0000
0000
0001
0000
0000
1000
0000
0100
0000
0010
0000
0001
0000
0000
1000
0000
0000
,  // measure 23
0010
1000
0001
0010
0001
1000
0010
1000
,  // measure 24
0001
0000
0000
0010
0001
0000
1000
0001
0010
0001
0000
0000
1000
0000
0100
0000
,  // measure 25
0000
1000
0001
0100
0000
0010
0100
0000
,  // measure 26
0000
0000
0001
0000
1000
0001
1000
0010
0100
0000
0000
0000
0110
0000
0000
0000
,  // measure 27
1001
0101
1010
1001
,  // measure 28
0011
0000
0000
0000
1100
0000
0000
0000
0101
0000
0000
0100
0000
0000
0001
0000
,  // measure 29
0000
0010
0000
0000
0004
0000
4003
0000
3100
0000
0000
0010
0000
0000
0100
0000
,  // measure 30
000M
0000
0100
0000
0000
0010
0000
0000
1000
0000
0000
0001
0000
0000
0100
0000
,  // measure 31
0000
0010
0000
0000
0400
0000
030M
0000
0000
0000
0100
0000
1000
0000
0010
0000
,  // measure 32
0220
0000
0000
0000
0330
0000
0000
0000
1000
0000
0000
0010
0000
0000
0001
0000
,  // measure 33
0000
0010
0000
0000
4000
0000
3004
0000
0013
0000
0000
0100
0000
0000
0010
0000
,  // measure 34
M000
0000
0010
0000
0000
1000
0000
0000
0100
0000
0000
0001
0000
0000
0100
0000
,  // measure 35
1000
0000
0000
0001
0000
0000
1000
0000
0010
0000
0100
0000
0001
0000
0010
0000
,  // measure 36
0100
1000
0010
0100
0001
0000
0000
0000
0022
0000
0000
0000
0000
0000
0000
0000
,  // measure 37
0033
0000
0000
0000
,  // measure 38
0000
0000
0000
0000
,  // measure 39
0000
0000
0000
0000
,  // measure 40
0000
0000
0000
0000
,  // measure 41
0000
0000
0000
0000
,  // measure 42
0000
0000
0000
0000
1000
0100
1000
0001
0100
0001
0010
0001
2000
0000
0000
3000
,  // measure 43
0001
1000
0001
1000
0100
1000
0100
0010
,  // measure 44
0001
1000
0001
1000
0040
4000
0000
3030
,  // measure 45
0001
1000
0001
0100
0001
0010
0001
1000
,  // measure 46
0001
1000
0001
0100
0010
1000
0010
0100
,  // measure 47
0001
1000
0001
0010
0001
0100
0010
1000
,  // measure 48
0001
1000
0001
1000
0004
0040
0000
0033
,  // measure 49
0001
1000
0001
0100
0001
0100
0010
0100
,  // measure 50
0001
0000
1000
0000
0100
0000
0010
0000
0100
0000
0000
1000
0001
0000
MM10
0000
,  // measure 51
0110
1000
0001
1000
0100
0010
0001
1000
,  // measure 52
0001
0000
0000
1000
0000
0000
0040
0000
0000
4000
0000
0000
0000
0000
0000
3M3M
0000
0000
0010
0000
0100
0000
0001
0000
,  // measure 53
1000
0000
0100
0000
1000
0000
0010
0000
0000
1000
0000
0000
0010
0000
0000
1000
0000
0000
0001
0000
0000
0010
0000
0000
,  // measure 54
0004
0000
0400
0000
0000
0000
M3M3
0000
0110
0000
1000
0000
0100
0000
0010
0001
,  // measure 55
1000
0000
0000
0MM1
0000
0000
0110
0000
0000
1000
0000
0000
0100
0000
1000
0000
0010
0000
0400
0000
0000
M30M
0000
0000
,  // measure 56
1001
0000
0000
0000
0000
0000
0101
0000
0000
0000
1010
0000
1000
0100
1000
0000
,  // measure 57
0010
0000
0001
0000
0010
0000
1000
0000
0200
0000
0000
0000
0020
0330
0000
0000
,  // measure 58
0000
0000
0000
0000
,  // measure 59
0000
0000
0000
0000
,  // measure 60
0000
0000
0000
0000
,  // measure 61
0000
0000
0000
0000
,  // measure 62
0000
0000
0000
0000
,  // measure 63
0000
0000
0000
0000
,  // measure 64
0000
0000
0000
0000
,  // measure 65
0000
0000
0000
0000
,  // measure 66
0000
0000
0000
0000
,  // measure 67
0000
0000
0000
0000
,  // measure 68
0000
0000
0000
0000
,  // measure 69
0000
0000
0000
0000
,  // measure 70
0000
0000
0000
0000
,  // measure 71
0000
0000
0000
0000
,  // measure 72
0000
0000
0000
0000
,  // measure 73
0000
0000
0000
0000
,  // measure 74
0000
0000
0000
0000
,  // measure 75
0000
0000
0000
0000
,  // measure 76
0000
0000
0000
0000
,  // measure 77
0000
0000
0000
0000
,  // measure 78
0000
0000
0000
0000
,  // measure 79
0000
0000
0000
0000
,  // measure 80
0000
0000
0000
0000
,  // measure 81
0000
0000
0000
0000
,  // measure 82
0000
0000
0000
0000
,  // measure 83
0000
0000
0000
0000
,  // measure 84
0000
0000
0000
0000
,  // measure 85
0000
0000
0000
0000
,  // measure 86
0000
0000
0000
0000
,  // measure 87
0000
0000
0000
0000
,  // measure 88
0001
1000
0100
0010
0100
1000
0001
1000
0010
0100
0001
1000
0100
1000
0010
0100
,  // measure 89
0001
1000
0100
0010
0001
1000
0010
1000
0001
0010
0100
2000
0000
0000
0000
3000
,  // measure 90
0001
1000
0001
0100
0001
1000
0010
1000
,  // measure 91
0001
1000
0001
0010
0001
0010
0100
1000
,  // measure 92
0010
1000
0010
0100
0001
1000
0010
0100
,  // measure 93
0001
0000
0010
0000
0001
0000
1000
0000
0100
0000
0000
1000
0010
0000
1000
0100
,  // measure 94
1000
0001
1000
0000
0001
0000
0010
0000
0100
0000
1000
0000
0100
0000
0010
0000
,  // measure 95
0001
1000
0001
0010
0100
1000
0001
1000
,  // measure 96
0100
0010
0100
1000
0001
1000
0010
0100
,  // measure 97
0010
0100
0010
1000
0110
1000
0001
1000
,  // measure 98
0001
0000
0000
0000
,  // measure 99
0000
0000
0000
0000
,  // measure 100
0000
0000
0000
0000
,  // measure 101
0000
0000
0000
0000
0000
1000
0001
1000
,  // measure 102
0001
0100
0001
0000
0000
0000
0000
0000
,  // measure 103
0000
0000
0000
0000
,  // measure 104
0000
0000
0000
0000
,  // measure 105
0000
0000
0000
0000
0000
0000
0001
1000
,  // measure 106
0001
0100
0001
0010
0100
0000
0000
0000
,  // measure 107
0000
0000
0000
0000
,  // measure 108
0000
0000
0000
0000
,  // measure 109
0000
0000
0000
0000
0000
0000
0000
1000
,  // measure 110
0001
0100
0001
0010
0100
1000
0001
0000
,  // measure 111
0000
0000
0000
0000
,  // measure 112
0000
0000
0000
0000
,  // measure 113
0000
0000
0000
0000
,  // measure 114
0001
0100
0001
0010
0100
1000
0001
0010
,  // measure 115
0000
00M0
0000
0000
0000
0000
0000
0000
0000
0000
0000
0000
0000
0000
0000
0000
0000
0000
0000
0000
0000
0000
0000
0000
,  // measure 116
0000
0000
0000
0000
,  // measure 117
0000
0000
0000
0000
,  // measure 118
0001
0000
0000
0100
0000
0000
0001
0000
0000
0010
0000
0000
0100
0000
0000
1000
0000
0000
0001
0000
0000
0020
0000
0030
,  // measure 119
0000
0000
00M0
0000
0000
0000
0220
0000
0000
0000
0330
0000
0000
0000
0MM0
0000
0000
0000
0022
0000
0000
0000
0033
0000
0000
0000
00MM
0000
0000
0000
2020
0000
0000
0000
3030
0000
0000
0000
M0M0
0000
0000
0000
0100
0000
0000
0001
0000
0000
,  // measure 120
0010
0001
1000
0010
0100
0001
1000
0001
,  // measure 121
1000
0000
0100
0000
1000
0000
0001
0000
0100
0000
0001
1000
0001
0000
1000
0010
,  // measure 122
0100
0001
0010
0000
0001
0000
0010
0000
0100
0000
1000
0000
0100
0000
1000
0000
,  // measure 123
0001
0100
0001
1000
0001
1000
0010
0100
,  // measure 124
0010
1000
0010
1000
0001
1000
0001
0010
,  // measure 125
1100
0000
0000
0000
0000
0000
0000
0000
0001
1000
0001
0010
0001
1000
0010
1000
,  // measure 126
0001
1000
0010
0100
1000
0100
0010
0100
,  // measure 127
0001
1000
0100
0010
1000
0010
0100
1000
,  // measure 128
0100
0010
1000
0010
0001
0100
0001
1000
,  // measure 129
0010
1000
0001
0100
1000
0100
0001
0010
,  // measure 130
0001
0010
0001
0000
0010
0000
0100
0000
1000
0000
0001
0000
0100
0000
0001
0000
,  // measure 131
0010
0001
0100
0010
1000
0100
0010
0100
,  // measure 132
1000
0001
0100
0010
1000
0001
1000
0100
,  // measure 133
1000
0010
0100
0010
1000
0001
0100
0010
,  // measure 134
1000
0000
0000
0100
0000
0000
0010
0000
0000
0100
0000
0000
4000
0000
3040
0000
,  // measure 135
1030
0000
0000
0001
0000
0000
0010
0000
M000
0000
0010
0000
0000
0100
0000
0000
,  // measure 136
0001
0000
0000
0100
0000
0000
0010
0000
0000
1000
0000
0000
0044
0000
0033
0000
,  // measure 137
0000
2000
3002
0403
0040
0330
0000
0000
,  // measure 138
1000
0000
0000
0100
0000
0000
0001
0000
0000
0100
0000
0000
4000
0000
3040
0000
,  // measure 139
0130
0000
0000
0001
0000
0000
0010
0000
M000
0000
0010
0000
0000
0100
0000
0000
,  // measure 140
0001
0000
0000
0010
0000
0000
0100
0000
0001
0000
0000
0100
0000
0000
1000
0000
,  // measure 141
0010
0000
0001
0000
0010
0000
1000
0000
0001
1000
0100
0020
0002
0000
0000
0000
,  // measure 142
0033
0000
0000
0000
;

//---------------dance-single - ----------------
#NOTEDATA:;
#CHARTNAME:ChiselEssiestudy ZSS-S;
#STEPSTYPE:dance-single;
#DESCRIPTION:;
#CHARTSTYLE:;
#DIFFICULTY:Medium;
#METER:8;
#RADARVALUES:0.512672,1.012049,0.100618,0.276699,0.146735,428.000000,416.000000,12.000000,33.000000,5.000000,0.000000,4.000000,0.000000,338.000000,0.512672,1.012049,0.100618,0.276699,0.146735,428.000000,416.000000,12.000000,33.000000,5.000000,0.000000,4.000000,0.000000,338.000000;
#CREDIT:ChiselEssiestudy;
#OFFSET:-1.480000;
#BPMS:0.000000=6.938000
,16.500000=27.750000
,18.000000=55.500000
,18.500000=111.000000
,19.000000=222.000000
,48.000000=111.000000
,50.000000=222.000000
,146.000000=27.750000
,164.000000=55.500000
,165.000000=111.000000
,167.000000=222.000000
,171.000000=55.500000
,172.000000=222.000000
,231.000000=6.938000
,231.375000=111.000000
,359.000000=222.000000
,567.000000=111.000000
,567.250000=55.500000
,567.625000=27.750000
,567.875000=13.875000
,567.937500=6.938000
,567.979187=3.469000
;
#STOPS:203.500000=0.270000
,210.500000=0.270000
,217.500000=0.270000
,220.500000=0.270000
,223.500000=0.270000
,359.000000=0.270000
;
#DELAYS:;
#WARPS:0.125000=16.000000
,148.000000=16.000000
,231.375000=118.625000
,390.000000=16.000000
,406.500000=16.000000
,423.000000=16.000000
,439.500000=16.000000
,456.000000=16.000000
;
#TIMESIGNATURES:0.000000=4=4
;
#TICKCOUNTS:0.000000=4
;
#COMBOS:0.000000=1
;
#SPEEDS:0.000000=1.100000=0.000000=0
;
#SCROLLS:0.000000=1.000000
;
#FAKES:;
#LABELS:0.000000=Song Start
;
#ATTACKS:TIME=-5.040000:LEN=12.970000:MODS=Stealth, Dark:TIME=45.400002:LEN=3.510000:MODS=Stealth:TIME=72.830002:LEN=0.810000:MODS=Stealth:TIME=113.639999:LEN=57.299999:MODS=Stealth,Dark:TIME=-5.040000:LEN=12.970000:MODS=Stealth, Dark:TIME=45.400002:LEN=3.510000:MODS=Stealth:TIME=72.830002:LEN=0.810000:MODS=Stealth:TIME=113.639999:LEN=57.299999:MODS=Stealth,Dark:TIME=-5.040000:LEN=12.970000:MODS=Stealth, Dark:TIME=45.400002:LEN=3.510000:MODS=Stealth:TIME=72.830002:LEN=0.810000:MODS=Stealth:TIME=113.639999:LEN=57.299999:MODS=Stealth,Dark:TIME=-5.040000:LEN=12.970000:MODS=Stealth, Dark:TIME=45.400002:LEN=3.510000:MODS=Stealth:TIME=72.830002:LEN=0.810000:MODS=Stealth:TIME=113.639999:LEN=57.299999:MODS=Stealth,Dark:TIME=-5.040000:LEN=12.970000:MODS=Stealth, Dark:TIME=45.400002:LEN=3.510000:MODS=Stealth:TIME=72.830002:LEN=0.810000:MODS=Stealth:TIME=113.639999:LEN=57.299999:MODS=Stealth,Dark:TIME=-5.040000:LEN=12.970000:MODS=Stealth, Dark:TIME=45.400002:LEN=3.510000:MODS=Stealth:TIME=72.830002:LEN=0.810000:MODS=Stealth:TIME=-5.040000:LEN=12.970000:MODS=Stealth, Dark:TIME=45.400002:LEN=3.510000:MODS=Stealth:TIME=72.830002:LEN=0.810000:MODS=Stealth:TIME=-5.040000:LEN=12.970000:MODS=Stealth, Dark:TIME=45.400002:LEN=3.510000:MODS=Stealth:TIME=72.830002:LEN=0.810000:MODS=Stealth:TIME=-5.040000:LEN=12.970000:MODS=Stealth, Dark:TIME=45.400002:LEN=3.510000:MODS=Stealth:TIME=72.830002:LEN=0.810000:MODS=Stealth:TIME=-5.040000:LEN=12.970000:MODS=Stealth, Dark:TIME=45.400002:LEN=3.510000:MODS=Stealth:TIME=72.830002:LEN=0.810000:MODS=Stealth:TIME=-5.040000:LEN=12.970000:MODS=Stealth, Dark:TIME=45.400002:LEN=3.510000:MODS=Stealth:TIME=72.830002:LEN=0.810000:MODS=Stealth:TIME=-5.023730:LEN=12.970000:MODS=Stealth, Dark;
#NOTES:
// measure 0
0000
0000
0000
0000
,  // measure 1
0000
0000
0000
0000
,  // measure 2
0000
0000
0000
0000
,  // measure 3
0000
0000
0000
0000
,  // measure 4
0000
0000
0000
0000
,  // measure 5
1000
0000
0000
0000
,  // measure 6
0000
0000
0000
0000
,  // measure 7
0001
0011
0000
0000
,  // measure 8
0000
0000
1000
0001
,  // measure 9
0100
0110
1000
0101
,  // measure 10
0010
0000
1100
0000
1000
0001
1000
0000
,  // measure 11
0001
0000
0100
0000
0001
0010
0100
1000
,  // measure 12
0002
0000
0000
0003
1000
0100
1000
0000
,  // measure 13
0010
1000
0001
1000
,  // measure 14
0100
0000
1000
0000
0001
1000
0001
0000
,  // measure 15
1000
0100
1000
0001
,  // measure 16
0100
0000
0001
0000
1000
0010
1000
0000
,  // measure 17
0001
0010
0001
1000
,  // measure 18
0001
0000
0100
0000
0010
0100
0010
0000
,  // measure 19
1000
0001
0010
0001
,  // measure 20
1000
0000
0100
0000
1000
0001
1000
0010
,  // measure 21
0100
0010
1000
0001
0010
0001
1000
0010
,  // measure 22
0100
0001
1000
0100
1000
0000
0001
0010
,  // measure 23
0001
1000
0010
1000
0010
0100
0001
0010
,  // measure 24
0100
1000
0001
0100
0001
0000
0000
0100
,  // measure 25
0000
0000
1000
0000
0000
0100
0000
0000
,  // measure 26
0001
1000
0001
0010
,  // measure 27
0001
1000
0010
1000
,  // measure 28
0001
0000
0000
0000
0100
0000
0000
0000
0001
0000
0000
0010
0000
0000
0100
0000
,  // measure 29
0000
1000
0000
0000
2002
0000
3003
0000
0001
0000
0000
1000
0000
0000
0010
0000
,  // measure 30
0000
0000
0010
0000
0000
1000
0000
0000
0001
0000
0000
0010
0000
0000
0100
0000
,  // measure 31
0000
1000
0000
0000
0002
0000
0000
0000
0003
0000
1000
0000
0010
0000
1000
0000
,  // measure 32
0020
0000
0000
0000
0030
0000
0000
0000
0100
0000
0000
0001
0000
0000
0010
0000
,  // measure 33
0000
0200
0000
0000
0300
0000
0000
0000
1000
0000
0000
0001
0000
0000
0010
0000
,  // measure 34
0000
0000
0010
0000
0000
0001
0000
0000
1000
0000
0000
0001
0000
0000
1000
0000
,  // measure 35
0010
0000
0000
0100
0000
0000
0010
0000
1000
0000
0001
0000
1000
0000
0001
0000
,  // measure 36
0010
0100
0000
0000
0220
0000
0000
0330
,  // measure 37
0000
0000
0000
0000
,  // measure 38
0000
0000
0000
0000
,  // measure 39
0000
0000
0000
0000
,  // measure 40
0000
0000
0000
0000
,  // measure 41
0000
0000
0000
0000
,  // measure 42
0000
0000
1000
0001
0100
0001
0020
0030
,  // measure 43
0001
0100
1000
0000
0100
0001
0100
0001
,  // measure 44
1000
0010
1000
0000
0002
0020
0000
0033
,  // measure 45
0100
1000
0010
0000
1000
0100
1000
0010
,  // measure 46
1000
0001
0010
0000
0001
2000
0000
3001
,  // measure 47
1000
0100
0001
0000
0100
1000
0001
0010
,  // measure 48
0100
1000
0001
0000
0200
0020
0000
0330
,  // measure 49
0100
0001
0010
0000
0001
0010
0100
1000
,  // measure 50
0020
0000
2030
0000
3002
0000
0203
M000
,  // measure 51
0301
0000
0010
0001
0100
0010
0100
0001
,  // measure 52
1000
0000
0000
0000
0000
0000
0002
0000
0000
2000
0000
0000
0000
0000
0000
3M03
0000
0000
0010
0000
1000
0000
0010
0000
,  // measure 53
0100
0000
0001
0000
1000
0000
0001
0000
0000
0000
0000
0000
1000
0000
0000
0100
0000
0000
0010
0000
0000
0100
0000
0000
,  // measure 54
2000
0002
0000
30M3
0100
0000
0001
1000
,  // measure 55
0001
0000
0000
0M00
0000
0000
0010
0000
0000
0000
0000
0000
0001
0000
0100
0000
0010
0000
0100
0000
0000
M000
0000
0000
,  // measure 56
0001
0000
0000
0101
0000
0100
0001
1000
,  // measure 57
0100
0000
0001
0000
0100
0000
1000
0000
0010
0000
0000
0000
0202
0303
0000
0000
,  // measure 58
0000
0000
0000
0000
,  // measure 59
0000
0000
0000
0000
0000
0000
0000
MMMM
,  // measure 60
1FFF
000F
000F
FFFF
F000
F000
FFFF
0000
,  // measure 61
0000
0000
FFFF
F000
F000
FFFF
F00F
F00F
,  // measure 62
FFFF
0000
0000
0000
FFFF
F000
F000
FFFF
,  // measure 63
F00F
F00F
FFFF
0000
0000
0000
FFFF
000F
,  // measure 64
000F
FFFF
000F
000F
FFFF
0000
0000
0000
,  // measure 65
FFFF
000F
000F
FFFF
F000
F000
FFFF
0000
,  // measure 66
0000
0000
F00F
F00F
F00F
FFFF
000F
000F
,  // measure 67
000F
0000
0000
0000
FFFF
000F
000F
FFFF
,  // measure 68
000F
000F
FFFF
0000
0000
0000
0000
0000
,  // measure 69
0000
00FF
00FF
0000
,  // measure 70
000F
000F
000F
FFFF
F00F
F00F
FFFF
0000
,  // measure 71
0000
0000
FFFF
F00F
F00F
FFFF
F000
F000
,  // measure 72
FFFF
0000
0000
0000
F00F
F00F
F00F
F00F
,  // measure 73
0FF0
0FF0
0FF0
0000
0000
0000
00F0
0000
,  // measure 74
00F0
00F0
00F0
00F0
00F0
0000
0000
0000
,  // measure 75
FFFF
000F
000F
FFFF
F00F
F00F
FFFF
0000
,  // measure 76
0000
0000
FFF0
F00F
F00F
F00F
F00F
F00F
,  // measure 77
F00F
0000
0000
0000
0F00
0F00
FFFF
0F00
,  // measure 78
0F00
0F00
00FF
0000
0000
0000
FFFF
000F
,  // measure 79
000F
FFFF
F00F
F00F
FFFF
0000
0000
0000
,  // measure 80
FFF0
F00F
F000
F000
F000
F000
F000
0000
,  // measure 81
0000
0000
0F00
0F00
FFFF
0F00
0F00
0F00
,  // measure 82
00FF
0000
0000
0000
,  // measure 83
00FF
0000
00FF
0000
0000
0000
FFFF
F000
,  // measure 84
F000
F000
F000
F000
FFFF
0000
0000
0000
,  // measure 85
FFFF
F00F
F00F
F00F
F00F
F00F
FFFF
0000
,  // measure 86
0000
0000
FF0F
FFFF
FFFF
FFFF
F00F
F00F
,  // measure 87
F00F
0000
0000
0000
,  // measure 88
1000
0000
0000
1000
0000
0000
0100
0000
0010
0000
0000
0010
0000
0000
0001
0000
,  // measure 89
1000
0000
0000
1000
0000
0000
0010
0000
0001
0010
1000
0100
0000
0000
0000
0000
,  // measure 90
0010
0000
0100
1000
0000
1000
0001
0010
,  // measure 91
0000
0010
0000
0001
0000
0010
0000
0100
,  // measure 92
0010
0000
0001
0010
0000
0100
1000
0001
,  // measure 93
0000
0100
0001
1000
0001
0100
0010
1000
,  // measure 94
0001
1000
0001
0010
0000
0100
0000
1000
,  // measure 95
0001
1000
0001
0010
0000
0100
0010
0100
,  // measure 96
0000
0010
0000
0001
0000
0001
0010
0200
,  // measure 97
0000
0300
0000
0000
,  // measure 98
0000
0000
0000
0000
,  // measure 99
0000
0000
0000
0000
,  // measure 100
0000
0000
0000
0000
,  // measure 101
0000
0000
0000
0000
,  // measure 102
1001
0001
0000
0000
,  // measure 103
0000
0000
0000
0000
,  // measure 104
0000
0000
0000
0000
,  // measure 105
0000
0000
0000
0000
,  // measure 106
1001
0000
0001
0010
0000
0100
0000
0000
,  // measure 107
0000
0000
0000
0000
,  // measure 108
0000
0000
0000
0000
,  // measure 109
0000
0000
0000
0000
,  // measure 110
1001
0000
0001
0010
0000
0100
0010
0004
,  // measure 111
0003
0000
0000
0000
,  // measure 112
0000
0000
0000
0000
,  // measure 113
0000
0000
0000
0000
,  // measure 114
1001
0000
0001
0010
0000
0100
0010
0004
,  // measure 115
0003
0004
0003
0040
0030
4000
3000
0000
,  // measure 116
0000
0000
0000
0000
,  // measure 117
0000
0000
0000
0000
,  // measure 118
1001
0000
0001
0010
0000
0100
0010
0004
,  // measure 119
0003
0004
0003
0040
0030
4000
3000
0010
,  // measure 120
0001
1000
0100
0010
0000
0100
0010
0001
,  // measure 121
0000
1000
0001
0100
0000
0001
0010
0001
,  // measure 122
1000
0100
1000
0001
0000
0100
0000
0001
,  // measure 123
1000
0001
0100
0010
0000
0100
0010
0100
,  // measure 124
0000
0001
0000
1000
0000
0001
1000
0001
,  // measure 125
0020
0000
0000
0200
0000
0000
0330
0000
,  // measure 126
1000
0100
0010
0000
0001
0000
0100
0000
,  // measure 127
0001
1000
0001
0000
0010
0000
0001
0000
,  // measure 128
0100
0010
0100
0000
0001
0000
0100
0000
,  // measure 129
0001
0100
0001
0000
0010
0000
1000
0000
,  // measure 130
0010
0100
0010
0000
0001
0000
0100
0000
,  // measure 131
0001
1000
0100
0000
0010
0000
0001
0000
,  // measure 132
0100
0010
1000
0000
0001
0000
0100
0000
,  // measure 133
0001
1000
0010
0001
,  // measure 134
0010
0000
0000
0100
0000
0000
0010
0000
0000
0100
0000
0000
0002
0000
0003
0000
,  // measure 135
0010
0000
0000
0100
0000
0000
1000
0000
0000
0000
1000
0000
0000
0100
0000
0000
,  // measure 136
0010
0000
0000
0100
0000
0000
1000
0000
0000
0010
0000
0000
2020
0000
3030
0000
,  // measure 137
0000
1000
0001
0000
2000
0000
3000
0000
,  // measure 138
0001
0000
0000
0100
0000
0000
0010
0000
0000
0100
0000
0000
0101
0000
0000
0000
,  // measure 139
1000
0000
0000
0010
0000
0000
0100
0000
0000
0000
0100
0000
0000
0010
0000
0000
,  // measure 140
1000
0000
0000
0001
0000
0000
1000
0000
0010
0000
0000
0100
0000
0000
0010
0000
,  // measure 141
1000
0100
0010
0001
0100
0001
0220
0000
,  // measure 142
0330
0000
0000
0000
;

//---------------dance-single - ----------------
#NOTEDATA:;
#CHARTNAME:ChiselEssiestudy ZSS-B;
#STEPSTYPE:dance-single;
#DESCRIPTION:;
#CHARTSTYLE:;
#DIFFICULTY:Beginner;
#METER:3;
#RADARVALUES:0.244358,0.594275,0.167697,0.000000,0.000000,204.000000,184.000000,20.000000,0.000000,0.000000,0.000000,0.000000,0.000000,47.000000,0.244358,0.594275,0.167697,0.000000,0.000000,204.000000,184.000000,20.000000,0.000000,0.000000,0.000000,0.000000,0.000000,47.000000;
#CREDIT:ChiselEssiestudy;
#OFFSET:-1.480000;
#BPMS:0.000000=6.938000
,16.500000=27.750000
,18.000000=55.500000
,18.500000=111.000000
,19.000000=222.000000
,48.000000=111.000000
,50.000000=222.000000
,146.000000=27.750000
,164.000000=55.500000
,165.000000=111.000000
,167.000000=222.000000
,171.000000=55.500000
,172.000000=222.000000
,231.000000=6.938000
,231.375000=111.000000
,359.000000=222.000000
,567.000000=111.000000
,567.250000=55.500000
,567.625000=27.750000
,567.875000=13.875000
,567.937500=6.938000
,567.979187=3.469000
;
#STOPS:203.500000=0.270000
,210.500000=0.270000
,217.500000=0.270000
,220.500000=0.270000
,223.500000=0.270000
,359.000000=0.270000
;
#DELAYS:;
#WARPS:0.125000=16.000000
,148.000000=16.000000
,231.375000=118.625000
,390.000000=16.000000
,406.500000=16.000000
,423.000000=16.000000
,439.500000=16.000000
,456.000000=16.000000
;
#TIMESIGNATURES:0.000000=4=4
;
#TICKCOUNTS:0.000000=4
;
#COMBOS:0.000000=1
;
#SPEEDS:0.000000=1.100000=0.000000=0
;
#SCROLLS:0.000000=1.000000
;
#FAKES:;
#LABELS:0.000000=Song Start
;
#NOTES:
// measure 0
0000
0000
0000
0000
,  // measure 1
0000
0000
0000
0000
,  // measure 2
0000
0000
0000
0000
,  // measure 3
0000
0000
0000
0000
,  // measure 4
0000
0000
0000
0000
,  // measure 5
1000
0000
0000
0000
,  // measure 6
0000
0000
0000
0000
,  // measure 7
0001
0000
0000
0000
,  // measure 8
0000
0000
0000
0000
,  // measure 9
1000
0000
0000
0000
,  // measure 10
0001
0000
0000
0000
,  // measure 11
1000
0000
0001
0000
,  // measure 12
1001
0000
0010
0000
,  // measure 13
0000
0000
0010
0000
,  // measure 14
0100
0000
0010
0000
,  // measure 15
0000
0000
0010
0000
,  // measure 16
0010
0000
1000
0000
,  // measure 17
0000
0000
0001
0000
,  // measure 18
1000
0000
0001
0000
,  // measure 19
0000
0000
0001
0000
,  // measure 20
1000
0000
0001
0000
,  // measure 21
0001
0000
1000
0000
,  // measure 22
1000
0000
0001
0001
,  // measure 23
0001
0000
1000
0000
,  // measure 24
0001
0000
0110
0000
,  // measure 25
0100
0000
0000
0000
,  // measure 26
0010
0000
1000
0001
,  // measure 27
1000
0001
0100
0010
,  // measure 28
0100
0010
1000
0000
,  // measure 29
0000
0000
1000
0000
,  // measure 30
0001
0000
0000
0000
,  // measure 31
0000
0110
0000
0000
,  // measure 32
1000
0000
0001
0000
,  // measure 33
0001
0000
1000
0000
,  // measure 34
0001
0000
0110
0000
,  // measure 35
1001
0000
1000
0001
,  // measure 36
1000
0000
1001
0000
,  // measure 37
0000
0000
0000
0000
,  // measure 38
0000
0000
0000
0000
,  // measure 39
0000
0000
0000
0000
,  // measure 40
0000
0000
0000
0000
,  // measure 41
0000
0000
0000
0000
,  // measure 42
0000
0000
0000
0000
,  // measure 43
1000
1000
0001
0001
,  // measure 44
1000
1000
1001
0000
,  // measure 45
0010
0010
0100
0100
,  // measure 46
0010
0100
0010
0000
,  // measure 47
1000
1000
0001
0001
,  // measure 48
1000
1000
1001
0000
,  // measure 49
0010
0010
0100
0100
,  // measure 50
0001
1000
0001
1000
,  // measure 51
0000
1000
1000
0001
,  // measure 52
0001
1001
0000
0000
,  // measure 53
0010
0010
0100
0100
,  // measure 54
0010
0010
0000
0110
,  // measure 55
0000
0000
1000
0001
,  // measure 56
0000
1000
1000
0001
,  // measure 57
0001
1000
0000
0110
,  // measure 58
0000
0000
0000
0000
,  // measure 59
0000
0000
0000
0000
,  // measure 60
0000
0000
0000
0000
,  // measure 61
0000
0000
0000
0000
,  // measure 62
0000
0000
0000
0000
,  // measure 63
0000
0000
0000
0000
,  // measure 64
0000
0000
0000
0000
,  // measure 65
0000
0000
0000
0000
,  // measure 66
0000
0000
0000
0000
,  // measure 67
0000
0000
0000
0000
,  // measure 68
0000
0000
0000
0000
,  // measure 69
0000
0000
0000
0000
,  // measure 70
0000
0000
0000
0000
,  // measure 71
0000
0000
0000
0000
,  // measure 72
0000
0000
0000
0000
,  // measure 73
0000
0000
0000
0000
,  // measure 74
0000
0000
0000
0000
,  // measure 75
0000
0000
0000
0000
,  // measure 76
0000
0000
0000
0000
,  // measure 77
0000
0000
0000
0000
,  // measure 78
0000
0000
0000
0000
,  // measure 79
0000
0000
0000
0000
,  // measure 80
0000
0000
0000
0000
,  // measure 81
0000
0000
0000
0000
,  // measure 82
0000
0000
0000
0000
,  // measure 83
0000
0000
0000
0000
,  // measure 84
0000
0000
0000
0000
,  // measure 85
0000
0000
0000
0000
,  // measure 86
0000
0000
0000
0000
,  // measure 87
0000
0000
0000
0000
,  // measure 88
1000
0000
0001
0000
,  // measure 89
0100
0000
0010
0000
,  // measure 90
1000
1000
0001
0000
,  // measure 91
0100
0000
0010
0000
,  // measure 92
0100
0100
0010
0000
,  // measure 93
1000
0000
0001
0000
,  // measure 94
1000
1000
0001
0000
,  // measure 95
1000
0000
0001
0000
,  // measure 96
0100
0100
0010
0000
,  // measure 97
0100
0000
0110
0000
,  // measure 98
0010
0010
0100
0000
,  // measure 99
0001
0001
0001
0000
,  // measure 100
1000
1000
0001
0000
,  // measure 101
0000
0000
0000
0000
,  // measure 102
0010
0010
0100
0000
,  // measure 103
0001
0001
0001
0000
,  // measure 104
1000
1000
0001
0000
,  // measure 105
0000
0000
0000
0000
,  // measure 106
0010
0010
0100
0000
,  // measure 107
0001
0001
0001
0000
,  // measure 108
1000
1000
0001
0000
,  // measure 109
0000
0000
0000
0000
,  // measure 110
0010
0010
0100
0000
,  // measure 111
0001
0001
0001
0000
,  // measure 112
1000
1000
0001
0000
,  // measure 113
0000
0000
0000
0000
,  // measure 114
0010
0010
0100
0000
,  // measure 115
0001
0001
0001
0000
,  // measure 116
1000
1000
0001
0000
,  // measure 117
0000
0000
0000
0000
,  // measure 118
0010
0010
0100
0000
,  // measure 119
0001
0001
0001
0000
,  // measure 120
1000
1000
0001
0000
,  // measure 121
1000
0000
0001
0000
,  // measure 122
0100
0100
0010
0000
,  // measure 123
0100
0000
0010
0000
,  // measure 124
1000
1000
0001
0000
,  // measure 125
1001
0000
1000
0001
,  // measure 126
1000
0000
0001
0000
,  // measure 127
1000
0000
0010
0000
,  // measure 128
0100
0000
0010
0000
,  // measure 129
0100
0000
0001
0000
,  // measure 130
1000
0000
0010
0000
,  // measure 131
1000
0000
0001
0000
,  // measure 132
0100
0000
0010
0000
,  // measure 133
0100
0000
0001
0000
,  // measure 134
1001
0000
0000
0000
,  // measure 135
1001
0000
0000
0000
,  // measure 136
0110
0000
1000
0001
,  // measure 137
1000
0000
1001
0000
,  // measure 138
0110
0000
0100
0100
,  // measure 139
0110
0000
1001
0000
,  // measure 140
1000
0001
1000
0001
,  // measure 141
0100
0010
0100
1001
;

//---------------dance-single - ----------------
#NOTEDATA:;
#CHARTNAME:ChiselEssiestudy ZSS-L;
#STEPSTYPE:dance-single;
#DESCRIPTION:;
#CHARTSTYLE:;
#DIFFICULTY:Easy;
#METER:6;
#RADARVALUES:0.397681,0.892198,0.293469,0.159312,0.000000,332.000000,297.000000,35.000000,19.000000,0.000000,0.000000,0.000000,0.000000,60.000000,0.397681,0.892198,0.293469,0.159312,0.000000,332.000000,297.000000,35.000000,19.000000,0.000000,0.000000,0.000000,0.000000,60.000000;
#CREDIT:ChiselEssiestudy;
#OFFSET:-1.480000;
#BPMS:0.000000=6.938000
,16.500000=27.750000
,18.000000=55.500000
,18.500000=111.000000
,19.000000=222.000000
,48.000000=111.000000
,50.000000=222.000000
,146.000000=27.750000
,164.000000=55.500000
,165.000000=111.000000
,167.000000=222.000000
,171.000000=55.500000
,172.000000=222.000000
,231.000000=6.938000
,231.375000=111.000000
,359.000000=222.000000
,567.000000=111.000000
,567.250000=55.500000
,567.625000=27.750000
,567.875000=13.875000
,567.937500=6.938000
,567.979187=3.469000
;
#STOPS:203.500000=0.270000
,210.500000=0.270000
,217.500000=0.270000
,220.500000=0.270000
,223.500000=0.270000
,359.000000=0.270000
;
#DELAYS:;
#WARPS:0.125000=16.000000
,148.000000=16.000000
,231.375000=118.625000
,390.000000=16.000000
,406.500000=16.000000
,423.000000=16.000000
,439.500000=16.000000
,456.000000=16.000000
;
#TIMESIGNATURES:0.000000=4=4
;
#TICKCOUNTS:0.000000=4
;
#COMBOS:0.000000=1
;
#SPEEDS:0.000000=1.100000=0.000000=0
;
#SCROLLS:0.000000=1.000000
;
#FAKES:;
#LABELS:0.000000=Song Start
;
#NOTES:
// measure 0
0000
0000
0000
0000
,  // measure 1
0000
0000
0000
0000
,  // measure 2
0000
0000
0000
0000
,  // measure 3
0000
0000
0000
0000
,  // measure 4
0000
0000
0000
0000
,  // measure 5
1001
0000
0000
0000
,  // measure 6
0000
0000
0000
0000
,  // measure 7
1000
0001
0000
0000
,  // measure 8
0000
0000
0010
0100
,  // measure 9
0010
1001
0100
0110
,  // measure 10
0100
0000
1001
0000
1000
0001
1000
0000
,  // measure 11
0100
0010
0001
1000
,  // measure 12
0220
0000
0000
0330
1000
0000
0010
0000
,  // measure 13
0100
0010
1000
0001
,  // measure 14
0010
0100
1000
0001
,  // measure 15
0100
0001
0010
0100
,  // measure 16
1000
0010
0100
0001
,  // measure 17
1000
0100
0010
0001
,  // measure 18
1000
0010
1000
0001
,  // measure 19
0010
0100
1000
0001
,  // measure 20
0100
0010
0100
0001
,  // measure 21
0100
0001
1000
0010
,  // measure 22
1000
0010
2000
3001
,  // measure 23
0010
0001
0100
0010
,  // measure 24
1000
0000
0010
0000
0100
0000
0000
1001
,  // measure 25
0000
0101
0000
1000
,  // measure 26
0100
1000
0001
1001
,  // measure 27
0010
0101
0010
1001
,  // measure 28
0100
0000
0110
0000
1000
0000
0000
1000
,  // measure 29
0000
0000
0100
0000
0010
0000
0000
0010
,  // measure 30
0000
0100
0000
0000
0100
0000
0000
0100
,  // measure 31
0000
0000
0220
0330
0000
0000
1000
0000
,  // measure 32
0001
0000
0000
0000
1000
0000
0000
1000
,  // measure 33
0000
0000
0010
0000
1000
0000
0000
1000
,  // measure 34
0000
0001
0000
0000
0001
0000
0000
0001
,  // measure 35
1000
0000
0000
1000
0001
1000
0001
1000
,  // measure 36
0002
0003
0110
0000
,  // measure 37
0000
0000
0000
0000
,  // measure 38
0000
0000
0000
0000
,  // measure 39
0000
0000
0000
0000
,  // measure 40
0000
0000
0000
0000
,  // measure 41
0000
0000
0000
0000
,  // measure 42
0000
0000
0000
0000
0000
0000
0000
0000
0000
0000
0000
0000
2000
0000
0000
3000
,  // measure 43
0001
0001
0100
0010
,  // measure 44
0100
0000
0001
0000
1000
0020
0000
0030
,  // measure 45
0100
0001
1000
0001
,  // measure 46
0010
0001
0100
0010
,  // measure 47
1000
0001
0100
0001
,  // measure 48
0010
0000
0001
0000
1000
0020
0000
0030
,  // measure 49
1000
0001
1000
0001
,  // measure 50
0010
0001
1000
0100
,  // measure 51
1001
0001
0100
0010
,  // measure 52
0100
0000
0001
2000
0000
3000
1001
0000
,  // measure 53
1000
0010
0100
0001
,  // measure 54
0100
0000
0010
0000
0110
0000
0100
0010
,  // measure 55
0100
0000
1001
0000
1000
0002
0000
0003
,  // measure 56
1001
0000
0000
1100
0000
0100
1000
0000
,  // measure 57
0010
0100
0001
1001
,  // measure 58
0000
0000
0000
0000
,  // measure 59
0000
0000
0000
0000
,  // measure 60
0000
0000
0000
0000
,  // measure 61
0000
0000
0000
0000
,  // measure 62
0000
0000
0000
0000
,  // measure 63
0000
0000
0000
0000
,  // measure 64
0000
0000
0000
0000
,  // measure 65
0000
0000
0000
0000
,  // measure 66
0000
0000
0000
0000
,  // measure 67
0000
0000
0000
0000
,  // measure 68
0000
0000
0000
0000
,  // measure 69
0000
0000
0000
0000
,  // measure 70
0000
0000
0000
0000
,  // measure 71
0000
0000
0000
0000
,  // measure 72
0000
0000
0000
0000
,  // measure 73
0000
0000
0000
0000
,  // measure 74
0000
0000
0000
0000
,  // measure 75
0000
0000
0000
0000
,  // measure 76
0000
0000
0000
0000
,  // measure 77
0000
0000
0000
0000
,  // measure 78
0000
0000
0000
0000
,  // measure 79
0000
0000
0000
0000
,  // measure 80
0000
0000
0000
0000
,  // measure 81
0000
0000
0000
0000
,  // measure 82
0000
0000
0000
0000
,  // measure 83
0000
0000
0000
0000
,  // measure 84
0000
0000
0000
0000
,  // measure 85
0000
0000
0000
0000
,  // measure 86
0000
0000
0000
0000
,  // measure 87
0000
0000
0000
0000
,  // measure 88
1000
0100
1000
0010
1000
0001
0100
0010
,  // measure 89
0100
0001
1000
0010
0100
0002
0000
0003
,  // measure 90
0010
0000
0000
0100
0000
0000
0010
0001
,  // measure 91
0000
0001
0000
1000
0000
0001
0000
0000
,  // measure 92
0010
0000
0000
0001
0000
0000
1000
0100
,  // measure 93
0000
0000
1000
0000
0100
0000
0010
0001
,  // measure 94
0100
0000
0000
0001
0000
0000
0100
0000
,  // measure 95
0001
0000
0000
1000
0000
0000
0010
0000
,  // measure 96
0000
0010
0000
1000
0000
0001
1000
0020
,  // measure 97
0000
0030
0000
0000
,  // measure 98
1000
0000
0000
0100
0000
0000
1000
0001
,  // measure 99
0000
0001
0000
1000
0000
0010
0000
0100
,  // measure 100
0010
0000
0000
1000
0000
0000
0001
0100
,  // measure 101
0000
0000
0000
0000
,  // measure 102
1000
0000
0000
0100
0000
0000
1000
0001
,  // measure 103
0000
0001
0000
1000
0000
0010
0000
0100
,  // measure 104
0010
0000
0000
1000
0000
0000
0001
0100
,  // measure 105
0000
0000
0000
0000
,  // measure 106
1000
0000
0000
0100
0000
0000
1000
0001
,  // measure 107
0000
0001
0000
1000
0000
0010
0000
0100
,  // measure 108
0010
0000
0000
1000
0000
0000
0001
0100
,  // measure 109
0000
0000
0000
0000
,  // measure 110
1000
0000
0000
0100
0000
0000
1000
0001
,  // measure 111
0000
0001
0000
1000
0000
0010
0000
0100
,  // measure 112
0010
0000
0000
1000
0000
0000
0001
0100
,  // measure 113
0000
0000
0000
0000
,  // measure 114
1000
0000
0000
0100
0000
0000
1000
0001
,  // measure 115
0000
0001
0000
1000
0000
0010
0000
0100
,  // measure 116
0010
0000
0000
1000
0000
0000
0001
0100
,  // measure 117
0000
0000
0000
0000
,  // measure 118
1000
0000
0000
0100
0000
0000
1000
0001
,  // measure 119
0000
0001
0000
1000
0000
0010
0000
0100
,  // measure 120
0010
0000
0000
1000
0000
0000
0001
0100
,  // measure 121
0000
0001
1000
0001
,  // measure 122
1000
0000
0000
0001
0000
0000
0100
0000
,  // measure 123
0001
0000
0000
1000
0000
0000
0010
0000
,  // measure 124
0000
1000
0000
0001
0000
0001
1000
0010
,  // measure 125
0200
0000
0300
0000
,  // measure 126
0001
1001
0100
0110
,  // measure 127
0100
0101
0010
1100
,  // measure 128
0010
1001
0100
1010
,  // measure 129
0100
0000
1001
0000
0010
0000
0100
0010
,  // measure 130
0100
0101
1000
1001
,  // measure 131
0010
0011
0100
1010
,  // measure 132
1000
1001
0010
0110
,  // measure 133
1000
0010
1000
0010
1000
0010
1000
0000
,  // measure 134
0100
0000
0000
0100
0000
0000
1000
0000
,  // measure 135
0010
0000
0000
0010
0000
1000
0000
0000
,  // measure 136
1000
0000
0000
1000
0000
0000
2002
0000
,  // measure 137
3003
1000
0200
0300
,  // measure 138
1000
0000
0000
1000
0000
0000
0001
0000
,  // measure 139
0010
0000
0000
0010
0000
0100
0000
0000
,  // measure 140
0100
0000
0000
1000
0000
0000
0001
0000
,  // measure 141
0100
0000
0010
0000
1000
0000
0220
0330
;
