#TITLE:우산;
#SUBTITLE:;
#ARTIST:seibin feat. SeeU;
#TITLETRANSLIT:Umbrella;
#SUBTITLETRANSLIT:;
#ARTISTTRANSLIT:;
#CREDIT:;
#BANNER:;
#BACKGROUND:;
#LYRICSPATH:;
#CDTITLE:;
#MUSIC:[ROUND I] - Umbrella.mp3;
#OFFSET:-0.529;
#SAMPLESTART:69.105;
#SAMPLELENGTH:17.143;
#SELECTABLE:YES;
#BPMS:0.000=224.000;
#STOPS:;
#BGCHANGES:;

//---------------dance-single - ----------------
#NOTES:
     dance-single:
     :
     Hard:
     9:
     0.732,0.882,0.403,0.191,0.559:
0000
0000
0000
0000
,
0000
0000
0000
0000
,
0000
0000
0000
0000
,
0000
0000
0000
0000
,
0000
0000
0000
0000
,
0000
0000
0000
0000
,
0001
0000
1000
0100
0000
0000
0010
0000
0001
0100
0000
0000
,
0010
0000
1000
0100
0000
0010
0001
1000
0100
0010
0001
1000
,
0100
0000
0000
0010
0000
0000
0011
0000
0000
0001
0000
0100
,
0010
0000
0010
1000
0000
1000
0000
0000
1010
0000
0000
1001
,
0000
0000
1000
0100
0000
0100
0010
0000
0010
0001
0000
0001
,
0100
0000
0100
0000
0000
0110
0000
0000
0000
1010
0000
0000
,
0000
0000
1001
0000
0000
0000
0001
0000
0100
0000
0000
0100
,
0001
0000
0100
0001
0000
0001
0000
0000
0001
1000
0000
1000
,
0001
0000
0000
0001
0000
0100
0000
0000
0001
1000
0000
1000
,
0100
0000
0100
0010
0000
0010
0001
0010
0001
0010
0001
1000
,
0001
0101
0001
1100
,
0100
1000
0100
1000
0100
0000
0000
0011
0000
0000
0101
0000
,
0000
0000
0001
0100
0000
0100
0010
0000
0010
1000
0000
0001
,
0100
0000
0010
0000
0000
0110
0000
0000
0010
1000
0000
0000
,
0000
0000
1010
0000
0000
0000
1000
0000
0001
0000
0000
0000
,
0001
0000
0100
0010
0000
1000
0000
0000
0100
0010
0000
0010
,
0001
0000
0000
0000
0000
0000
0000
0000
0000
0011
0000
0000
0000
0000
0000
0000
0001
0000
0100
0000
0000
0000
0100
0000
,
0010
0000
1000
0100
0000
0010
0001
0100
0010
1000
0100
0010
,
0002
0100
1000
0010
,
1000
0100
0010
0100
,
2003
0001
0010
0001
,
0100
0001
0010
0001
,
3200
0010
0001
0010
,
1000
0000
0000
0310
0000
0000
0001
0010
0001
0010
0100
1000
,
0100
0000
0100
0010
0000
0000
0000
0000
0010
0001
0000
2002
,
0000
0000
0000
0000
0000
0000
0000
0000
0000
0000
3003
0000
,
0110
0100
0001
0010
,
0100
0000
1000
0100
0000
0010
0000
0012
,
0000
0000
1000
0000
0103
0000
1000
0100
,
0010
0000
0000
0011
0000
1001
0000
2100
,
0000
0001
0010
3100
,
1100
0000
0000
1001
0000
0000
0011
0000
,
0001
0000
0100
0010
0000
1000
0000
0100
,
0010
0000
0000
0001
0000
0000
0100
0000
0010
0100
0000
0001
,
1000
0100
0010
0001
,
0011
0000
0001
0100
0000
0100
0000
0100
,
0010
0000
0100
0001
0000
0001
1000
0001
,
0100
0010
0000
1000
0000
1010
0000
2002
,
0000
0003
0001
3000
1000
0000
1100
0000
,
0001
0000
0001
0100
0000
0010
0000
1000
,
0100
0000
0010
0000
0001
0100
0000
0202
,
0000
0000
0000
0000
0000
0000
0000
0000
0000
0303
0000
0000
0001
0000
0100
0000
0001
0000
0100
0000
0010
0000
1000
0000
,
0010
0000
1000
0100
0020
0000
0001
0000
,
0100
0000
0000
0031
0000
0001
0010
0000
0010
0001
0000
0000
,
0100
0010
1000
0100
,
0010
0000
0000
0001
0000
0001
0100
0000
0001
1000
0000
0000
,
0100
0000
0010
0000
0001
0000
0010
0100
,
0000
0000
0000
0100
0000
0000
1000
0000
0000
0000
1000
0000
0010
0000
0000
0000
1000
0000
0100
0000
0000
0000
0000
0000
,
0010
0000
1000
0100
0000
0100
0010
0000
,
0001
0000
0000
0011
0000
0000
0001
0000
1000
0001
0000
0000
,
0101
0000
0001
0100
0000
0010
0000
0010
,
1000
0000
1000
0100
0000
0010
0001
0100
,
0010
0000
0010
1000
0000
1000
0000
0001
,
0100
0000
0100
0010
0000
1000
0100
0010
,
0001
0000
0001
0010
0000
0100
1000
0000
,
1001
0000
1000
0100
0000
0010
0001
0000
,
0001
0000
0000
1000
0000
0000
0000
0000
0000
0001
0000
0000
1000
0000
0000
0001
0000
0000
1000
0000
0001
0000
1000
0000
,
0001
1000
0001
1000
0001
1000
0001
1000
0001
0100
0000
0010
,
0200
0000
0301
0000
0200
0000
1300
0100
,
0001
0100
0000
1100
0000
0101
0000
0001
,
1000
0001
0000
0001
0000
0100
0010
1000
,
0100
0010
0000
0001
0000
0100
0000
0020
,
0000
0000
1000
0000
1030
0100
0010
0001
,
0100
1000
0000
0100
0000
0001
0100
0010
,
0100
0000
0100
0001
0000
0001
0010
0100
,
1000
0000
0000
0010
0000
0000
0000
0000
0000
1010
0000
0000
0000
0000
0000
1000
0000
0000
0001
0000
1000
0000
0001
0000
,
1000
0011
0001
1010
,
1001
0000
0010
0001
0000
0100
0000
0010
,
1000
0001
1000
0100
0000
0010
0001
0010
,
0100
1000
0000
1100
0000
1001
0000
0201
,
0000
0000
0301
0000
0001
0010
0100
1000
,
0010
0000
0100
0001
0000
0001
0010
0001
,
1000
0000
1000
0010
0000
0010
0100
0010
,
1000
0000
0000
0010
0000
0000
1000
0000
0000
0010
0000
0000
1000
0000
0010
0000
1000
0000
0010
0000
1000
0000
0010
0000
,
1000
0000
0001
0100
0000
0000
0001
0000
1000
0100
0000
0000
,
1000
0000
0001
0010
0000
0000
0001
0000
1000
0010
0000
0000
,
1000
0000
0100
0010
0000
0000
0001
0000
0100
0010
0000
0000
,
1000
0000
0100
0010
0000
0000
0001
0000
0100
0010
0000
0000
,
1000
0000
0010
0100
0000
0000
0001
0000
0010
0100
0000
0000
,
1000
0000
0010
0100
0000
0000
0001
0010
0001
0010
0100
1000
,
0200
0000
0000
0000
0310
0000
0000
0110
,
0000
0000
0200
0020
0000
0330
0000
0000
;

//---------------dance-single - ----------------
#NOTES:
     dance-single:
     :
     Medium:
     7:
     0.557,0.750,0.211,0.272,0.171:
0000
0000
0000
0000
,
0000
0000
0000
0000
,
0000
0000
0000
0000
,
0000
0000
0000
0000
,
0000
0000
0000
0000
,
0000
0000
0000
0000
,
0001
0100
1000
0100
,
0001
0010
1000
0010
,
0001
0100
0010
1000
,
0100
0000
0000
0010
0000
0001
0000
0000
0010
0000
0000
0100
,
0000
1000
0010
0100
,
0101
0000
0000
1001
0000
0000
1100
0000
,
0000
0000
0000
1000
0000
0000
0100
0000
0010
0000
0000
0000
,
0002
0000
0000
0013
0000
0000
1000
0000
,
0020
0000
0000
0031
0000
0000
0010
0000
,
0001
0100
0000
0010
0000
0200
0000
0300
,
0000
0000
0110
0000
,
0001
0100
0010
1000
,
0100
0010
0001
0100
,
0020
0000
0000
1000
0000
0000
0130
0000
,
0000
0000
0000
0001
0000
0000
0000
0000
0000
0000
0000
0000
0010
0000
0000
0000
0001
0000
0000
0000
0000
0000
0000
0000
,
0011
0000
0000
1001
0000
0000
0000
0000
,
1100
0000
0000
1001
0000
0000
0000
0000
,
0001
0000
0000
0100
0000
0000
0010
0000
1000
0100
0000
0100
,
1000
0000
1000
0100
0000
0100
1000
0000
1000
0001
0000
0001
,
1000
0000
1000
0001
0000
0001
1000
0000
1000
0001
0000
0001
,
0010
0000
0010
0001
0000
0001
0010
0000
0010
0001
0000
0001
,
0100
0000
0100
0010
0000
0010
0100
0000
0100
0010
0000
0010
,
1000
0000
1000
0010
0000
0010
1000
0000
1000
0010
0000
0010
,
1000
0000
1000
0001
0000
0001
1000
0000
1000
0001
0000
0001
,
1000
0000
0100
0000
0010
0000
0001
0200
,
0000
0000
0000
0000
0000
0000
0000
0300
,
0110
0010
1000
0100
,
0010
0000
0001
0100
0000
0100
0000
0200
,
0000
0000
0300
0100
,
0110
0000
0000
0010
0000
1000
0000
0002
,
0000
0000
0003
0100
,
0101
0000
0000
1001
0000
0000
1100
0000
,
1000
0000
0001
0100
0000
0010
0000
1000
,
0100
0000
0010
0000
0001
0200
0000
0000
,
0310
1000
0100
1000
,
0010
0000
0100
0001
0000
0100
0000
0100
,
0010
0000
0010
1000
0000
0000
0100
1000
,
0100
1000
0000
0001
0000
0010
0000
0022
,
0000
0000
0000
0033
0000
0000
0001
0000
,
0100
0000
0010
1000
0000
0010
0000
0100
,
0001
0000
0100
0000
0010
1000
0000
0200
,
0000
0000
0010
0010
,
0310
0000
0000
0001
0000
0100
0000
0000
0000
1000
0000
0100
,
0000
0010
0001
0010
,
0000
0100
2000
0001
,
0000
0100
3100
1000
,
0010
0000
0100
0000
0001
0000
0010
0100
,
0000
1000
0010
0100
,
0002
0000
0000
0013
0000
0000
0100
0000
,
1000
0010
0110
0100
,
0001
0000
0010
0100
0000
1000
0000
0100
,
0010
0000
0001
0100
0000
0010
0000
0100
,
0001
0000
0001
0010
0000
0100
0000
1000
,
0010
0000
0010
1000
0000
0000
0100
0010
,
0200
0000
0000
2300
0000
0000
3020
0000
,
0230
0000
0000
0302
0000
0000
0023
0000
,
0230
0000
0020
0000
,
2000
0000
3331
0000
,
0001
0100
0001
1000
,
0100
0010
0000
0001
0000
0100
0000
0010
,
1000
0010
0000
1000
0000
0001
0100
0010
,
0100
0010
0000
1000
0000
0001
0000
2002
,
0000
0000
0000
3003
0000
0000
0001
0000
1000
0000
0000
0000
,
1000
0100
0000
0010
0000
0001
0100
0001
,
0100
0010
0000
1000
0000
0100
0010
0100
,
0010
0001
0000
0100
0000
0020
0000
0030
,
1000
1000
0001
0001
,
0101
0000
0001
1000
0000
0100
0000
1000
,
0001
0000
0100
0010
0000
0100
0000
0001
,
0010
0001
0000
1000
0000
0100
0000
2000
,
0000
0010
3000
0000
0010
1000
0000
1000
,
0001
0000
0001
0100
0000
0000
0100
0010
,
0100
0000
0010
1000
0000
1000
0100
1000
,
0100
0010
0001
0010
0000
0001
0000
0100
,
0010
1000
0100
0001
,
0100
1000
0010
0001
,
0001
0100
1000
0010
,
0001
0010
1000
0100
,
1001
0010
1000
0100
,
0001
0100
1000
0010
,
1010
0000
0000
0000
1001
0000
0000
0101
,
0000
0000
0100
0020
0000
0030
0000
0000
;

//---------------dance-single - ----------------
#NOTES:
     dance-single:
     :
     Easy:
     5:
     0.338,0.441,0.181,0.101,0.005: // measure 1
0000
0000
0000
0000
,  // measure 2
0000
0000
0000
0000
,  // measure 3
0000
0000
0000
0000
,  // measure 4
0000
0000
0000
0000
,  // measure 5
0000
0000
0000
0000
,  // measure 6
0000
0000
0000
0000
,  // measure 7
0101
0000
1100
0000
,  // measure 8
0011
0000
1010
0000
,  // measure 9
0110
0000
1001
0000
,  // measure 10
0001
1000
0001
1000
,  // measure 11
0100
0010
0100
0010
,  // measure 12
0001
0000
0000
0001
0000
0000
0001
0000
,  // measure 13
0000
0100
0000
0000
0100
0000
0000
0000
,  // measure 14
1000
0000
0000
1000
0000
0000
0000
0000
,  // measure 15
0010
0000
0000
0010
0000
0000
0000
0000
,  // measure 16
2002
0000
0000
0000
,  // measure 17
3003
0000
1001
0000
,  // measure 18
1000
0001
1000
0001
,  // measure 19
1000
0100
0010
0100
,  // measure 20
0010
0000
0000
0010
0000
0000
0010
0000
,  // measure 21
0000
0001
0000
0000
0011
0000
0000
0000
,  // measure 22
0001
0000
0000
0100
0000
0000
0000
0000
,  // measure 23
1000
0000
0000
0100
0000
0000
0000
0000
,  // measure 24
0001
1000
0001
1000
,  // measure 25
1001
MMMM
1000
MMMM
,  // measure 26
0100
MMMM
0100
MMMM
,  // measure 27
0010
MMMM
0010
MMMM
,  // measure 28
0001
MMMM
0001
MMMM
,  // measure 29
0100
MMMM
0100
MMMM
,  // measure 30
1000
MMMM
0100
MMMM
,  // measure 31
0001
0000
0000
MMMM
0000
0000
0000
0000
0000
0000
0000
0200
,  // measure 32
0000
0000
0000
0300
,  // measure 33
MMMM
0000
1000
0000
,  // measure 34
0001
0000
0000
1000
0000
0100
0000
0020
,  // measure 35
0000
0000
0000
0001
,  // measure 36
0031
0000
0000
0100
0000
0010
0000
2000
,  // measure 37
0000
0000
0000
3000
0000
0000
0001
0000
,  // measure 38
0100
0000
0000
0100
0000
0000
0100
0000
,  // measure 39
0010
0000
0000
0010
0000
0000
0010
0000
,  // measure 40
1000
0000
0001
0000
,  // measure 41
1001
0000
0001
1000
,  // measure 42
0001
0000
0000
0100
0000
0001
0000
2000
,  // measure 43
0000
0000
3000
1000
,  // measure 44
0001
0000
0000
0001
0000
0100
0000
0002
,  // measure 45
0000
0000
0003
0001
,  // measure 46
0010
0100
1000
0001
,  // measure 47
1000
0000
0100
0000
0010
0000
0000
0020
,  // measure 48
0000
0000
0000
0000
0000
0000
0000
0030
,  // measure 49
0000
0011
0000
1010
,  // measure 50
0000
0011
0000
1010
,  // measure 51
0000
0101
0000
1100
,  // measure 52
0000
0101
0000
0100
,  // measure 53
1000
0100
0001
0100
,  // measure 54
1000
0100
0001
0001
,  // measure 55
0001
0000
0000
0100
0000
0000
0010
0000
,  // measure 56
1000
0100
0010
0001
,  // measure 57
0010
0000
0000
0010
0000
0000
0010
0000
,  // measure 58
0100
0000
0000
0100
0000
0000
0100
0000
,  // measure 59
1000
0000
0000
1000
0000
0000
1000
0000
,  // measure 60
0010
0000
0000
0010
0000
0000
0010
0000
,  // measure 61
0100
0000
0000
0001
0000
0000
0100
0000
,  // measure 62
1000
0000
0000
0100
0000
0000
0001
0000
,  // measure 63
0010
0000
0010
0000
,  // measure 64
0010
0000
0010
0000
,  // measure 65
0001
0001
1000
1000
,  // measure 66
0100
0100
0010
0010
,  // measure 67
0002
0000
0000
0000
,  // measure 68
1003
0000
0000
1000
0000
0001
0000
0100
,  // measure 69
0000
0100
0000
0000
0100
0000
0000
0000
,  // measure 70
0010
1000
0010
0000
,  // measure 71
0100
0001
0100
0000
,  // measure 72
0001
1000
0001
0000
,  // measure 73
0001
0001
0100
0100
,  // measure 74
0010
0000
0000
1000
0000
1000
0000
1000
,  // measure 75
0000
0000
0000
0001
0000
0001
0000
0001
,  // measure 76
0000
0000
0000
0001
0000
0000
0001
0000
,  // measure 77
0000
1000
0000
0000
1000
0000
0000
0000
,  // measure 78
0100
0000
0000
0100
0000
0000
0000
0000
,  // measure 79
0010
0000
0000
0010
0000
0000
0000
0000
,  // measure 80
0001
0100
0010
1000
,  // measure 81
0100
MMMM
0100
MMMM
,  // measure 82
0010
MMMM
0010
MMMM
,  // measure 83
1000
MMMM
1000
MMMM
,  // measure 84
0001
MMMM
0001
MMMM
,  // measure 85
0100
MMMM
0010
MMMM
,  // measure 86
1000
MMMM
0001
0000
,  // measure 87
0001
0000
0000
0000
1000
0000
0000
0002
,  // measure 88
0000
0000
0000
0000
0000
0003
0000
0000
;

//---------------dance-single - ----------------
#NOTES:
     dance-single:
     :
     Beginner:
     1:
     0.101,0.173,0.000,0.000,0.020: // measure 1
0000
0000
0000
0000
,  // measure 2
0000
0000
0000
0000
,  // measure 3
0000
0000
0000
0000
,  // measure 4
0000
0000
0000
0000
,  // measure 5
0000
0000
0000
0000
,  // measure 6
0000
0000
0000
0000
,  // measure 7
0001
0000
0000
0000
,  // measure 8
0001
0000
0000
0000
,  // measure 9
1000
0000
1000
0000
,  // measure 10
0000
0000
0000
0000
,  // measure 11
0000
0000
0000
0000
,  // measure 12
1000
0000
0000
0000
,  // measure 13
0000
0000
1000
0000
,  // measure 14
1000
0000
0000
0000
,  // measure 15
0100
0000
0000
0000
,  // measure 16
0010
0000
0000
0000
,  // measure 17
0000
0000
0010
0000
,  // measure 18
0000
0000
0000
0000
,  // measure 19
0000
0000
0000
0000
,  // measure 20
0001
0000
0000
0000
,  // measure 21
0000
0000
0001
0000
,  // measure 22
0001
0000
0000
0000
,  // measure 23
0100
0000
0000
0000
,  // measure 24
0010
0000
0000
0000
,  // measure 25
1000
000M
M000
000M
,  // measure 26
1000
000M
M000
000M
,  // measure 27
1000
000M
M000
000M
,  // measure 28
1000
000M
M000
000M
,  // measure 29
0100
00M0
0M00
00M0
,  // measure 30
0100
00M0
0M00
00M0
,  // measure 31
0100
0000
00M0
0000
0M00
0000
00M0
0M00
,  // measure 32
00M0
0000
0M00
0000
00M0
0000
0M00
0000
00M0
0M00
00M0
0M00
00M0
0M00
00M0
0M00
,  // measure 33
0010
0000
0000
0000
,  // measure 34
0010
0000
0000
0000
,  // measure 35
0000
0000
0000
0000
,  // measure 36
1000
0000
0000
0000
,  // measure 37
0000
0000
0000
0000
,  // measure 38
0100
0000
0000
0000
,  // measure 39
0100
0000
0000
0000
,  // measure 40
0010
0000
0000
0000
,  // measure 41
0010
0000
0000
0000
,  // measure 42
0010
0000
0000
0000
,  // measure 43
0000
0000
0000
0000
,  // measure 44
0001
0000
0000
0000
,  // measure 45
0000
0000
0000
0000
,  // measure 46
0100
0000
0000
0000
,  // measure 47
0100
0000
0000
0000
,  // measure 48
0000
0000
0000
0000
,  // measure 49
0010
0000
0000
0000
,  // measure 50
0000
0000
0000
0000
,  // measure 51
1000
0000
0000
0000
,  // measure 52
1000
0000
0000
0000
,  // measure 53
0001
0000
0000
0000
,  // measure 54
0001
0000
0000
0000
,  // measure 55
0100
0000
0000
0000
,  // measure 56
0100
0000
0100
0000
,  // measure 57
0100
0000
0000
0000
,  // measure 58
0010
0000
0000
0000
,  // measure 59
1000
0000
0000
0000
,  // measure 60
0001
0000
0000
0000
,  // measure 61
1000
0000
0000
0000
,  // measure 62
0100
0000
0000
0000
,  // measure 63
0010
0000
0000
0000
,  // measure 64
0001
0000
0001
0000
,  // measure 65
0001
0000
0000
0000
,  // measure 66
0100
0000
0000
0000
,  // measure 67
0010
0000
0000
0000
,  // measure 68
1000
0000
0000
0000
,  // measure 69
1000
0000
0000
0000
,  // measure 70
0100
0000
0000
0000
,  // measure 71
0010
0000
0000
0000
,  // measure 72
0001
0000
0000
0000
,  // measure 73
0001
0000
0001
0000
,  // measure 74
0001
0000
0000
0000
,  // measure 75
1000
0000
0000
0000
,  // measure 76
1000
0000
0000
0000
,  // measure 77
0000
0000
0000
0000
,  // measure 78
0100
0000
0000
0000
,  // measure 79
0010
0000
0000
0000
,  // measure 80
1000
0000
0000
0000
,  // measure 81
0001
0000
0000
0000
,  // measure 82
0000
0000
0000
0000
,  // measure 83
0100
0000
0000
0000
,  // measure 84
0000
0000
0000
0000
,  // measure 85
0010
0000
0000
0000
,  // measure 86
0000
0000
0000
0000
,  // measure 87
1000
0000
0000
0000
;

//---------------dance-double - ----------------
#NOTES:
     dance-double:
     :
     Hard:
     9:
     0.734,0.882,0.332,0.121,0.438:
00000000
00000000
00000000
00000000
,
00000000
00000000
00000000
00000000
,
00000000
00000000
00000000
00000000
,
00000000
00000000
00000000
00000000
,
00000000
00000000
00000000
00000000
,
00000000
00000000
00000000
00000000
,
10000000
00000000
00010000
01000000
00000000
00000000
00010000
00000000
00100000
00001000
00000000
00000000
,
00010000
00000000
00000100
00001000
00000000
00000000
00000010
00000000
00000100
00000001
00000100
00000001
,
00000100
00000000
00000000
00000001
00000000
00000000
00001100
00000000
00000000
00001000
00000000
00001000
,
00000010
00000000
00000010
00000100
00000000
00000100
00000000
00000000
00000001
00000000
00000000
00000101
,
00000000
00000000
00000001
00000100
00000000
00000100
00001000
00000000
00001000
00010000
00000000
00010000
,
01000000
00000000
01000000
10000000
00000000
01000000
00010000
00000000
,
00000000
00011000
00000000
00000000
00010000
00001000
00000100
00000001
,
00000100
00000000
00000100
00001000
00000000
00001000
00010000
00100000
,
10000000
00000000
10000000
00100000
00000000
00100000
00010000
00001000
,
00000010
00000000
00000000
00000001
00000000
00000000
00000000
00000000
00000000
00000100
00000000
00000000
00000000
00000000
00000000
00001000
00000100
00000000
00001000
00000000
00000100
00000000
00001000
00000000
,
00000100
00000001
00000011
00001000
,
00000100
00000000
00010000
00000000
00001000
00000000
00100000
00000000
00010000
00000000
00000000
00000000
00000000
00000000
00010000
01000000
00000000
00000000
00000000
00000000
00000000
01100000
00000000
00000000
,
00000000
00100000
10000000
01000000
00010000
00001000
00000100
00000001
,
00000100
00000000
00000100
00001000
00000000
00001000
00010000
00000000
,
00010000
00000000
00000000
00100000
00000000
00000000
00000000
00000000
00000000
00000000
00000000
00000000
10100000
00000000
00000000
00000000
10100000
00000000
00000000
00000000
00000000
00000000
00000000
00000000
,
10010000
00000000
01000000
00010000
00000000
00001000
00010000
00001000
,
00000200
00000000
00000300
00000010
00000000
00000010
00000001
00000100
,
00001000
00000000
00000000
00010000
00000000
00000000
00100000
00000000
00000000
10000000
00000000
00000000
00010000
00000000
10000000
00000000
00010000
00000000
10000000
00000000
00010000
00000000
10000000
00000000
,
00020000
01000000
10000000
00130000
,
10010000
00000000
01000000
00010000
00000000
01000000
00001000
00000000
,
00010000
00002000
00000000
00000000
00000100
00000000
00013000
00000000
,
00011000
00000000
00010000
00000100
00000000
00001000
00000100
00000000
,
00000210
00000001
00000010
00001300
,
00001100
00000000
00000000
00000000
00000000
00000000
00000100
00000000
00000000
00010000
00000000
00000000
00001000
00000000
00010000
00000000
00001000
00000000
00010000
00000000
00001000
00000000
00010000
00000000
,
00002000
00000000
00000000
00010000
00000000
00000000
00000000
00003000
00000000
00000000
00000000
00022000
,
00000000
00000000
00000000
00000000
00000000
00000000
00000000
00000000
00000000
00000000
00000000
00033000
,
00011000
00010000
00100000
10000000
,
11000000
00000000
01000000
00010000
00000000
00001000
00000000
00010000
,
00001000
00000000
00000100
00000000
00000001
00000000
00000010
00000001
,
00000100
00000000
00000100
00000001
00000000
00001000
00000000
00001100
,
00000000
00010000
00001000
00100000
,
00010000
00000000
00000000
01010000
00000000
00000000
10000000
00000000
,
01000000
00000000
00010000
00001000
00000000
00001000
00000000
00000100
,
00000001
00000000
00000000
00000100
00000000
00000000
00001000
00000000
00010000
00001000
00000000
00100000
,
00010000
01000000
00100000
10000000
,
10100000
00000000
10000000
01000000
00000000
00010000
00000000
00001000
,
00000100
00000000
00001000
00000001
00000000
00000000
00000010
00001000
,
00010000
00100000
00000000
10000000
00000000
01000000
00000000
00010000
,
00000000
00001000
00000100
00000001
,
00000101
00000000
00000001
00000100
00001000
00010000
01000000
10000000
,
01000000
00000000
00010000
00000000
00001000
00010000
00000000
00011000
,
00000000
00000000
00000000
00010000
00000000
00000000
00000100
00000010
00000001
00001000
00000100
00000010
,
00000001
00000000
00000000
00000001
00000000
00000100
00000000
00000000
00000000
00010000
00000000
01000000
,
00000000
00000000
00000000
10000000
00000000
10000000
00100000
00000000
10000000
01000000
00000000
00000000
,
00001000
00010000
00011000
00011000
,
00010000
00000000
00000000
00000100
00000000
00000100
00001000
00000000
00000000
00000010
00000000
00000000
,
00000100
00000000
00000001
00000000
00000010
00001000
00000100
00001000
,
00000000
00000000
00000000
00010000
00000000
00010000
00100000
00000000
00010000
10000000
00000000
00010000
,
01000000
00000000
01000000
00100000
00000000
00100000
10000000
01000000
,
00010000
00000000
00000000
00001000
00000000
00000000
00000100
00000000
00000001
00000100
00000000
00000000
,
00000101
00000000
00000001
00000100
00000000
00000010
00000000
00001000
,
00000100
00010000
00001000
00100000
00000000
00010000
10000000
01000000
,
00100000
00000000
00100000
00001000
00000000
00010000
00000000
00000100
,
00001000
00000000
00001000
00000010
00000100
00000001
00000010
00000100
,
00001100
00000000
00001000
00010000
00000000
00001000
00100000
00000000
,
00110000
00000000
00010000
00100000
00000000
00010000
10000000
00000000
,
10000000
00000000
00010000
00000000
00000000
00010000
10000000
01000000
00100000
00010000
10000000
01000000
,
00100000
00010000
10000000
01000000
00100000
00010000
00100000
00000000
00000000
00010000
00000000
00010000
,
00001000
00000000
00000000
00000000
00001000
00000000
00000100
00000000
00000000
00000000
00000100
00000000
00000001
00000000
00000000
00000000
00000000
00000000
00000001
00000000
00000000
00000010
00000000
00000000
,
00000100
00000010
00000000
00001000
00000000
00010000
00000000
00100000
,
10000000
01000000
00000000
00100000
00000000
00001000
00010000
00000100
,
00001000
00000100
00000000
00001100
00000000
00000101
00000000
00001002
,
00000000
00000000
00000000
00001003
00000000
00000000
00000000
00000000
00000000
00000000
00000100
00000000
00001000
00000000
00000000
00010000
00000000
00000000
00100000
00000000
00000000
10000000
00000000
00000000
,
00100000
00010000
00100000
10000000
00000000
01000000
00010000
01000000
,
10000000
01000000
00010000
01000000
00000000
01000000
00100000
00010000
,
01000000
00000000
00000000
00100000
00000000
00000000
10000000
00000000
00000000
11000000
00000000
00000000
00000000
00000000
01000000
00000000
00010000
00000000
01000000
00000000
00010000
00000000
01000000
00000000
,
00010000
00110000
00011000
00001100
,
00001000
00000010
00000100
00000001
00000000
00000001
00000000
00000010
,
00000100
00001000
00000100
00000010
00000000
00000001
00000100
00001000
,
00000100
00000001
00000000
00000010
00000000
00001000
00000000
00020000
,
00000000
00000000
00000000
00000000
00000000
00000000
00130000
00000000
00000000
00000000
00000000
00000000
10000000
00000000
00000000
00000000
01000000
00000000
00100000
00000000
00000000
00010000
00000000
00000000
,
01000000
00100000
10000000
01000000
00000000
00001000
00000010
00000001
,
00000100
00000010
00001000
00000100
00000010
00000001
00000100
00001000
,
00010000
00000000
00000000
00001000
00000000
00000000
00010000
00000000
00001000
00000000
00010000
00000000
00001000
00000000
00010000
00000000
00001000
00000000
00010000
00000000
00001000
00000000
00010000
00000000
,
00001000
00000000
01000000
00100000
00000000
00000000
10000000
00000000
01000000
00100000
00000000
00000000
,
00010000
00000000
01000000
00100000
00000000
00000000
01000000
00000000
00010000
00100000
00000000
00000000
,
00010000
00000000
00100000
00001000
00000000
00000000
00010000
00000000
00000100
00001000
00000000
00000000
,
00000010
00000000
00001000
00000100
00000000
00000000
00000010
00000000
00000001
00000100
00000000
00000000
,
00000010
00000000
00001000
00000100
00000000
00000000
00000010
00000000
00000001
00000010
00000000
00000000
,
00010000
00000000
00001000
00010000
00000000
00000000
00001000
00010000
00001000
00010000
00001000
00010000
,
00002000
00000000
00000000
00000000
00013000
00000000
00000000
00011000
,
00000000
00000000
00002000
00020000
00000000
00033000
00000000
00000000
;

//---------------dance-double - ----------------
#NOTES:
     dance-double:
     :
     Medium:
     7:
     0.558,0.838,0.161,0.322,0.191:
00000000
00000000
00000000
00000000
,
00000000
00000000
00000000
00000000
,
00000000
00000000
00000000
00000000
,
00000000
00000000
00000000
00000000
,
00000000
00000000
00000000
00000000
,
00000000
00000000
00000000
00000000
,
20000000
00000000
02000000
00000000
,
00200000
00000000
00020000
00000000
,
33331000
00000000
10010000
10000000
,
01000000
00000000
00000000
00010000
00000000
00001000
00000000
00000000
00000100
00000000
00000000
00000001
,
00000000
00000100
00001000
00010000
,
00100000
00000000
00000000
10000000
00000000
00000000
01000000
00000000
,
00000000
00000000
00000000
00010000
00000000
00000000
00000000
00000000
00000000
00000000
00000000
00000000
00001000
00000000
00000000
00000000
00000100
00000000
00000000
00000000
00000000
00000000
00000000
00000000
,
00000101
00000000
00000000
00000000
00001100
00000000
00000000
00000000
00000000
00001000
00000000
00010000
,
02000000
00000000
00000000
00000000
13000000
00000000
00000000
00000000
00000000
10000000
00000000
00000000
,
00100000
01000000
00000000
00010000
00000000
00100000
00000000
00001000
,
00010000
00000100
00010100
00000100
,
00001000
00000000
00000010
00000100
00000000
00000001
00000000
00000010
,
00000000
00000001
00000100
00001000
,
00010000
00000000
00000000
01000000
00000000
00000000
10000000
00000000
,
00000000
01000000
00000000
00000000
00010000
00001000
00000000
00000000
,
00011000
00000000
00000000
00001100
00000000
00000000
00000100
00000000
,
00000101
00000000
00000000
00001100
00000000
00000000
00000100
00000000
,
00010000
00000000
00010000
00001000
00000000
00001000
00010000
00000000
00000000
00100000
00000000
10000000
,
01000000
00000000
00010000
01000000
00000000
10000000
01000000
00000000
00010000
01000000
00000000
10000000
,
00100000
00000000
00010000
00100000
00000000
10000000
00100000
00000000
00010000
00100000
00000000
10000000
,
00100000
00000000
00100000
10000000
00000000
10000000
00100000
00000000
00100000
10000000
00000000
10000000
,
01000000
00000000
01000000
10000000
00000000
10000000
01000000
00000000
01000000
10000000
00000000
10000000
,
00010000
00000000
00010000
01000000
00000000
01000000
00010000
00000000
00010000
01000000
00000000
01000000
,
00001000
00000000
00001000
00010000
00000000
00010000
00001000
00010000
00001000
00010000
00001000
00010000
,
00002000
00000000
00000000
00000000
00000000
00000000
00000000
00000200
,
00000000
00000000
00003300
00000000
,
00000001
00000010
00001000
00010000
,
01000000
00000000
10000000
00100000
00000000
00100000
00000000
00200000
,
00000000
00000000
10000000
00000000
01000000
00000000
10300000
00100000
,
10000000
00000000
00000000
11000000
00000000
01010000
00000000
20020000
,
00000000
00000000
30030000
10000000
,
00100000
00000000
00000000
01000000
00000000
00000000
00001000
00000000
,
00010000
00000000
00000100
00001000
00000000
00001000
00000000
00000100
,
00000010
00000000
00000001
00000000
00000100
00000020
00000000
00000000
,
00000130
00001000
00010000
00100000
,
10000000
00000000
01000000
00010000
00000000
00001000
00000000
00000100
,
00000001
00000000
00000001
00000010
00000000
00001000
00010000
00001000
,
00100000
00010000
00000000
01000000
00000000
00100000
00000000
20000000
,
00000000
30000000
00000000
00100000
,
00001000
00000000
00010000
00000100
00000000
00001000
00000000
00000010
,
00000100
00000000
00000001
00000000
00000010
00000100
00000000
00002000
,
00000000
00000000
00000000
00000000
00000000
00000000
00000000
00003000
,
00011000
00000000
00000000
00010000
00000000
01000000
00000000
00000000
00000000
10000000
00000000
01000000
,
00000000
00010000
00001000
00000100
,
00000001
00000010
00001000
00010000
,
00001000
00000010
00000001
00000100
,
00002000
00000000
00000000
00000000
00013000
00000000
00010000
00001000
,
00000000
00100000
00010000
01000000
,
00100000
00000000
00000000
00100000
00000000
00000000
00000000
00000000
,
10100000
10000000
00010000
01000000
,
01010000
00000000
01000000
00001000
00000000
00010000
00000000
00000100
,
00001000
00000000
00001000
00000001
00000000
00000100
00000000
00000010
,
00001000
00000000
00001000
00000100
00000000
00010000
00000000
00001000
,
00100000
00000000
00100000
00010000
00000000
00010000
01000000
00010000
,
20000000
00000000
00000000
32000000
00000000
00000000
03020000
00030000
,
00002000
00000000
00000000
00003200
00000000
00000000
00000301
00000000
,
00000200
00000000
00000020
00000000
,
00002000
00000000
00003331
00000000
,
00000101
00000000
00000100
00000000
00001000
00000000
00010000
00100000
,
00010000
00100000
00000000
10000000
00000000
01000000
00000000
00010000
,
00001000
00010000
00000000
00000100
00000000
00001000
00000010
00001000
,
00000010
00000100
00000000
00000001
00000000
00000010
00000000
00000100
,
00000000
00000000
00000100
00000000
00010000
00001000
00000000
00001000
,
00100000
00000000
00100000
00010000
00000000
00010000
10000000
00000000
,
10000000
01000000
00000000
01000000
00100000
00000000
00100000
00001000
,
00020000
00000000
00000000
00000100
00000000
00030100
00000000
00000000
,
00010000
00001000
00000100
00000001
,
00000100
00000000
00010000
00001000
00000000
00100000
00000000
00010000
,
02000000
00000000
03000000
00100000
,
10000000
01000000
00000000
00010000
00000000
00001000
00000000
00000200
,
00000000
00000000
00000000
00000000
00000300
00000000
00000100
00001000
,
00000100
00000000
00000100
00010000
00000000
00010000
00001000
00010000
,
00001000
00000000
00001000
00100000
00000000
00010000
01000000
00100000
,
10000000
00100000
01000000
00010000
00000000
01010000
00000000
00010000
,
20000000
01000000
01000000
01000000
,
01000000
01000000
01000000
01000000
,
02000000
00100000
00100000
00100000
,
00100000
00100000
00100000
00100000
,
00200000
00010000
00010000
00010000
,
00010000
00010000
00010000
00020000
,
00002000
00000000
00000000
00000000
00000000
00000000
00000000
00000020
,
00000000
00000000
00000001
00000002
00000000
33333033
00000000
00000000
;

//---------------dance-double - ----------------
#NOTES:
     dance-double:
     :
     Easy:
     5:
     0.417,0.573,0.151,0.383,0.050:
00000000
00000000
00000000
00000000
,
00000000
00000000
00000000
00000000
,
00000000
00000000
00000000
00000000
,
00000000
00000000
00000000
00000000
,
00000000
00000000
00000000
00000000
,
00000000
00000000
00000000
00000000
,
20000000
00000000
32000000
00000000
,
03020000
00000000
00032000
00000000
,
00003100
00000001
00000101
00000001
,
00000010
00000100
00010000
00001000
,
00011000
00001000
00100000
00010000
,
01000000
00000000
00000000
00100000
00000000
00000000
10000000
00000000
,
00000000
00000000
00000000
01000000
00000000
00000000
00000000
00000000
00000000
00000000
00000000
00000000
00100000
00000000
00000000
00000000
00010000
00000000
00000000
00000000
00000000
00000000
00000000
00000000
,
00110000
00000000
00000000
00011000
00000000
00000000
00000000
00000000
,
00001010
00000000
00000000
00011000
00000000
00000000
00000000
00000000
,
00010000
00100000
00000000
10000000
00000000
01000000
00000000
00000000
,
00000000
00000000
10010000
10000000
,
01000000
00100000
00010000
00100000
,
00001000
00000100
00000001
00000100
,
00001000
00000000
00000000
00100000
00000000
00000000
00010000
00000000
,
00000000
00000000
00000000
01000000
00000000
00000000
00000000
00000000
00000000
00000000
00000000
00000000
00100000
00000000
00000000
00000000
10000000
00000000
00000000
00000000
00000000
00000000
00000000
00000000
,
01000000
00000000
00000000
00010000
00000000
00000000
00000000
00000000
,
00001000
00000000
00000000
00000100
00000000
00000000
00000000
00000000
,
00000001
00000100
00001000
00010000
,
01000000
MMMMMMMM
01000000
MMMMMMMM
,
00010000
00000000
00000000
MMMMMMMM
00000000
00000000
00010000
00000000
00000000
MMMMMMMM
00000000
00000000
00010000
00000000
00000000
MMMMMMMM
,
00000000
00001000
00000000
00000000
00001000
00000000
MMMMMMMM
00000000
,
00000100
00000000
00000000
MMMMMMMM
00000000
00000000
00000100
00000000
00000000
MMMMMMMM
00000000
00000000
00000100
00000000
00000000
00000000
,
00000001
MMMMMMMM
00000001
MMMMMMMM
,
00000010
00000000
00000000
MMMMMMMM
00000000
00000000
00000010
00000000
00000000
MMMMMMMM
00000000
00000000
00000010
00000000
00000000
00000000
,
00002020
00000000
00000000
00000000
00003030
00000000
00000000
00022000
,
00000000
00000000
00000000
00033000
,
00110000
00000000
10000000
01000000
,
00010000
00000000
00000000
00001000
00000000
00000100
00000000
00000002
,
00000000
00000000
00000003
00000001
,
00000100
00000000
00000000
00001000
00000000
00010000
00000000
00200000
,
00000000
00000000
00300000
10000000
,
01000000
00000000
00000000
00100000
00000000
00000000
00001000
00000000
,
00000010
00000000
00000000
00000001
00000000
00000000
00000100
00000000
,
00000010
00000000
00010000
00000000
00002000
00010000
00000000
00000000
,
00013000
00100000
10000000
01000000
,
00010000
00000000
00000000
00001000
00000000
00000010
00000000
00000002
,
00000000
00000000
00000000
00000000
00000000
00000003
00000100
00000000
,
00000010
00000000
00000000
00010000
00000000
00001000
00000000
00200000
,
00000000
00000000
00000000
00300000
00010000
00000000
01000000
00000000
,
00100000
00000000
10000000
01000000
00000000
00100000
00000000
00000000
,
00010000
00000000
00000100
00000000
00010000
00000000
00000000
00020200
,
00000000
00000000
00000000
00030300
,
00010000
00000010
00000000
00001000
,
00000000
00000001
00000100
00001000
,
00000000
00010000
01000000
10000000
,
10000000
01000000
00010000
00001000
,
00010000
00000000
00000000
00000000
00010000
00000000
00000100
00001000
,
00000000
00000010
00000100
00000001
,
00000010
00000000
00000000
00000110
00000000
00000000
00000010
00000000
,
00001000
00010000
01000000
00010000
,
00001000
00000000
00000000
00010000
00000000
00000000
00010000
00000000
,
00001000
00000000
00000000
00000100
00000000
00000000
00000001
00000000
,
00000100
00000000
00000000
00001000
00000000
00000000
00010000
00000000
,
01000000
00000000
00000000
10000000
00000000
00000000
01000000
00000000
,
00020000
00000000
00000000
00032000
00000000
00000000
00003020
00000000
,
00000032
00000000
00000000
00000203
00000000
00000000
00002300
00000000
,
00023000
00000000
00230000
00000000
,
20300000
00000000
32000000
00000000
,
03010000
00010000
00001000
00001000
,
00000100
00000000
00000000
00000001
00000000
00000100
00000000
00001000
,
00000000
00000000
00000000
00010000
00000000
01000000
00000000
10000000
,
02000000
00000000
00000000
03020000
00000000
00000000
00032000
00000000
,
00000000
00000000
00000000
00003100
00000000
00000000
00000000
00000000
00000000
00000000
00000000
00000000
00000001
00000000
00000000
00000000
00000100
00000000
00000000
00000000
00000000
00000000
00000000
00000000
,
00002000
00000000
00000000
00013000
00000000
00000000
00001000
00000000
,
00020000
00000000
00000000
00031000
00000000
00000000
00001000
00000000
,
00100000
01000000
10000000
00100000
,
01000000
00010000
00100000
00001000
,
00010000
00000000
00000000
00000100
00000000
00000010
00000000
00000001
,
00000000
00000000
00000000
00000100
00000000
00001000
00000000
00010000
,
02000000
00000000
00000000
23000000
00000000
00000000
30200000
00000000
,
00000000
02300000
00000000
03000000
01000000
00010000
00000000
00000000
,
00200000
00000000
00000000
00301000
00000000
00000000
00001000
00000000
,
00020000
00000000
00000000
00030100
00000000
00000000
00010000
00000000
,
00001000
00000010
00000001
00000010
,
00001000
MMMMMMMM
00001000
MMMMMMMM
,
00010000
MMMMMMMM
00010000
MMMMMMMM
,
01000000
MMMMMMMM
01000000
MMMMMMMM
,
10000000
MMMMMMMM
10000000
MMMMMMMM
,
00100000
MMMMMMMM
00100000
MMMMMMMM
,
00010000
MMMMMMMM
00010000
MMMMMMMM
,
00011000
00000000
00000000
00000000
00011000
00000000
00000000
00011000
,
00000000
00000000
00020000
00002000
00000000
00033000
00000000
00000000
;
