#TITLE:SPLASH;
#SUBTITLE:;
#ARTIST:MAYA AKAI;
#TITLETRANSLIT:;
#SUBTITLETRANSLIT:;
#ARTISTTRANSLIT:;
#GENRE:;
#CREDIT:;
#BANNER:[ROUND I] - SPLASH-bn.png;
#BACKGROUND:[ROUND I] - SPLASH-bg.png;
#LYRICSPATH:;
#CDTITLE:;
#MUSIC:[ROUND I] - SPLASH.mp3;
#OFFSET:-0.081000;
#SAMPLESTART:72.848999;
#SAMPLELENGTH:14.800000;
#SELECTABLE:YES;
#BPMS:0.000000=132.000000
;
#STOPS:
;
#BGCHANGES:;
#KEYSOUNDS:;
#ATTACKS:;

//---------------dance-single - ----------------
#NOTES:
     dance-single:
     :
     Beginner:
     1:
     0.130888,0.177800,0.036286,0.099786,0.000000,86.000000,4.000000,11.000000,0.000000,0.000000,0.000000,0.130888,0.177800,0.036286,0.099786,0.000000,86.000000,4.000000,11.000000,0.000000,0.000000,0.000000:
// measure 0
0000
0000
0000
0000
,  // measure 1
0000
0000
0000
0000
,  // measure 2
0000
0000
0000
0000
,  // measure 3
0000
0000
0000
0000
,  // measure 4
0000
0001
0000
0001
,  // measure 5
0000
0001
0000
0001
,  // measure 6
0000
1000
0000
1000
,  // measure 7
0000
1000
0000
1000
,  // measure 8
1001
0000
0000
0000
,  // measure 9
0001
0000
1000
0000
,  // measure 10
0001
0000
0000
0000
,  // measure 11
0010
0000
0100
0000
,  // measure 12
0010
0001
0000
0001
,  // measure 13
0000
0001
0000
0001
,  // measure 14
0000
1000
0000
1000
,  // measure 15
1000
0000
0000
0000
,  // measure 16
0000
0010
0000
0010
,  // measure 17
0000
0010
0000
0010
,  // measure 18
0000
1000
0000
1000
,  // measure 19
0000
1000
0000
1000
,  // measure 20
0000
0001
0000
0001
,  // measure 21
0000
0001
0000
0001
,  // measure 22
0000
0100
0000
0100
,  // measure 23
0000
0100
0000
0100
,  // measure 24
0020
0000
0000
0000
,  // measure 25
0030
0000
0000
0000
,  // measure 26
2000
0000
0000
0000
,  // measure 27
3000
0000
0000
0000
,  // measure 28
0002
0000
0003
0000
,  // measure 29
0020
0000
0030
0000
,  // measure 30
0200
0000
0000
0000
,  // measure 31
0300
0000
0000
0000
,  // measure 32
1000
0001
0000
0001
,  // measure 33
0000
0001
0000
1001
,  // measure 34
0000
1000
0000
1000
,  // measure 35
0000
1000
0000
1001
,  // measure 36
1000
0000
0001
0000
,  // measure 37
1000
0000
0001
0000
,  // measure 38
0020
0030
0200
0300
,  // measure 39
2000
0000
3000
0000
,  // measure 40
0001
0000
0001
0000
,  // measure 41
0000
0000
1000
0000
,  // measure 42
0100
0000
0100
0000
,  // measure 43
0000
0000
1000
0000
,  // measure 44
0010
0000
0010
0000
,  // measure 45
0000
0000
0100
0000
,  // measure 46
0001
0000
0001
0000
,  // measure 47
0000
0000
1000
0000
,  // measure 48
0010
0000
0010
0000
,  // measure 49
0000
0000
1000
0000
,  // measure 50
0001
0000
0001
0000
,  // measure 51
0000
0000
0010
0000
,  // measure 52
0001
0000
1000
0000
,  // measure 53
0001
0000
1000
0000
,  // measure 54
0020
0030
0200
0300
,  // measure 55
0002
0000
1003
0000
,  // measure 56
0110
0000
0000
0000
;

//---------------dance-single - ----------------
#NOTES:
     dance-single:
     :
     Hard:
     7:
     0.434134,0.473530,0.145143,0.181429,0.113393,299.000000,16.000000,20.000000,0.000000,0.000000,0.000000,0.434134,0.473530,0.145143,0.181429,0.113393,299.000000,16.000000,20.000000,0.000000,0.000000,0.000000:
// measure 0
0000
0000
0000
0000
,  // measure 1
0000
0000
0000
0000
,  // measure 2
0000
0000
0000
0000
,  // measure 3
0000
0000
0000
0000
,  // measure 4
1000
0000
1010
0000
0001
1000
0100
0000
,  // measure 5
0010
0000
0011
0000
1000
0001
0010
0000
,  // measure 6
0001
0000
0101
0000
0001
1000
0010
0000
,  // measure 7
1000
0000
1100
0000
1000
0001
0010
0000
,  // measure 8
1001
1000
0010
0010
,  // measure 9
0001
0001
0100
0100
,  // measure 10
1000
1000
0100
0100
,  // measure 11
0001
0001
0010
0010
,  // measure 12
1000
0100
0010
0000
0100
1000
0001
0000
,  // measure 13
0100
0010
1000
0000
0100
1000
0001
0000
,  // measure 14
1000
0100
0010
0000
0001
0100
1000
0100
,  // measure 15
0002
1000
0000
1003
,  // measure 16
1010
0010
0100
0000
0010
1000
0100
0010
,  // measure 17
0001
0100
0010
0000
0100
0001
1000
0000
,  // measure 18
0011
0010
0100
0000
1000
0010
0100
0001
,  // measure 19
0010
0100
1000
0000
0001
1000
0100
0000
,  // measure 20
0011
0001
0100
0000
0010
1000
0001
0010
,  // measure 21
0100
1000
0010
0000
1000
0100
0010
0000
,  // measure 22
1100
1000
0001
0000
0100
0010
1000
0100
,  // measure 23
0010
0000
0001
0000
1000
0000
0000
0000
0001
0000
0000
0010
0000
0000
0100
0000
,  // measure 24
2000
0000
0000
0000
,  // measure 25
0000
0000
0000
0000
0000
0000
0000
0000
3002
0000
0000
0203
0000
0000
0010
0000
,  // measure 26
0020
0000
0000
0000
0000
0300
0000
2000
,  // measure 27
0000
0000
0000
0000
0000
0000
0030
0000
0000
0000
0000
0000
0002
0000
0000
3000
0000
0000
0000
0000
0000
1003
0000
0100
,  // measure 28
2000
0000
0000
0000
0000
0000
0000
0000
0000
0000
0000
0000
0000
0000
0000
0000
0000
0000
0000
0000
0000
3100
0000
0010
,  // measure 29
0002
0000
0000
0200
0003
0000
0010
0000
,  // measure 30
0020
0000
0000
0000
0000
0300
0000
2000
,  // measure 31
0000
0030
0002
3003
,  // measure 32
1000
0100
0001
0100
1000
0100
0001
0100
,  // measure 33
1000
0100
0010
0001
1000
0010
0101
0000
,  // measure 34
0001
0100
1000
0100
0001
0100
1000
0100
,  // measure 35
0001
0100
0010
1000
0001
0010
1100
0000
,  // measure 36
0001
0001
0010
0010
0100
0100
1000
0010
,  // measure 37
1000
1000
0100
0100
0010
0010
0001
0010
,  // measure 38
0001
0100
1000
0100
0001
0010
1000
0010
,  // measure 39
0120
0000
0002
0033
,  // measure 40
1000
0000
0100
0000
0010
0000
0001
0000
1000
0000
0000
1000
0000
0000
1000
0000
,  // measure 41
0000
0000
0001
0000
0100
0000
0001
0000
1000
0000
0000
1000
0000
0000
1000
0000
,  // measure 42
0001
0000
0010
0000
0100
0000
1000
0000
0010
0000
0000
0010
0000
0000
0010
0000
,  // measure 43
0000
0000
0100
0000
0001
0000
0100
0000
0010
0000
0000
0010
0000
0000
0010
0000
,  // measure 44
1000
0000
0100
0000
0001
0000
0100
0000
1000
0000
0000
1000
0000
0000
1000
0000
,  // measure 45
0000
0000
0001
0000
0100
0000
0010
0000
1000
0000
0000
1000
0000
0000
1000
0000
,  // measure 46
0100
0000
0010
0000
0100
0000
1000
0000
0001
0000
0000
0001
0000
0000
0001
0000
,  // measure 47
0000
0000
1000
0000
0010
0000
0100
0000
0001
0000
0000
0001
0000
0000
0001
0000
,  // measure 48
1000
0000
0100
0000
0010
0001
0010
0000
0001
0000
0000
1000
0000
0000
1100
0000
,  // measure 49
0000
0000
0010
0000
0001
1000
0001
0000
0200
0000
0000
0310
0000
0000
1000
0000
,  // measure 50
0001
0000
0010
0000
0100
1000
0100
0000
1000
0000
0000
0001
0000
0000
0101
0000
,  // measure 51
0000
0000
0000
0000
0000
0000
0010
0000
0000
0000
0000
0000
1000
0000
0000
0001
0000
0000
1000
0000
0000
0000
0000
0000
0200
0000
0000
0000
0000
0000
0000
0000
0000
0010
0300
0000
0000
0000
0000
0000
0000
0000
0110
0000
0000
0000
0000
0000
,  // measure 52
0001
0001
0010
0010
0100
0100
1000
0001
,  // measure 53
1000
1000
0010
0010
0100
0100
0001
1000
,  // measure 54
0001
0000
0010
0001
0000
0000
0001
0000
0100
0001
0000
0000
1000
0000
0010
1000
0000
0000
1000
0000
0100
1000
0000
0000
,  // measure 55
0002
0000
0000
0000
0000
0000
0000
0000
0013
0000
0000
0100
0000
0000
1000
0000
,  // measure 56
0202
0000
0000
0000
,  // measure 57
0000
0000
0000
0000
,  // measure 58
0303
0000
0000
0000
;

//---------------dance-single - ----------------
#NOTES:
     dance-single:
     :
     Challenge:
     9:
     0.739971,0.841830,0.054429,0.644073,0.920752,494.000000,6.000000,71.000000,0.000000,0.000000,0.000000,0.739971,0.841830,0.054429,0.644073,0.920752,494.000000,6.000000,71.000000,0.000000,0.000000,0.000000:
// measure 0
0000
0000
0000
0000
,  // measure 1
0000
0000
0000
0000
,  // measure 2
0000
0000
0000
0000
,  // measure 3
0000
0000
0000
0000
,  // measure 4
1000
0000
0000
0100
0000
0010
0000
0000
0010
0001
0000
1000
0010
0000
0000
1000
0000
0100
0000
0000
0100
0010
0000
0001
,  // measure 5
1000
0000
0000
0001
0000
0100
0000
0000
0100
0010
0000
1000
0001
0000
0000
1000
0000
0100
0000
0000
0010
0001
0000
1000
,  // measure 6
0001
0000
0000
0100
0000
0010
0000
0000
1000
0001
0000
1000
0100
0000
0000
0010
0000
0001
0000
0000
1000
0001
0000
0100
,  // measure 7
0010
0000
0000
1000
0000
0010
0000
0000
0100
0001
0000
1000
0001
0000
0000
1000
0000
0001
0000
0000
0001
0010
0000
0100
,  // measure 8
2000
0000
0000
0000
0000
3100
1000
0000
0000
0000
0000
0000
0001
0000
0200
0000
0000
0310
0100
0000
0000
0010
0000
0000
,  // measure 9
0120
0000
0000
0000
0000
1030
0001
0000
0000
0000
0000
0000
0120
0000
0000
0000
0000
0031
1000
0000
0002
0000
0000
0000
,  // measure 10
0020
0003
0000
0000
0000
0130
0010
0000
0000
0000
0000
0000
0001
0000
2000
0000
0000
3001
1000
0000
0000
0010
0000
0000
,  // measure 11
0120
0000
0000
0000
0000
1030
0001
0000
0000
0000
0000
0000
0120
0000
0000
0000
0000
0031
1000
0000
0020
0000
0000
0000
,  // measure 12
2030
0000
0000
3001
0000
1000
0100
0000
0000
1000
0000
0000
0010
0000
2000
0000
0000
3010
1000
0000
0000
0010
0000
0000
,  // measure 13
0200
0000
0000
0301
0000
1000
0100
0000
0000
1000
0000
0000
0020
0000
0000
1030
0000
0001
0100
0000
0002
0000
0000
0013
,  // measure 14
0200
0000
0000
1300
0000
0001
0100
0000
0000
0001
0000
0000
1000
0000
0002
0000
0000
1003
0100
0000
0000
1000
0000
0000
,  // measure 15
0020
0000
0000
0000
0000
0100
0000
0000
0000
0000
0000
0000
2030
0000
0000
0000
0000
0100
0000
0000
3002
0000
0000
0000
,  // measure 16
0023
0000
0000
0130
0000
1000
0001
0000
0000
0100
0000
0000
0010
0000
0200
0000
0000
0301
0100
0000
0000
0010
0000
0000
,  // measure 17
2000
0000
0000
3001
0000
1000
0100
0000
0000
1000
0000
0000
0002
0000
0000
0013
0000
0100
0010
0000
0002
0000
0000
0103
,  // measure 18
0002
0000
0000
1003
0000
0001
0010
0000
0000
0100
0000
0000
1000
0000
0002
0000
0000
0103
0010
0000
0000
1000
0000
0000
,  // measure 19
0020
0000
0000
0130
0000
0001
1000
0000
0000
0001
0000
0000
0020
0000
0000
0130
0000
1000
0100
0000
0020
0000
0000
0031
,  // measure 20
0020
0000
0000
0031
0000
1000
0010
0000
0000
1000
0000
0000
0100
0000
0020
0000
0000
0031
0010
0000
0000
0100
0000
0000
,  // measure 21
2000
0000
0000
3001
0000
1000
0100
0000
0000
1000
0000
0000
0020
0000
0000
1030
0000
0001
0100
0000
0002
0000
0000
0103
,  // measure 22
0002
0000
0000
0013
0000
0001
0100
0000
0000
0001
0000
0000
1000
0000
0020
0000
0000
1030
0100
0000
0000
0010
0000
0000
,  // measure 23
0002
0000
0000
0103
0000
0001
1000
0000
0000
0001
0000
0000
1000
0000
0000
0000
0000
0100
0000
0000
0000
0010
0000
0000
,  // measure 24
0012
0000
0000
0000
,  // measure 25
0000
0000
0000
0000
0000
0000
0000
0000
0000
0000
0000
0000
2003
0000
0000
0000
0000
3020
0000
0000
0000
0100
0000
0000
,  // measure 26
0200
0000
0000
0000
0000
0000
0030
2000
,  // measure 27
0000
0000
0000
0000
0000
0000
0000
0000
0000
0300
0000
0000
0002
0000
0000
3000
0000
0000
0000
0000
0000
0013
0000
1000
,  // measure 28
0002
0000
0000
0000
0000
0000
0000
0000
0000
0000
0000
0000
0000
0000
0000
0000
0000
0000
0000
0000
0000
0013
0000
0100
,  // measure 29
2000
0000
0000
0020
0000
3000
0100
0000
,  // measure 30
0200
0000
0000
0000
0000
0000
0030
0002
,  // measure 31
0000
0000
0000
0300
2000
0000
3003
0000
,  // measure 32
0001
0000
0000
0010
0000
0100
1000
0000
0000
0100
0000
0000
0010
0000
0000
0100
0000
1000
0001
0000
0000
0010
0000
0000
,  // measure 33
1000
0000
0000
0010
0000
0001
0100
0000
0000
0010
0000
0000
2000
0000
0000
0000
0000
0100
0000
0000
0000
3001
0000
0000
,  // measure 34
1000
0000
0000
0010
0000
0100
0001
0000
0000
0100
0000
0000
0010
0000
0000
0100
0000
0001
1000
0000
0000
0010
0000
0000
,  // measure 35
0001
0000
0000
0010
0000
1000
0100
0000
0000
0010
0000
0000
0002
0000
0000
0000
0000
0023
0000
0000
0000
0130
0000
0000
,  // measure 36
1000
0000
0100
1000
0000
0100
1000
0000
0100
1000
0000
0100
0010
0000
0100
0010
0000
0100
0010
0000
0100
0010
0000
0100
,  // measure 37
0010
0000
0001
0010
0000
0001
0010
0000
0001
0010
0000
0001
1000
0000
0001
1000
0000
0001
1000
0000
0001
1000
0000
0001
,  // measure 38
1000
0010
1000
0010
1000
0010
1000
0010
1000
0010
1000
0010
0100
0001
0100
0001
0100
0001
0100
0001
0100
0001
0100
0001
,  // measure 39
2000
0000
0002
3003
,  // measure 40
1000
0000
0000
0001
0000
0000
1000
0000
0100
1000
0000
0100
2000
0000
0000
0000
0000
3100
0010
0000
0000
0001
0000
0000
,  // measure 41
0000
0000
1000
0000
0000
1000
0001
0000
1000
0001
0000
1000
0002
0000
0000
0000
0000
0103
0010
0000
0000
1000
0000
0000
,  // measure 42
0001
0000
0000
1000
0000
0000
0001
0000
0100
0001
0000
0100
0002
0000
0000
0000
0000
0103
0010
0000
0000
1000
0000
0000
,  // measure 43
0000
0000
0001
0000
0000
0001
1000
0000
0001
1000
0000
0001
2000
0000
0000
0000
0000
3100
0010
0000
0000
0001
0000
0000
,  // measure 44
1000
0000
0000
0100
0000
0000
0010
0000
0001
0010
0000
0001
0020
0000
0000
0000
0000
0130
1000
0000
0000
0001
0000
0000
,  // measure 45
0000
0000
0100
0000
0000
0100
0010
0000
1000
0010
0000
1000
0020
0000
0000
0000
0000
0130
0001
0000
0000
1000
0000
0000
,  // measure 46
0100
0000
0000
0010
0000
0000
0100
0000
1000
0100
0000
1000
0200
0000
0000
0000
0000
0310
0001
0000
0000
1000
0000
0000
,  // measure 47
0000
0000
0001
0000
0000
0001
1000
0000
0001
1000
0000
0001
2000
0000
0000
0000
0000
3010
1000
0000
0000
0001
0000
0000
,  // measure 48
0010
0000
0000
0001
0000
0000
0100
0000
0010
0100
0000
0010
2000
0000
0000
3001
0000
0010
0000
0000
0010
0100
0000
0000
,  // measure 49
1000
0000
0002
0000
0000
1003
0100
0000
0100
0010
0000
0010
0002
0000
0000
1003
0000
0001
0000
0000
0001
0100
0000
0000
,  // measure 50
0010
0000
0000
1000
0000
0000
0100
0000
0010
0100
0000
0010
0002
0000
0000
1003
0000
0001
0000
0000
0001
0100
0000
0000
,  // measure 51
0010
0000
2000
0000
0000
3001
0100
0000
0100
0010
0000
0010
1000
0000
0000
1000
0000
0100
0000
0000
0100
0010
0000
0000
,  // measure 52
0001
0000
0010
0001
0000
0010
0001
0000
0010
0001
0000
0001
1000
0000
0010
1000
0000
0010
1000
0000
0010
1000
0000
1000
,  // measure 53
0100
0000
1000
0100
0000
1000
0100
0000
1000
0100
0000
0100
0010
0000
0001
0010
0000
0001
0010
0000
0001
0010
0000
0010
,  // measure 54
0100
1000
0100
1000
0100
1000
0100
1000
0100
1000
0100
1000
0001
0100
0001
0100
0001
0100
0001
0100
0001
0100
0001
0100
,  // measure 55
0020
0000
0000
0000
0000
0000
0000
0000
0000
0000
0000
0000
1030
0000
0000
0000
0000
0100
0000
0000
0000
0010
0000
0000
,  // measure 56
2002
0000
0000
0000
,  // measure 57
0000
0000
0000
0000
,  // measure 58
3003
0000
0000
0000
;

//---------------dance-single - ----------------
#NOTES:
     dance-single:
     :
     Medium:
     5:
     0.368042,0.341994,0.399144,0.127000,0.004536,226.000000,44.000000,14.000000,0.000000,0.000000,0.000000,0.368042,0.341994,0.399144,0.127000,0.004536,226.000000,44.000000,14.000000,0.000000,0.000000,0.000000:
// measure 0
0000
0000
0000
0000
,  // measure 1
0000
0000
0000
0000
,  // measure 2
0000
0000
0000
0000
,  // measure 3
0000
0000
0000
0000
,  // measure 4
1000
1010
0001
0011
,  // measure 5
0001
0101
1000
1100
,  // measure 6
0010
1010
0100
1100
,  // measure 7
0001
0011
1000
1010
,  // measure 8
1001
0001
0001
0001
,  // measure 9
0010
0010
0100
0100
,  // measure 10
1000
1000
1000
1000
,  // measure 11
0001
0001
1000
1000
,  // measure 12
0010
1010
1000
1001
,  // measure 13
0001
0011
0010
0110
,  // measure 14
0100
1100
1000
1001
,  // measure 15
0002
0100
0000
0103
,  // measure 16
0010
0000
1010
0000
0001
1000
0100
0000
,  // measure 17
0010
0011
1000
1010
,  // measure 18
0001
0000
0101
0000
1000
0001
0100
0000
,  // measure 19
0010
1010
0001
0011
,  // measure 20
1000
0000
1100
0000
0001
1000
0100
0000
,  // measure 21
0010
0011
1000
1010
,  // measure 22
0001
0000
0101
0000
1000
0001
0100
0000
,  // measure 23
0010
0000
0000
0000
0110
0000
0000
0000
1000
0000
0000
0001
0000
0000
1000
0000
,  // measure 24
0002
0000
0000
0000
,  // measure 25
0000
0000
0023
0000
,  // measure 26
0230
0000
0000
0000
0000
0000
0000
0010
,  // measure 27
0000
0000
0000
0000
2300
0000
0000
0010
,  // measure 28
3020
0000
0000
0000
0000
0000
0000
0100
,  // measure 29
0230
0000
0000
0010
0000
0000
0001
0000
,  // measure 30
0302
0000
0000
0000
0000
0000
0000
1000
,  // measure 31
0000
0000
0200
0303
,  // measure 32
0010
0000
1010
0000
0001
1000
0100
0000
,  // measure 33
0010
0000
0011
0000
1000
0001
0100
0000
,  // measure 34
0010
0000
1010
0000
0001
0010
0100
0000
,  // measure 35
1000
0000
1100
0000
1000
0001
0100
0000
,  // measure 36
0010
1000
0010
0000
0100
0001
0100
0000
,  // measure 37
0001
0010
0001
0000
1000
0100
1000
0000
,  // measure 38
0001
0010
0001
0010
0100
1000
0100
1000
,  // measure 39
0002
0000
2000
3003
,  // measure 40
0001
0100
0010
0000
1000
0000
1010
0000
,  // measure 41
0001
0010
0100
0000
1000
0000
0101
0000
,  // measure 42
1000
0100
0010
0000
0001
0000
0011
0000
,  // measure 43
1000
0001
0100
0000
0010
0000
1010
0000
,  // measure 44
0001
1000
0100
0000
0010
0000
1100
0000
,  // measure 45
0100
1000
0001
0000
0010
0000
0101
0000
,  // measure 46
0001
1000
0010
0000
0100
0000
0101
0000
,  // measure 47
1000
0001
0010
0000
0100
0000
1001
0000
,  // measure 48
1000
0100
0010
0000
0100
0000
1100
0000
,  // measure 49
0001
0100
1000
0100
0001
0000
0011
0000
,  // measure 50
0010
0100
1000
0000
0001
0000
0101
0000
,  // measure 51
1000
0100
0001
0100
1000
0000
1010
0000
,  // measure 52
0001
0010
0001
0000
0100
0001
0100
0000
,  // measure 53
0010
1000
0010
0000
1000
0100
1000
0000
,  // measure 54
0010
1000
0010
1000
0001
0100
0001
0100
,  // measure 55
0020
0000
1030
0110
,  // measure 56
2002
0000
0000
0000
,  // measure 57
0000
0000
0000
0000
,  // measure 58
3003
0000
0000
0000
;

//---------------dance-single - ----------------
#NOTES:
     dance-single:
     :
     Easy:
     3:
     0.251409,0.289379,0.018143,0.272143,0.000000,162.000000,2.000000,30.000000,0.000000,0.000000,0.000000,0.251409,0.289379,0.018143,0.272143,0.000000,162.000000,2.000000,30.000000,0.000000,0.000000,0.000000:
// measure 0
0000
0000
0000
0000
,  // measure 1
0000
0000
0000
0000
,  // measure 2
0000
0000
0000
0000
,  // measure 3
0000
0000
0000
0000
,  // measure 4
1000
0001
0000
0001
,  // measure 5
1000
0100
0000
0100
,  // measure 6
0010
0001
0000
0001
,  // measure 7
1000
0010
0000
0010
,  // measure 8
0100
0100
0100
0100
,  // measure 9
0001
0001
1000
1000
,  // measure 10
0100
0100
0100
0100
,  // measure 11
1000
1000
0001
0001
,  // measure 12
0100
0010
0000
0010
,  // measure 13
1000
0001
0000
0001
,  // measure 14
0010
0100
0000
0100
,  // measure 15
2000
0000
0000
3000
,  // measure 16
0002
0103
0010
1000
,  // measure 17
0002
0013
2000
3010
,  // measure 18
0002
0013
0100
1000
,  // measure 19
0002
0103
2000
3100
,  // measure 20
0200
0310
1000
0100
,  // measure 21
0020
0130
2000
3100
,  // measure 22
0020
0031
1000
0010
,  // measure 23
0200
0000
0310
1000
,  // measure 24
0002
0000
0000
0000
,  // measure 25
0000
0000
0000
0000
,  // measure 26
2003
0000
0000
0000
,  // measure 27
0000
0000
0000
0000
,  // measure 28
3200
0000
0000
0000
,  // measure 29
0320
0000
0000
0000
,  // measure 30
0032
0000
0000
0000
,  // measure 31
2003
0000
3020
0030
,  // measure 32
1000
0001
1000
0001
,  // measure 33
0010
0100
1000
0000
,  // measure 34
0001
1000
0001
1000
,  // measure 35
0010
0100
0001
0000
,  // measure 36
1000
0100
0010
0001
,  // measure 37
1000
0010
0100
0001
,  // measure 38
1000
0100
0001
0010
,  // measure 39
2000
0000
0002
3003
,  // measure 40
1000
0100
2000
3000
,  // measure 41
0001
0100
0001
0001
,  // measure 42
0100
0010
2000
3000
,  // measure 43
0001
0010
0001
0001
,  // measure 44
0010
0100
0020
0030
,  // measure 45
0001
1000
0001
0001
,  // measure 46
0010
0100
2000
3000
,  // measure 47
0010
1000
0010
0010
,  // measure 48
1000
0100
0020
0030
,  // measure 49
0001
1000
0001
0100
,  // measure 50
1000
0100
0002
0003
,  // measure 51
0010
0001
1000
0010
,  // measure 52
1000
0100
0010
0001
,  // measure 53
1000
0010
0100
0001
,  // measure 54
1000
0100
0001
0010
,  // measure 55
2000
0000
3010
1001
,  // measure 56
0220
0000
0000
0000
,  // measure 57
0000
0000
0000
0000
,  // measure 58
0330
0000
0000
0000
;
