#TITLE:Re\:GENERATION;
#SUBTITLE:;
#ARTIST:TAG feat. ERi;
#TITLETRANSLIT:;
#SUBTITLETRANSLIT:;
#ARTISTTRANSLIT:;
#GENRE:;
#CREDIT:;
#BANNER:;
#BACKGROUND:;
#LYRICSPATH:;
#CDTITLE:;
#MUSIC:[ROUND I] - ReGENERATION.ogg;
#OFFSET:0.680000;
#SAMPLESTART:57.400002;
#SAMPLELENGTH:11.800000;
#LASTBEATHINT:302.199341;
#SELECTABLE:YES;
#BPMS:0.000000=176.000000
,237.500000=88.000000
,256.000000=176.000000
,288.000000=88.000000
;
#STOPS:237.500000=0.510000
;
#BGCHANGES:;
#KEYSOUNDS:;
#ATTACKS:;

//---------------dance-single - ----------------
#NOTES:
     dance-single:
     :
     Easy:
     4:
     0.309867,0.509479,0.176552,0.092480,0.000000,258.000000,237.000000,21.000000,11.000000,0.000000,0.000000,0.309867,0.509479,0.176552,0.092480,0.000000,258.000000,237.000000,21.000000,11.000000,0.000000,0.000000:
// measure 0
0000
0000
0000
0000
,  // measure 1
0000
0000
0000
0000
,  // measure 2
0000
0000
0000
0000
,  // measure 3
0000
0000
0000
0000
,  // measure 4
0000
0000
0000
0000
,  // measure 5
1000
0100
1000
0010
,  // measure 6
0100
0001
0100
0010
,  // measure 7
1000
0010
0001
0010
,  // measure 8
0100
0001
1000
0010
,  // measure 9
1000
0100
0010
0001
,  // measure 10
1001
0000
1000
0001
,  // measure 11
1000
0000
0100
1000
,  // measure 12
0010
0000
0100
0000
,  // measure 13
0001
0010
0001
0100
,  // measure 14
0110
0000
0010
0100
,  // measure 15
0010
0000
1000
0001
,  // measure 16
0010
0000
0100
0000
,  // measure 17
1000
0000
0001
0000
,  // measure 18
1001
0000
0000
0000
1000
0000
0000
0100
,  // measure 19
0000
0100
0000
0000
0000
0000
0000
0000
,  // measure 20
0110
0000
0000
0000
0010
0000
0000
0001
,  // measure 21
0000
0001
0000
0001
0000
0000
0000
0000
,  // measure 22
1000
0010
1000
0100
,  // measure 23
1000
0010
1000
0000
,  // measure 24
0001
0100
0001
0010
,  // measure 25
0001
0100
0001
0000
,  // measure 26
0110
0000
0000
0000
0100
0000
0000
0001
,  // measure 27
0000
0001
0000
0001
0000
0000
0000
0000
,  // measure 28
1001
0000
0000
0000
1000
0000
0000
0010
,  // measure 29
0000
0010
0000
0010
0000
0000
0000
0000
,  // measure 30
1000
0010
0001
0010
,  // measure 31
1000
0100
0010
0000
,  // measure 32
0001
0010
1000
0010
,  // measure 33
0001
0100
0010
0100
,  // measure 34
1002
0000
1000
0000
,  // measure 35
0010
0000
0010
0103
,  // measure 36
1001
0110
1001
0110
,  // measure 37
0000
1010
0101
0000
,  // measure 38
1000
0100
0001
0100
,  // measure 39
1000
0010
0100
0001
,  // measure 40
0020
0000
0100
0000
,  // measure 41
1000
0000
0001
0000
,  // measure 42
0130
0000
0000
1001
0000
0000
0000
0000
,  // measure 43
1000
0100
0010
0001
,  // measure 44
0100
0001
0010
0000
,  // measure 45
0001
0100
0010
1000
,  // measure 46
0001
1000
0100
0000
,  // measure 47
1000
0010
0100
0001
,  // measure 48
0100
0001
0010
0000
,  // measure 49
0001
0010
1000
0010
,  // measure 50
0001
1000
1001
0000
,  // measure 51
1000
0010
1000
0010
,  // measure 52
0100
0001
0100
0001
,  // measure 53
0020
0000
0100
0100
,  // measure 54
0032
0000
2003
0000
,  // measure 55
3010
1000
0001
0100
,  // measure 56
0001
0010
0100
0010
,  // measure 57
0200
0000
2300
0000
,  // measure 58
3001
0010
1000
0010
,  // measure 59
0100
0000
0000
1001
1000
0000
0010
0000
,  // measure 60
0100
1000
0001
0010
,  // measure 61
0100
0000
0001
0000
1000
1000
0100
0100
,  // measure 62
0010
0010
0001
0001
0101
0000
1100
0000
,  // measure 63
0120
0032
2003
3020
,  // measure 64
0030
0110
0100
0001
,  // measure 65
1000
0001
0010
0000
,  // measure 66
0100
0010
0001
1000
,  // measure 67
0010
1000
0100
0000
,  // measure 68
1000
0001
0100
1000
,  // measure 69
0100
0001
0010
0000
,  // measure 70
0001
0010
1000
0010
,  // measure 71
0001
1000
0100
0000
,  // measure 72
0110
0010
0010
0010
,  // measure 73
0001
0001
0001
0001
,  // measure 74
1000
1000
1000
1000
,  // measure 75
0100
1000
0001
0010
;

//---------------dance-single - ----------------
#NOTES:
     dance-single:
     :
     Beginner:
     3:
     0.192166,0.318424,0.058851,0.033629,0.000000,160.000000,153.000000,7.000000,4.000000,0.000000,0.000000,0.192166,0.318424,0.058851,0.033629,0.000000,160.000000,153.000000,7.000000,4.000000,0.000000,0.000000:
0000
0000
0000
0000
,
0000
0000
0000
0000
,
0000
0000
0000
0000
,
0000
0000
0000
0000
,
0000
0000
0000
0000
,
1000
0000
0100
0000
,
0010
0000
0001
0000
,
1000
0000
0010
0000
,
0100
0000
0001
0000
,
2002
0000
0000
3003
,
1000
0000
1000
0000
,
1000
0000
0100
0000
,
0010
0000
0010
0000
,
0010
0000
0001
0000
,
0100
0000
0100
0000
,
0100
0000
0010
0000
,
0001
0000
0001
0000
,
0001
0000
0110
0000
,
1000
0000
0000
0000
0000
0000
0000
0010
,
0000
0010
0000
0000
0000
0000
0000
0000
,
1000
0000
0000
0000
0000
0000
0000
0100
,
0000
0100
0000
0100
0000
0000
0000
0000
,
0010
0000
0001
0000
,
0100
0000
0010
0000
,
0100
0000
0001
0000
,
1000
0000
0010
0000
,
1000
0000
0000
0000
0000
0000
0000
0001
,
0000
0001
0000
0001
0000
0000
0000
0000
,
0100
0000
0000
0000
0000
0000
0000
0010
,
0000
0010
0000
0010
0000
0000
0000
0000
,
1000
0000
0100
0000
,
0010
0000
0001
0000
,
0100
0000
0010
0000
,
1000
0000
0001
0000
,
1000
0000
0001
0000
,
1000
0000
0100
0000
,
0010
0010
0010
0010
,
0010
0000
0110
0000
,
0001
0000
1000
0000
,
0001
0000
0100
0000
,
0010
0010
0010
0010
,
0010
0000
0100
0000
,
1001
0000
0000
0000
,
1000
0000
0001
0000
,
1000
0000
0001
0000
,
0010
0000
0100
0000
,
0010
0000
0100
0000
,
0001
0000
1000
0000
,
0001
0000
0100
0000
,
0010
0000
0001
0000
,
1000
0000
0100
0000
,
1000
0000
0001
0000
,
1000
1000
1000
1000
,
1000
0000
0010
0000
,
0100
0100
0100
0100
,
0100
0000
0001
0000
,
0010
0010
0010
0010
,
0010
0000
0001
0000
,
0001
0000
1000
0000
,
1000
0000
1000
1000
,
1000
0000
0001
0001
,
0001
0000
0100
0100
,
0100
0100
0010
0010
,
0010
0000
0010
0000
2002
0000
0000
3003
,
0000
1001
0000
0000
,
0001
0000
0010
0000
,
0001
0000
0100
0000
,
0010
0000
1000
0000
,
0001
0000
1000
0000
,
0100
0000
0010
0000
,
0001
0000
0001
0000
,
0010
0010
0010
0000
,
1001
0000
0000
0000
,
0000
0000
0000
0000
,
1000
0000
0001
0000
,
0100
0000
0010
0010
;

//---------------dance-single - ----------------
#NOTES:
     dance-single:
     :
     Medium:
     6:
     0.461198,0.541322,0.243810,0.226996,0.000000,384.000000,355.000000,29.000000,27.000000,0.000000,0.000000,0.461198,0.541322,0.243810,0.226996,0.000000,384.000000,355.000000,29.000000,27.000000,0.000000,0.000000:
0000
0000
0000
0000
,
0000
0000
0000
0000
,
0000
0000
0000
0000
,
0000
0000
0000
0000
,
0000
0000
0000
0000
,
1000
0100
1000
0000
0001
0100
0001
0000
,
1000
0010
1000
0000
0001
0010
0001
0000
,
1000
1010
0101
0011
,
1200
0010
0001
0010
,
2300
0010
0001
0100
,
3001
0000
1000
0000
1000
0001
0100
0000
,
0010
0000
1000
0000
1000
0010
0100
0000
,
0001
0000
0010
0000
0010
0100
1000
0000
,
1000
0000
0001
1000
0010
1000
0001
0000
,
1000
0000
0100
0000
0100
1000
0010
0000
,
0100
0000
0001
0000
0001
0100
0010
0000
,
1000
0001
0010
0100
,
0010
0000
0000
0100
0000
0000
1000
0001
,
1000
0000
0000
1000
0100
0000
0100
0010
,
0000
0010
0000
0000
0000
0000
0010
0000
,
0001
0000
0000
0001
0100
0000
0100
0010
,
0000
0010
0000
0010
0000
0000
0000
0000
,
1000
0000
1000
0010
0000
0010
0200
0000
,
0001
0010
1000
0010
,
0301
0000
0001
0010
0000
0010
0200
0000
,
1000
0010
0001
0010
,
1300
0000
0000
1000
0001
0000
0001
0100
,
0000
0010
0000
0100
0000
0000
0000
0000
,
0001
1000
0001
0000
1000
0000
1000
0100
,
0000
0010
0000
0100
0000
0000
1000
0000
,
0010
0000
0100
0010
0000
1000
0020
0000
,
1000
0100
2030
3001
,
0010
0000
0001
0000
0010
0100
1000
0001
,
0000
0100
0010
0100
,
0001
0000
0100
0001
0100
0000
0010
0000
,
1000
0000
0100
1000
0100
0000
0010
0000
,
0101
0101
1100
1100
,
1001
0110
0110
1001
,
1000
0100
0010
0100
1000
0000
1000
0000
,
0001
0010
0100
0010
0001
0000
0001
0000
,
0100
0001
1000
0000
0010
1000
0001
0000
,
0010
0001
1000
0000
0100
1000
0001
0000
,
0100
0000
0000
1001
0000
0000
0000
0000
,
1000
0010
0100
0000
1000
0100
0010
0000
,
1000
0010
0100
0010
1000
0010
0100
0000
,
0001
0010
0100
0000
0001
0100
0010
0000
,
0001
0010
0100
0010
0001
0010
0100
0000
,
1000
0100
0001
0000
1000
0010
0001
0000
,
1000
0010
0100
0000
0001
0010
0100
0000
,
1100
0011
0101
1010
,
1000
0001
1001
0000
,
1000
0100
1000
0100
1000
0100
1000
0000
,
0010
0100
0010
0100
0010
0100
0010
0000
,
2000
0000
3002
0013
,
0001
0100
0001
0100
0001
0100
0001
0000
,
1000
0100
0010
0100
1000
0100
0010
0000
,
0001
0010
0100
0010
0001
0010
0100
0000
,
1100
0010
0101
0010
,
1000
0100
0001
0100
1000
0100
0001
0100
,
1000
0000
0000
1001
0001
0000
0100
0000
,
0010
0010
0110
0000
1000
0000
0100
0000
,
0010
0010
0110
0000
0001
0001
1000
1000
,
0010
0010
0100
0100
0001
0010
0100
1000
,
0002
0023
0230
2300
,
3000
0000
1001
0000
0100
0001
1000
0000
,
0001
0100
0010
0100
0001
0100
0010
0000
,
1000
0100
0010
0000
1000
0010
0100
0000
,
1000
0100
0010
0100
1000
0100
0010
0000
,
0001
0010
1000
0000
0001
0100
1000
0000
,
0001
0100
0010
0000
1000
0100
0010
0000
,
0011
1100
1010
0101
,
0001
1000
1001
0000
,
2000
3002
0203
0320
,
2030
3002
0023
0230
,
0320
0032
2003
3200
,
2300
3002
0203
0310
;

//---------------dance-single - ----------------
#NOTES:
     dance-single:
     :
     Hard:
     9:
     0.622136,0.865421,0.378326,0.092480,0.357308,518.000000,473.000000,45.000000,11.000000,0.000000,0.000000,0.622136,0.865421,0.378326,0.092480,0.357308,518.000000,473.000000,45.000000,11.000000,0.000000,0.000000:
0000
0000
0000
0000
,
0000
0000
0000
0000
,
0000
0000
0000
0000
,
0000
0000
0000
0000
,
0000
0000
0000
0000
0000
0001
0100
0001
,
0000
1000
0100
1000
0000
0001
0010
0001
,
0000
1000
0010
1000
0000
0001
0100
0010
,
1000
1010
0101
0011
,
0001
0100
0001
0000
0100
0010
0100
0000
0010
1000
0010
0000
0100
0010
0100
0000
,
0001
0000
0000
0100
0000
0000
0010
0000
0000
1000
0000
0000
0001
0000
0000
0000
,
1000
0000
0000
0000
0000
0000
0100
1000
0100
0000
0010
0000
0001
0000
0100
0000
,
0000
0000
0010
0100
0001
0010
0100
1000
,
0010
0000
1000
0001
0000
0001
0000
0100
,
0000
0000
0001
0000
1000
0000
0000
0000
1000
0001
1000
0000
0010
0000
0100
0000
,
0001
0000
0000
0000
0000
0000
0010
0001
0010
0000
0100
0000
1000
0000
0010
0000
,
0000
1000
0100
0000
0011
0000
1100
0000
,
1000
0001
1000
0001
0100
0010
0100
0010
,
1010
0000
0000
0101
0000
0000
1010
0000
1001
0000
0000
0000
1000
0000
0100
0000
,
1000
0000
0000
0001
0100
0001
1000
1001
,
0000
0110
0000
0000
0000
0000
0001
0100
,
0001
0001
0000
1000
0100
1000
0010
0110
,
0000
1010
0000
0101
0001
0010
0100
1000
,
0001
0000
0001
0010
0000
0010
0100
0000
,
1000
0000
0000
0010
0100
0000
0000
0001
0100
0000
0000
0010
1000
0000
0000
0000
,
1000
0000
1000
0010
0000
0010
0100
0000
,
0001
0000
0000
0010
0100
0000
0000
1000
0001
0000
0000
0100
0010
0000
0000
0000
,
2000
0000
0000
3001
0100
0001
0010
0110
,
0000
1100
0000
0101
0000
0000
0100
0010
,
0100
0100
0100
0000
0010
1000
0001
1001
,
0000
0011
0000
1010
1000
0010
0100
0001
,
1000
0000
1000
0001
0000
0001
0020
0000
,
0031
0000
0000
0100
0010
0000
0000
1000
0001
0000
0000
0010
0100
0000
0000
1000
,
0001
0000
0020
0000
0031
0100
0010
2000
,
0000
0000
0000
0000
3000
0000
0000
0000
0001
0000
0000
1000
0000
0000
0010
0000
,
1000
0000
0000
0100
0000
0000
0010
0000
0100
0000
0000
0000
1001
0000
0000
0000
,
0001
0000
0000
0100
0000
0000
0010
0000
0100
0000
0000
0000
0110
0000
0000
0000
,
1010
0000
0000
0000
0101
0000
0000
0000
1010
0000
0000
0011
0000
0000
1100
0000
,
0000
0000
0110
0000
1001
0000
0000
0000
0001
0010
0001
0000
1000
0100
1000
0000
,
0001
0000
0100
0000
0010
1000
0001
1000
,
0100
0000
1000
0000
0010
0100
0010
0100
,
0001
0100
0001
0100
0001
0000
0000
0000
1000
0010
1000
0010
1000
0000
0000
0000
,
0001
0010
0001
0010
0001
0000
0000
0000
1000
0100
1000
0100
1000
0000
0000
0000
,
0010
0000
0000
0100
0000
0000
1001
0000
0000
0000
0000
0000
0000
0000
0000
0000
,
1000
0010
0001
0010
0000
1000
0100
0010
,
0000
0001
0100
0010
0000
0100
0001
0000
,
0010
1000
0010
0001
0000
0001
0010
0100
,
0000
1000
0010
0100
0000
0001
1000
0000
,
0001
0100
0010
1000
0000
0001
0100
0010
,
0000
1000
0001
0010
0000
0001
1000
0100
,
1000
0100
1000
0000
0001
1000
0001
0000
0010
0100
0010
0000
0001
1000
0001
0000
,
1000
0000
0000
0100
0000
0000
0010
0000
0002
0000
0000
0000
0000
0000
0000
0000
,
1003
0010
0100
0010
1000
0010
0100
0010
,
0001
0010
0100
0010
0001
0010
0100
0001
,
0010
0000
0000
0000
0001
0000
0100
0000
0001
0000
0000
1000
0000
0000
0100
0000
,
1000
0000
0000
0010
0100
0000
0000
0001
0010
0000
0000
0100
1000
0000
0000
0000
,
0001
0100
1000
0100
0001
0100
1000
0100
,
0001
0010
1000
0010
0001
0010
1000
0010
,
0011
0100
1010
0100
,
0011
1010
0101
1100
,
1001
0000
0000
0110
0000
0000
1001
0000
1000
0100
1000
0100
0000
0010
0100
0010
,
0000
0001
0010
0001
0000
0001
0100
0000
0001
0100
0001
0100
0000
0010
0100
0010
,
0000
1000
0010
1000
0000
1000
0001
0000
0010
0100
0010
0100
0000
1000
0001
1000
,
0000
0001
0100
0010
0000
1000
0010
0000
0110
0000
1010
0000
1001
0000
0011
0000
,
0210
0010
2300
0100
3002
1000
0203
0010
,
0300
0000
0110
0000
0100
0001
0010
0100
,
0000
1000
0010
0100
0000
0010
1000
0000
,
0100
0001
0100
1000
0000
1000
0100
0010
,
0000
0001
0100
0010
0000
1000
0001
0000
,
1000
0010
0100
0001
0000
1000
0010
0100
,
0000
0001
1000
0100
0000
1000
0001
0010
,
0001
0010
0001
0000
1000
0001
1000
0000
0100
0010
0100
0000
1000
0001
1000
0000
,
0001
0000
0000
0010
0000
0000
0100
0000
2000
0000
0000
0000
0000
0000
0000
0000
,
3001
0000
0000
1000
0000
0000
0100
1000
0010
0100
0001
1000
,
1000
0000
0000
0001
0000
0000
0100
0001
0010
0100
0010
0001
,
0100
0000
0000
0010
0000
0000
1000
0100
0010
0001
0100
0010
,
0010
0000
0000
0100
0000
0000
0001
1000
0100
0020
0000
0000
,
0000
0030
0000
0000
;
