#TITLE:Pumpkin Panic;
#SUBTITLE:;
#ARTIST:P*Light;
#TITLETRANSLIT:;
#SUBTITLETRANSLIT:;
#ARTISTTRANSLIT:;
#GENRE:HAUNTING HARDCORE;
#CREDIT:Telperion+;
#BANNER:[ROUND I] - Pumpkin Panic.png;
#BACKGROUND:[ROUND I] - Pumpkin Panic-bg.png;
#JACKET:[ROUND I] - Pumpkin Panic-jacket.png;
#LYRICSPATH:;
#CDTITLE:cdtitle.png;
#MUSIC:[ROUND I] - Pumpkin Panic.ogg;
#OFFSET:-0.003000;
#SAMPLESTART:61.938;
#SAMPLELENGTH:20.645;
#SELECTABLE:YES;
#DISPLAYBPM:93:186;
#BPMS:0.000000=93.000000
,16.000000=186.000000
;
#STOPS:
;
#BGCHANGES:;
#KEYSOUNDS:;
#ATTACKS:;

//---------------dance-single - Telperion----------------
#NOTES:
     dance-single:
     Telperion:
     Challenge:
     12:
     1.091463,1.204558,0.526583,0.067020,1.081888,798.000000,742.000000,55.000000,7.000000,90.000000,1.000000,1.091463,1.204558,0.526583,0.067020,1.081888,798.000000,742.000000,55.000000,7.000000,90.000000,1.000000:
0000
0000
0000
0000
,
0000
0000
0000
0000
,
0011
0000
1100
0000
0011
1000
1010
0000
,
0101
0000
0000
0000
0000
0000
0001
0000
1001
0000
0000
0000
1000
0000
0000
0000
1010
0000
0000
0010
0000
0000
0100
0000
0101
0000
0001
0000
1000
0000
0100
0010
,
MM01
0000
0000
0000
0010
0000
0001
1000
0001
0000
0010
0000
0001
0000
1000
0001
,
1000
0010
0000
0010
0100
0000
0001
0000
0010
0000
0100
0000
1000
0000
0000
0000
,
1010
0000
0000
0000
0010
0000
0100
0001
0100
0000
0010
0000
1000
0000
0001
1000
,
0001
0010
0000
0010
0100
0000
1000
0000
0001
0000
1000
0000
0010
0000
0000
0000
,
0101
0000
0001
1000
0001
0100
0001
0100
0010
1000
0010
1000
0001
0010
0100
1000
,
0100
0000
1000
0001
1000
0100
1000
0100
0010
0001
0010
0001
1000
0010
0100
0010
,
1000
0000
0001
0010
0001
1000
0010
0100
0001
1000
0100
1000
0001
0010
0100
1000
,
0010
0000
0000
0000
0010
0000
0000
0000
0010
0000
0000
0100
0001
1000
0001
0000
,
0100
0000
0010
0000
0010
0000
1000
0000
0001
0000
1000
0010
0M00
0010
0001
0000
,
1000
0000
0100
0000
0100
0000
1000
0000
0001
0000
1000
0100
00M0
0100
0001
0000
,
0100
0000
0010
0000
0010
0000
1000
0000
0100
0000
1000
0010
0M00
0010
0001
0000
,
1000
0000
0100
0000
0100
0000
0010
0000
0001
0000
1000
0100
00M0
0100
0001
0000
,
0020
0000
0130
0000
1100
0000
0100
0000
0010
0000
0001
0100
00M0
0100
1000
0000
,
0010
0000
0100
0000
0101
0000
0001
0000
1000
0000
0001
0010
0M00
0010
1000
0000
,
0001
0000
0010
0000
0011
0000
0001
0000
1000
0000
0001
0100
00M0
0100
1000
0000
,
0001
0000
0100
0000
0110
0000
0010
0000
1000
0000
0001
0010
0M00
0010
1000
0000
,
0001
0000
0010
0000
0001
0000
1000
0100
1000
0000
1000
0000
0010
0000
0010
0100
,
0010
1000
0000
1000
0001
0000
0010
0000
0100
0000
0100
0000
1000
0000
0001
0000
,
1000
0000
0010
0000
1000
0000
0001
0100
0001
0000
0001
0000
0010
0000
0010
0100
,
0010
0001
0000
1000
0001
0000
0100
0000
0010
0000
0010
0000
1000
0000
0001
0000
,
0010
0001
0010
0100
1000
0001
0010
0100
1000
0100
0010
0001
1000
0000
0001
0100
,
0010
1000
0010
0100
0001
1000
0010
0100
0001
0100
0010
1000
0001
0000
0010
0100
,
1000
0001
0100
0001
1000
0100
0010
0001
1000
0010
1000
0001
0100
0010
1000
0001
,
0010
0000
0010
0000
0100
0000
0010
0000
0001
0010
0001
0010
0100
1000
0100
1000
,
0001
0000
0100
0000
1000
0000
0100
0001
1000
0001
0100
0000
1000
0000
0100
0001
,
1000
0000
0100
0000
0001
0000
0100
1000
0001
1000
0100
0000
0001
0000
0100
1000
,
0010
0000
0100
0000
1000
0000
0100
0001
0010
0001
0100
0000
1000
0000
0100
0010
,
1000
0000
0001
0010
0100
1000
0010
0000
1000
0100
0010
0001
0100
0000
0010
1000
,
0001
0000
0010
0000
1000
0000
0010
0001
1000
0001
0010
0000
1000
0000
0010
0001
,
1000
0000
0010
0000
0001
0000
0010
1000
0001
1000
0010
0000
0001
0000
0010
0100
,
0001
0000
0010
0000
1000
0000
0010
0100
0010
0001
0010
0000
1000
0000
0010
0001
,
1000
0010
0100
0001
1001
0000
0110
0000
,
1001
0000
0001
0000
1000
0000
0100
1000
0010
0000
0100
0000
0001
0000
0100
0001
,
0010
0001
0000
1000
0010
0000
0100
0000
0001
0000
0001
0000
1000
0000
0100
0000
,
0110
0000
0010
0000
0001
0000
0100
0001
0010
0000
0100
0000
1000
0000
0100
1000
,
0010
1000
0000
0001
0010
0000
0100
0000
1000
0000
1000
0000
0001
0000
0100
0000
,
1010
0000
1000
0001
0100
0001
1000
0100
0010
0001
0010
0001
1000
0010
1000
0010
,
0100
0000
0001
1000
0100
1000
0001
0100
0010
1000
0010
1000
0001
0010
0001
0010
,
0100
0000
1000
0100
0010
0001
1000
0010
1000
0001
0100
0010
1000
0001
0010
0001
,
0100
0000
0000
0000
0010
0000
0000
0000
1000
0000
0000
0001
0010
0001
1000
0000
,
M00M
0110
00M0
0101
0M0M
1100
M000
0110
,
0M00
0000
0011
0000
00MM
0000
1010
0000
00M0
0000
0001
0100
000M
0000
1100
0000
,
M000
0110
0M00
0011
00MM
1010
M000
0110
,
00M1
0000
0000
0000
0000
0000
1000
0000
0000
0000
0000
0000
0100
0000
0000
0000
0000
0000
0012
0000
0000
0000
0000
0000
1000
0000
0000
0000
0000
0003
0001
0000
0000
0000
0000
0000
0100
0000
0000
0000
0000
0000
0010
0000
0000
1000
0000
0000
,
0001
0011
00MM
1100
MM00
0101
000M
0110
,
0M00
0000
1010
0000
M0M0
0000
0011
0000
00MM
0000
1000
0100
M000
0000
0101
0000
,
000M
0110
0M00
1010
M0M0
0011
000M
0110
,
10M0
0000
0000
0000
0000
0000
0001
0000
0000
0000
0000
0000
0100
0000
0000
0000
0000
0000
2001
0000
0000
0000
0000
0000
0010
0000
0000
0000
0000
3000
1000
0000
0000
0000
0000
0000
0010
0000
0000
0000
0000
0000
0100
0000
0000
0001
0000
0000
,
1000
0000
1010
0000
0M0M
0000
0011
0000
0M00
1000
0010
0000
MM00
0000
0011
0000
,
10MM
0100
1000
0000
M0M0
0000
0101
0000
00M0
0000
1000
0010
MM00
0000
0011
0000
,
1MM0
0001
1000
0000
0M0M
0000
1010
0000
0M00
0001
0010
0000
MM00
0000
1010
0000
,
M0M1
0100
0001
0000
00M0
0000
1100
0000
00MM
0000
0001
0010
MM00
0000
1010
0000
,
0M01
1000
0001
0010
0100
1000
0001
0100
0010
1000
0001
0010
0100
1000
0001
0100
,
0010
1000
0010
0100
0001
1000
0100
0010
0001
1000
0010
0100
0010
1000
0001
0010
,
0100
1000
0001
1000
0010
1000
0001
1000
0100
0010
0001
1000
0010
0100
0001
0010
,
0000
0000
0001
0000
1000
0000
0010
0000
0100
0001
0100
0001
1000
0001
1000
0100
,
0010
0000
0100
0000
1000
0000
0001
0000
1000
0000
0100
0001
MMM0
0001
0010
0000
,
0001
0000
0100
0000
0010
0000
1000
0000
0010
0000
0100
0001
MMM0
0001
0010
0000
,
0100
0000
0010
0000
1000
0000
0001
0000
1000
0000
0010
0001
MMM0
0001
0100
0000
,
0001
0010
0100
1000
0100
0001
1000
0010
,
0001
0000
0100
0000
0001
0000
1000
0000
0001
0000
0100
1000
0MMM
1000
0010
0000
,
1000
0000
0100
0000
0010
0000
0001
0000
0010
0000
0100
1000
0MMM
1000
0010
0000
,
0100
0000
0010
0000
0001
0000
1000
0000
0001
0000
0010
1000
0MMM
1000
0100
0000
,
1000
0010
0100
0001
0022
0033
2200
3300
,
0001
0000
0010
0000
0100
0000
0001
0100
1000
0000
0010
0000
0100
0000
1000
0100
,
0001
0010
0000
0010
0100
0000
1000
0000
0001
0000
0001
0000
0010
0000
0100
0000
,
1000
0000
0010
0000
0100
0000
1000
0100
0001
0000
0010
0000
0100
0000
0001
0100
,
1000
0010
0000
0010
0100
0000
0001
0000
1000
0000
1000
0000
0010
0000
0100
0000
,
0001
0000
0010
0001
1000
0010
1000
0010
0100
0001
1000
0100
0010
0001
0010
0001
,
1000
0000
0010
1000
0001
0010
0001
0010
0100
1000
0001
0100
0010
1000
0010
1000
,
0001
0010
0100
1000
0010
1000
0001
0100
0010
1000
0010
0100
0001
0010
0001
1000
,
0100
0000
0010
0000
0100
0000
1000
0000
0001
0010
0100
1000
0100
0010
0001
1000
,
0000
M111
0000
0000
;

//---------------dance-single - Telperion----------------
#NOTES:
     dance-single:
     Telperion:
     Hard:
     9:
     0.796029,0.803039,0.593602,0.191485,0.320737,582.000000,520.000000,62.000000,20.000000,2.000000,0.000000,0.796029,0.803039,0.593602,0.191485,0.320737,582.000000,520.000000,62.000000,20.000000,2.000000,0.000000:
0000
0000
0000
0000
,
0000
0000
0000
0000
,
0001
0000
0100
0000
1000
1000
0100
0000
,
0001
0000
0000
0000
0000
0000
0001
0000
0100
0000
0000
0000
0001
0000
0000
0000
1000
0000
0000
1000
0000
0000
1000
0000
0100
0000
0000
0000
1000
0000
0001
0000
,
MM11
0000
0000
0000
0001
0000
0010
0001
0010
0000
0000
0000
0001
0000
1000
0001
,
1000
0000
0010
0100
0010
1000
0001
0000
,
1100
0000
0000
0000
1000
0000
0010
1000
0010
0000
0000
0000
1000
0000
0001
1000
,
0001
0000
0010
0100
1000
0001
0010
0000
,
0011
0000
0000
0000
0001
0000
1000
0001
1000
0000
0000
0000
0010
0000
0100
0000
,
0110
0000
0000
0000
1000
0000
0001
1000
0001
0000
0000
0000
0010
0000
0100
0000
,
1100
1001
0101
0110
,
2010
0000
0000
0000
0001
0000
0000
0000
3100
0000
0000
1000
0001
1000
0100
0000
,
0010
0000
0001
0000
1000
0000
0001
0000
0010
0000
0001
1000
0000
0000
0020
0000
,
0000
0000
0130
0000
0010
0000
1000
0000
0010
0000
0100
0010
0000
0000
2000
0000
,
0000
0000
3001
0000
0001
0000
0100
0000
0001
0000
1000
0001
0000
0000
0020
0000
,
0000
0000
0130
0000
0010
0000
0100
0000
1000
0000
0001
1000
0000
0000
0010
0000
,
0100
0000
0001
0000
0101
0000
0000
0000
1000
0000
0100
1000
0000
0000
0001
0000
,
1000
0000
0010
0000
1010
0000
0000
0000
0010
0000
0100
0001
0000
0000
1000
0000
,
0100
0000
0010
0000
0011
0000
0000
0000
0001
0000
1000
0001
0000
0000
0100
0000
,
0010
1000
1010
0000
0100
0001
0101
0000
,
1000
0000
0000
0000
1000
0000
0010
0100
0010
0000
0000
0000
1000
0000
0001
0010
,
0001
0000
1000
0010
0100
0001
0010
0000
,
0001
0000
0000
0000
0001
0000
0010
0100
0010
0000
0000
0000
0001
0000
1000
0010
,
1000
0000
0001
0010
0100
1000
0010
0000
,
0100
0000
0001
0000
0010
0000
0001
1000
0001
0000
0010
0000
0100
0000
1000
0001
,
1000
0000
0100
0000
0010
0000
0001
1000
0001
0000
0010
0000
0100
0000
1000
0001
,
1000
0010
0100
1000
0100
0001
0010
0100
,
1000
1000
0001
1000
2020
3030
0202
0303
,
1000
0000
0000
0000
0001
0000
0010
0001
1000
0001
1000
0000
0010
0000
0000
0000
,
0100
0000
0000
0000
0010
0000
0100
0001
1000
0001
1000
0000
0100
0000
1000
0100
,
1000
0000
0000
0000
0001
0000
0100
0001
1000
0001
1000
0000
0001
0000
0100
0001
,
0100
0000
0010
1010
0000
0100
0101
0000
,
1001
0000
0000
0000
0001
0000
0010
0100
1000
0100
1000
0000
0001
0000
0000
0000
,
0100
0000
0000
0000
0001
0000
0100
0010
1000
0010
1000
0000
0001
0000
0010
0001
,
0010
0000
0000
0000
0100
0000
0010
0001
1000
0001
1000
0000
0010
0000
0000
0000
,
1001
0000
0000
0000
0022
0033
2200
3300
,
0001
0000
0000
0000
0010
0000
0100
1000
0100
0000
0000
0000
0010
0000
0001
0100
,
0001
0000
0010
1000
0010
0001
0100
0000
,
1010
0000
0000
0000
0010
0000
0100
0001
0100
0000
0000
0000
0010
0000
1000
0100
,
1000
0000
0010
0001
0010
1000
0001
0000
,
0010
0000
0100
0000
1000
0000
0001
0100
0001
0000
1000
0000
0010
0000
0100
0001
,
0100
0000
0010
0000
1000
0000
0001
0100
0001
0000
1000
0000
0100
0000
0010
0001
,
0010
0100
0001
0100
0010
0100
1000
0001
,
0102
0000
0000
0000
1000
0000
0000
0000
0013
0000
0000
0001
1000
0001
0010
0000
,
0000
1100
0000
1010
0000
0101
0000
0011
,
0000
0000
1100
0000
0000
0000
1010
0000
0000
0000
0001
0010
0000
0000
0110
0000
,
0000
1100
0000
0101
0000
1010
0000
0011
,
0001
1000
0010
0002
0000
0013
1000
0100
,
0000
0101
0000
0011
0000
1100
0000
1010
,
0000
0000
0101
0000
0000
0000
0011
0000
0000
0000
1000
0010
0000
0000
0110
0000
,
0000
0101
0000
1100
0000
0011
0000
1010
,
1000
0001
0010
2000
0000
3001
0100
1000
,
0010
0000
0110
0000
0101
0001
0010
0100
,
0000
1000
0010
1000
0100
1000
0010
0100
,
0001
0000
0011
0000
1010
1000
0001
0100
,
0000
0001
0010
0001
0100
0001
1000
0100
,
0010
0000
1001
0000
0001
0010
0100
1000
,
0001
0100
0001
0000
0000
0000
1001
0000
1000
0000
0010
0000
0100
0000
0001
0000
,
1000
1000
0100
0100
0010
0001
1000
0010
,
0000
0100
1000
0100
0002
0000
0000
0000
,
1003
0000
1010
0000
0001
0010
0100
1000
,
0010
0000
0101
0000
1000
0010
0100
0001
,
0010
0000
1100
0000
0001
0100
0010
1000
,
0000
0001
0010
0100
0001
1000
0010
0001
,
1000
0000
0011
0000
1000
0010
0100
0001
,
0010
0000
1100
0000
0001
0010
0100
1000
,
0010
0000
0101
0000
1000
0100
0010
0001
,
0000
1000
0010
0100
0202
0303
2020
3030
,
1001
0000
0000
0000
0001
0000
0010
0100
0010
0000
0000
0000
0001
0000
1000
0010
,
1000
0000
0001
0010
0100
0100
1000
0000
,
0010
0000
0000
0000
1000
0000
0010
0100
0010
0000
0000
0000
1000
0000
0001
0010
,
0001
0000
1000
0010
0001
0010
1000
0000
,
0100
0000
1000
0000
0010
0000
1000
0001
1000
0000
0010
0000
0100
0000
0001
1000
,
0001
0000
0100
0000
0010
0000
1000
0001
1000
0000
0010
0000
0100
0000
0001
1000
,
0001
0010
0100
0001
0100
1000
0010
0100
,
0001
0000
0001
0000
0010
0000
0001
0000
1000
0100
1000
0100
1000
0100
1000
0100
,
0000
0011
0000
0000
;

//---------------dance-single - Telperion----------------
#NOTES:
     dance-single:
     Telperion:
     Medium:
     7:
     0.611383,0.620530,0.306375,0.363821,0.081381,447.000000,415.000000,32.000000,38.000000,0.000000,0.000000,0.611383,0.620530,0.306375,0.363821,0.081381,447.000000,415.000000,32.000000,38.000000,0.000000,0.000000:
0000
0000
0000
0000
,
0000
0000
0000
0000
,
2010
0100
0010
3100
,
0012
0100
0010
0103
,
0101
0000
1000
0010
0100
0000
0001
0010
,
0100
0000
1000
0100
0001
0100
1000
0000
,
1100
0000
0001
0010
0100
0000
1000
0010
,
0100
0000
0001
0100
1000
0100
0010
0000
,
1000
0000
1000
0001
1000
0000
1000
0100
,
1000
0000
1000
0010
1000
0001
1000
0100
,
0010
0011
1001
0101
,
2010
0001
3100
0011
,
1000
0000
0001
0000
0100
0000
0000
0000
0010
0000
0000
1000
0000
0000
0020
0000
,
0000
0000
0130
0000
0001
0000
0000
0000
1000
0000
0000
0100
0000
0000
0020
0000
,
0000
0000
0031
0000
0010
0000
0000
0000
0100
0000
0000
1000
0000
0000
0002
0000
,
0000
0000
0103
0000
0001
0000
0000
0000
1000
0000
0000
0010
0000
0000
0100
0000
,
0001
0000
0100
0000
0010
0000
0000
0000
1000
0000
0001
0010
0000
0000
0100
0000
,
0000
0000
1000
0000
0001
0000
0000
0000
1000
0000
0100
0010
0000
0000
0001
0000
,
0000
0000
1000
0000
0010
0000
0000
0000
0100
0000
0001
1000
0000
0000
0010
0000
,
0000
0100
0001
0000
0102
0000
1003
0000
,
1100
0000
0001
0010
0001
0000
1000
0100
,
1000
0000
0001
0010
1000
0010
0100
0000
,
1000
0000
0001
0100
0001
0000
1000
0010
,
1000
0000
0001
0100
1000
0100
0010
0000
,
1000
0000
1000
0010
0100
0000
0001
0100
,
0001
0000
0001
0010
0100
0000
1000
0100
,
0010
0000
0001
1000
0010
0100
0001
0000
,
1000
1000
0001
0001
1000
0100
0010
0000
,
0002
0000
0000
0000
2003
0000
0000
3010
2000
0000
0000
0000
3200
0000
0000
0000
,
0320
0000
0000
0000
0032
0000
0000
1003
0002
0000
0000
0000
0103
0000
0010
0000
,
2000
0000
0000
0000
3020
0000
0000
0130
0020
0000
0000
0000
2030
0000
0000
0000
,
3002
0000
0000
0013
0001
0000
2000
0000
0000
3010
1000
0000
0002
0000
0000
0000
,
0203
0000
0000
0000
0302
0000
0000
1003
0002
0000
0000
0000
0203
0000
0000
0000
,
0320
0000
0000
0000
2030
0000
0000
3001
2000
0000
0000
0000
3100
0000
0010
0000
,
0002
0000
0000
0000
0023
0000
0000
0130
0020
0000
0000
0000
0032
0000
0000
0000
,
1003
0000
2100
3001
,
0101
0000
0001
0100
0010
0000
0100
0001
,
0010
0000
0100
1000
0001
1000
0100
0000
,
1001
0000
1000
0100
0010
0000
0100
1000
,
0010
0000
0100
0001
0010
0001
0100
0000
,
1010
0000
0010
0100
0001
0000
1000
0100
,
0010
0000
0010
0001
1000
0000
0010
1000
,
0001
0000
0100
0010
1000
0001
0010
0000
,
1002
0100
0013
1100
,
0000
0001
0000
0100
0000
1100
0000
1000
,
0000
0000
0010
0000
0000
0000
0011
0000
0000
0000
0001
1000
0000
0000
0001
0000
,
0000
0010
0000
0100
0000
1000
0000
0001
,
0100
0010
1000
0010
0000
0010
0100
0001
,
0000
1000
0000
0100
0000
0101
0000
0001
,
0000
0000
0010
0000
0000
0000
1010
0000
0000
0000
1000
0001
0000
0000
1000
0000
,
0000
0010
0000
0100
0000
0001
0000
1000
,
0100
0010
0001
0010
0000
0010
0100
1000
,
0001
0000
0001
0000
0010
0100
1000
0010
,
0000
0010
1000
0100
0001
0100
0010
0001
,
1000
0000
1000
0000
0010
0100
0001
0010
,
0000
0010
0001
0100
1000
0100
0010
1000
,
0001
0000
0001
0000
0010
0001
0010
0100
,
1000
0000
1000
0000
0010
1000
0010
0100
,
0001
0010
0100
1000
0001
0010
0100
1000
,
0001
0001
1000
1000
0020
0000
0000
0000
,
0130
0101
0001
1001
,
1000
0000
0001
0010
0100
1000
0001
1000
,
0010
0110
0100
0101
,
0001
1000
0100
0010
1000
0010
0001
1000
,
0010
1010
1000
1001
,
0001
0000
1000
0100
0010
0001
1000
0001
,
0010
0110
0100
1100
,
1000
0001
0100
0000
0012
0000
1003
0000
,
0001
0000
0100
0001
0100
0000
0010
1000
,
0010
0000
0100
0010
1000
0001
0010
0000
,
0100
0000
0010
0001
0010
0000
0100
1000
,
0100
0000
0010
0001
1000
0010
0100
0000
,
0001
0000
0001
0010
0001
0000
0001
0100
,
0010
0000
1000
0010
1000
0000
1000
0100
,
0010
0000
0001
1000
0010
0001
0010
0000
,
2001
0010
3200
0001
,
0300
1010
0000
0000
;

//---------------dance-single - Telperion----------------
#NOTES:
     dance-single:
     Telperion:
     Easy:
     4:
     0.336466,0.328516,0.009574,0.038297,0.000000,246.000000,245.000000,1.000000,4.000000,0.000000,0.000000,0.336466,0.328516,0.009574,0.038297,0.000000,246.000000,245.000000,1.000000,4.000000,0.000000,0.000000:
0000
0000
0000
0000
,
0000
0000
0000
0000
,
0001
1000
0001
1000
,
0010
0100
0010
0100
,
0001
0001
0001
0000
,
1000
1000
1000
0000
,
0001
0001
0001
0000
,
1000
1000
1000
0000
,
0010
0010
0100
0100
,
0001
0001
1000
1000
,
0100
0010
0001
1000
,
0010
0010
0010
0000
,
0100
0001
0100
0000
,
0010
1000
0010
0000
,
0100
0001
0100
0000
,
0010
1000
0001
0010
,
0100
1000
0100
0000
,
0010
0001
0010
0000
,
0100
1000
0100
0000
,
0010
0001
2000
3000
,
0001
0100
0001
0000
,
1000
0010
1000
0000
,
0001
0100
0001
1000
,
0010
0100
0001
0000
,
1000
0100
1000
0000
,
0001
0010
0001
0000
,
1000
0100
0010
0001
,
1000
1000
1000
0000
,
0001
0100
0000
0100
,
1000
0100
0000
0100
,
0001
0010
0000
0010
,
1000
0100
0010
0001
,
1000
0100
0000
0100
,
0001
0100
0000
0100
,
1000
0010
0000
0010
,
0001
0000
1000
1000
,
0001
0010
0001
0000
,
1000
0010
1000
0000
,
0001
0010
0001
1000
,
0010
0100
0001
0000
,
1000
0100
1000
0000
,
0001
0100
0001
0000
,
1000
0100
0010
0002
,
1000
0100
2000
3003
,
0001
0001
1000
1000
,
0001
0001
0100
0000
,
1000
1000
0001
0001
,
1000
1000
0100
0000
,
0001
0001
1000
1000
,
0001
0001
0010
0000
,
0001
0001
1000
1000
,
0010
0100
0001
0000
,
1000
0100
0001
0100
,
1000
0100
0010
0000
,
0001
0100
1000
0100
,
0001
0100
0010
0000
,
1000
0010
0001
0010
,
1000
0010
0100
0000
,
0001
0010
1000
0010
,
0000
0100
0100
0000
,
1000
0000
1000
0000
,
0001
0100
0010
1000
,
0001
0000
0001
0000
,
0010
0100
1000
0001
,
0100
0000
0100
0000
,
0010
0100
0001
1000
,
0100
0000
0100
0000
,
0010
0001
2000
3000
,
0010
0100
0010
0000
,
1000
0001
1000
0000
,
0010
0100
0010
1000
,
0001
1000
0100
0000
,
0010
0100
0010
0100
,
1000
0001
1000
0001
,
0010
0100
0010
0100
,
1000
0001
0100
0010
,
0000
1001
0000
0000
;

//---------------dance-single - Telperion----------------
#NOTES:
     dance-single:
     Telperion:
     Beginner:
     2:
     0.120362,0.182509,0.009574,0.000000,0.000000,88.000000,87.000000,1.000000,0.000000,0.000000,0.000000,0.120362,0.182509,0.009574,0.000000,0.000000,88.000000,87.000000,1.000000,0.000000,0.000000,0.000000:
// measure 0
0000
0000
0000
0000
,  // measure 1
0000
0000
0000
0000
,  // measure 2
0000
0000
0000
0000
,  // measure 3
0000
0000
0000
0000
,  // measure 4
0001
0000
0000
0000
,  // measure 5
0001
0000
0000
0000
,  // measure 6
1000
0000
0000
0000
,  // measure 7
1000
0000
0000
0000
,  // measure 8
0001
0000
0000
0000
,  // measure 9
1000
0000
0000
0000
,  // measure 10
0001
0000
1000
0000
,  // measure 11
0001
0000
0000
0000
,  // measure 12
0010
0000
0000
0000
,  // measure 13
0000
0000
0000
0000
,  // measure 14
0010
0000
0000
0000
,  // measure 15
0000
0000
0000
0000
,  // measure 16
0100
0000
0000
0000
,  // measure 17
0000
0000
0000
0000
,  // measure 18
0100
0000
0000
0000
,  // measure 19
0001
0000
1000
0000
,  // measure 20
0100
0000
0000
0000
,  // measure 21
0000
0000
0000
0000
,  // measure 22
0100
0000
0000
0000
,  // measure 23
0000
0000
0000
0000
,  // measure 24
0010
0000
0000
0000
,  // measure 25
0010
0000
0000
0000
,  // measure 26
0010
0000
0010
0000
,  // measure 27
0010
0000
0000
0000
,  // measure 28
0001
0000
0000
0000
,  // measure 29
1000
0000
0000
0000
,  // measure 30
0001
0000
0000
0000
,  // measure 31
0100
0000
1000
0000
,  // measure 32
0001
0000
0000
0000
,  // measure 33
1000
0000
0000
0000
,  // measure 34
0001
0000
0000
0000
,  // measure 35
1000
0000
0000
0000
,  // measure 36
0100
0000
0000
0000
,  // measure 37
0010
0000
0000
0000
,  // measure 38
0100
0000
0000
0000
,  // measure 39
0001
0000
1000
0000
,  // measure 40
0100
0000
0000
0000
,  // measure 41
0010
0000
0000
0000
,  // measure 42
0100
0000
0000
0000
,  // measure 43
1000
0000
0000
0000
,  // measure 44
0001
0000
0001
0000
,  // measure 45
0001
0000
0001
0000
,  // measure 46
1000
0000
1000
0000
,  // measure 47
1000
0000
0000
0000
,  // measure 48
0010
0000
0010
0000
,  // measure 49
0010
0000
0010
0000
,  // measure 50
0100
0000
0100
0000
,  // measure 51
0100
0000
0000
0000
,  // measure 52
1000
0000
1000
0000
,  // measure 53
1000
0000
1000
0000
,  // measure 54
0001
0000
0001
0000
,  // measure 55
0001
0000
0000
0000
,  // measure 56
0010
0000
0010
0000
,  // measure 57
0010
0000
0010
0000
,  // measure 58
0100
0000
0100
0000
,  // measure 59
0100
0000
0000
0000
,  // measure 60
1000
0000
0000
0000
,  // measure 61
0001
0000
0000
0000
,  // measure 62
0001
0000
0000
0000
,  // measure 63
1000
0000
0000
0000
,  // measure 64
0010
0000
0000
0000
,  // measure 65
0100
0000
0000
0000
,  // measure 66
0100
0000
0000
0000
,  // measure 67
0010
0000
0000
0000
,  // measure 68
0001
0000
0000
0000
,  // measure 69
1000
0000
0000
0000
,  // measure 70
0100
0000
0000
0000
,  // measure 71
0010
0000
0000
0000
,  // measure 72
1000
0000
0000
0000
,  // measure 73
0001
0000
0000
0000
,  // measure 74
0100
0000
0010
0000
,  // measure 75
0100
0000
0100
0000
,  // measure 76
0000
1001
0000
0000
;
