#TITLE:Over the Skyblue;
#SUBTITLE:;
#ARTIST:Taishi feat. みとせのりこ;
#TITLETRANSLIT:;
#SUBTITLETRANSLIT:;
#ARTISTTRANSLIT:Taishi feat. Noriko Mitose;
#CREDIT:;
#BANNER:;
#BACKGROUND:;
#LYRICSPATH:;
#CDTITLE:;
#MUSIC:[ROUND I] - Over the Skyblue.ogg;
#OFFSET:-0.007;
#SAMPLESTART:50.854;
#SAMPLELENGTH:12.000;
#SELECTABLE:YES;
#BPMS:0.000=118.000;
#STOPS:;
#BGCHANGES:;

//---------------dance-single - ----------------
#NOTES:
     dance-single:
     :
     Hard:
     9:
     0.538,0.698,0.158,0.420,0.178:
0000
0000
0000
0000
,
0000
0000
0000
0000
,
1000
1000
0010
0100
0000
0001
0100
0010
,
0000
0010
1000
0100
0000
1000
0100
0010
,
0100
0100
1000
0001
0000
0001
0100
0010
,
0000
0010
0100
1000
0000
1000
0100
0010
,
1000
1000
0001
0100
0000
0100
0001
0010
,
0000
0010
0001
1000
0000
1000
0010
0100
,
0022
0033
0001
0000
0010
0000
0000
0000
0001
0000
0001
0000
0010
0000
1200
0000
,
1000
0000
1000
0000
1300
1000
0100
0010
,
0001
0010
0001
0010
0200
0000
0000
0000
0010
0000
0310
0000
0100
0000
2000
0000
,
0010
0010
0010
3010
,
1100
0001
0100
0000
1100
0001
0100
0020
,
0001
0000
0001
0000
0001
0031
0010
1000
,
0100
0001
0200
0300
1000
0001
1000
0020
,
0100
0100
0100
0130
,
2002
3003
0001
0000
0010
0000
0000
0000
1001
0000
0010
0000
0100
0000
2000
0000
,
0100
0000
0100
0000
3100
1000
0001
0100
,
0001
0000
1000
0000
0020
0000
0030
0000
1000
0000
0100
0000
0001
0100
0001
0100
,
2000
0000
0000
0000
0010
0000
0000
0000
3010
0000
0000
0000
2020
3030
0000
0000
,
0022
0033
0100
0000
1000
0000
0000
0000
0022
0000
0000
0033
0100
0000
2000
0000
,
0010
0000
0010
0000
3010
1000
0100
1000
,
0001
0100
0001
0000
0100
0000
0001
0100
0001
0000
0100
0000
0010
0000
2000
0000
,
0100
0000
0000
0000
0100
0000
0000
0000
3100
0000
0000
0000
1000
0100
1000
0200
,
1000
0000
1000
0300
1010
0010
1002
0000
,
1000
0003
1000
0000
1000
0100
2000
0000
,
3200
0010
0010
0010
,
0320
1000
1000
0032
,
0203
0000
0000
0000
1000
0000
0000
0000
0320
0030
1000
0000
0200
0000
0000
0000
,
1000
0000
1000
0000
1300
0001
0010
0100
,
0020
0000
0000
0000
0100
0000
0000
0000
2000
3000
0000
0000
0000
0000
0100
0000
,
0100
0000
0100
0000
2030
0000
0000
3000
,
1000
0001
1000
0001
1000
0001
1000
0001
,
1000
0100
1000
0100
0010
0001
0010
0001
,
0020
0000
0030
0000
0001
0000
0010
0000
0100
0000
0000
1000
0000
0000
2020
0000
,
3030
0000
0100
0000
0001
0000
0010
0000
0100
0000
0000
1000
0000
0000
0202
0000
,
0303
0000
0010
0000
0001
0000
0010
0000
0200
0000
0000
2000
0000
0300
0020
0000
,
0000
0030
0000
0000
0000
0010
3010
0010
,
1000
0000
0100
0000
0001
0000
0100
0000
1000
0000
0000
0001
0000
0000
0200
0000
,
0000
0000
1300
0100
1000
0000
0010
0000
0100
0000
0000
0001
0000
0000
0200
0000
,
0000
0000
0301
0000
0010
0000
0100
0000
1100
0000
0000
0101
0000
0000
2002
0000
,
0000
3003
0100
0000
0010
0000
0100
0000
,
0001
0000
0100
0000
0001
0000
0100
0000
0010
0000
0000
1000
0000
0000
2020
0000
,
3030
0000
0001
0000
0010
0000
0001
0000
0010
0000
0000
0100
0000
0000
0022
0000
,
0033
0000
1000
0000
0010
0000
0100
0000
0001
0000
0000
0010
0000
0000
2002
0000
,
0000
3003
0010
0000
0100
0000
0010
0000
,
1000
0100
0010
0001
0010
0100
1000
0100
,
0010
0001
0010
0100
1000
0100
0010
0001
,
0010
0001
0010
0100
0010
1000
0010
0100
,
0010
0001
0010
0100
1000
0010
0100
0001
,
0010
0010
0100
0100
1000
1000
0001
0001
,
0010
0010
0001
0001
0010
0010
0100
0100
,
1000
0100
1000
0000
0010
0000
0100
0000
0001
0010
0001
0000
0010
0000
0100
0000
,
1000
0100
1000
0000
0010
0000
0100
0000
0001
0010
0001
0000
0010
0000
0100
0000
,
1000
0010
1000
0010
0100
0000
0001
0000
0010
0000
0001
0000
1000
0000
0010
0000
,
0100
0001
0100
0001
0010
0000
0001
0000
0010
0000
0100
0000
1000
0000
0010
0000
,
0100
0010
0100
0010
0100
0000
0001
0000
0010
0001
0010
0001
0010
0000
0100
0000
,
1000
0010
1000
0010
0100
0000
0001
0000
0010
0001
0010
0001
0010
0000
0100
0000
,
1000
0010
1000
0010
0100
0000
0001
0000
0010
0001
0010
0001
0100
0000
0001
0000
,
0100
0010
0100
0010
0100
0010
0100
0010
0100
0010
0100
0010
0100
0010
0100
0000
,
2MM2
0MM0
0000
0MM0
0000
0MM0
3003
0000
;

//---------------dance-single - ----------------
#NOTES:
     dance-single:
     :
     Medium:
     6:
     0.392,0.431,0.071,0.087,0.028: // measure 1
0000
0000
0000
0000
,  // measure 2
0000
0000
0000
0000
,  // measure 3
0000
0000
0000
0000
,  // measure 4
0000
0000
0000
0000
,  // measure 5
0000
0000
0000
0000
,  // measure 6
0000
0000
0000
0000
,  // measure 7
0000
0000
0000
0000
,  // measure 8
0000
0000
0000
0000
,  // measure 9
0110
0010
1000
0000
0001
0010
0100
1000
,  // measure 10
0000
0000
0000
0000
0000
0001
0010
0001
,  // measure 11
0010
0100
1000
0000
0001
0100
0001
0010
,  // measure 12
0001
0001
0001
0001
,  // measure 13
1000
0010
0100
0000
0001
0010
0100
1000
,  // measure 14
0000
0000
0000
0000
0000
0010
0100
0010
,  // measure 15
0100
0001
0100
0000
0010
1000
0100
0010
,  // measure 16
0100
0100
0100
0100
,  // measure 17
1000
0001
1000
0000
0001
0100
0001
0020
,  // measure 18
0000
0000
0000
0000
0030
0100
1000
0100
,  // measure 19
0010
0001
0010
0000
0011
0100
1010
0200
,  // measure 20
0000
0000
0300
0000
,  // measure 21
1000
0100
1000
0000
0202
0303
0010
0002
,  // measure 22
0000
0000
0000
0000
0003
1000
0100
0010
,  // measure 23
0100
0001
0100
0001
0100
1000
0010
0200
,  // measure 24
0000
0000
0300
0101
,  // measure 25
0001
0010
0001
0000
0001
0010
0001
0000
,  // measure 26
0100
1000
0100
0000
0100
1000
0100
0000
,  // measure 27
0010
1000
0010
0000
0010
1000
0010
0000
,  // measure 28
1000
0100
0010
0100
0010
0100
0010
0100
,  // measure 29
1000
0010
1000
0000
0100
0010
0100
0000
,  // measure 30
0010
0100
0010
0000
0010
0001
0010
0000
,  // measure 31
0010
0100
0010
0000
0010
1000
0010
0000
,  // measure 32
0010
0100
0010
0001
0010
0100
0010
0100
,  // measure 33
0001
0010
0100
1000
0001
0010
0100
1000
,  // measure 34
0001
0010
0100
1000
0001
0010
0100
1000
,  // measure 35
0011
0000
0000
0000
0001
0000
0010
0000
0100
0000
0000
1000
0000
0000
0001
0000
,  // measure 36
0000
0000
0001
0000
0010
0000
0100
0000
1000
0000
0000
1000
0000
0000
0010
0000
,  // measure 37
0000
0000
0100
0000
0001
0000
0010
0000
0001
0000
0000
0100
0000
0000
0020
0000
,  // measure 38
0000
0000
0000
0030
,  // measure 39
1000
0000
0100
0000
1000
0000
0100
0000
0010
0000
0000
0001
0000
0000
0101
0000
,  // measure 40
0000
0000
0001
0000
0010
0000
0100
0000
1000
0000
0000
0010
0000
0000
0110
0000
,  // measure 41
0000
0000
0010
0000
0100
0000
0001
0000
0010
0000
0000
0002
0000
0000
0200
0000
,  // measure 42
0000
0000
0303
0110
,  // measure 43
0001
0010
0100
0010
0001
0010
0100
0010
,  // measure 44
0001
1000
0001
1000
0001
0100
0001
0100
,  // measure 45
0001
0010
0100
1000
0100
0010
0100
1000
,  // measure 46
0100
0010
0001
0010
0100
0000
0000
0000
,  // measure 47
1000
0100
0010
0100
0001
0100
0010
0100
,  // measure 48
0010
0001
0010
0001
0010
0100
0010
0100
,  // measure 49
1000
0010
1000
0010
0100
0001
0100
0001
,  // measure 50
0010
0001
0010
0001
1000
0100
0010
0001
,  // measure 51
1000
0100
1000
0100
1000
0010
1000
0010
,  // measure 52
1000
0001
1000
0001
1000
0010
1000
0010
,  // measure 53
0100
0010
0100
0010
0100
0001
0100
0001
,  // measure 54
0100
0010
0100
0010
0100
1000
0100
1000
,  // measure 55
0100
0001
0100
0001
0010
0001
0010
0001
,  // measure 56
0010
0100
1000
0100
0010
0001
0010
0100
,  // measure 57
1000
0010
1000
0010
0100
0001
0100
0001
,  // measure 58
0100
0010
0100
0010
0100
0001
0100
0001
,  // measure 59
1000
0010
1000
0010
0100
0001
0100
0001
,  // measure 60
1000
0100
0010
0001
0010
0100
1000
0100
,  // measure 61
0200
2000
0000
0000
0000
0000
0000
0000
0000
0000
0000
0000
0000
0000
0000
0000
0000
0000
0000
0000
0000
0000
0000
0000
0000
0000
0000
0000
0000
0000
0000
0000
3300
0000
0000
0000
0000
0000
0000
0000
0000
0000
0000
0000
0000
0000
0000
0000
0000
0000
0000
0000
0000
0000
0000
0000
0000
0000
0000
0000
0000
0000
0000
0000
;

//---------------dance-single - ----------------
#NOTES:
     dance-single:
     :
     Easy:
     4:
     0.312,0.380,0.182,0.190,0.036:
0000
0000
0000
0000
,
0000
0000
0000
0000
,
0000
0000
0000
0000
,
0000
0000
0000
0000
,
0000
0000
0000
0000
,
0000
0000
0000
0000
,
1000
0100
1000
0000
0100
0000
0010
0000
,
0001
0010
0100
1000
,
0010
0100
0000
1000
0000
0100
0000
0010
,
0000
0001
0000
0010
0000
0100
0000
1000
,
0010
0100
0000
0001
0000
0010
0000
0001
,
0000
0010
0000
0100
0000
1000
0000
0010
,
0100
0001
0000
0100
0000
0010
0000
1000
,
0000
0100
0000
0001
0000
0100
0000
1000
,
0010
0100
0000
0001
0000
0010
0000
0001
,
0000
0010
0000
0100
0000
1000
0000
0100
,
0020
0030
0000
0000
0000
0000
0000
0000
0001
0000
0000
0000
0000
0000
0000
0000
0010
0000
0000
0000
0000
0000
0000
0000
0000
0000
0000
0000
0000
0000
0000
0000
1100
0000
0000
0000
0000
0000
0000
0000
0000
0000
0000
0000
0000
0000
0000
0000
0101
0000
0000
0000
0000
0000
0000
0000
0000
0000
0000
0000
0000
0000
0000
0000
,
1000
0100
1000
0000
0110
0000
0101
0000
,
0001
0010
0001
0000
0011
0000
0110
0000
,
1000
0010
0100
0000
0220
0000
0000
0330
,
0001
0100
0000
0010
0000
0010
0000
0010
,
0000
0100
0000
0001
0000
1000
0100
0010
,
0100
1000
0000
0010
0000
0100
0000
0001
,
0000
0010
0000
0001
0000
0010
0000
0001
,
0020
0000
0230
0000
,
2300
0000
3020
0000
,
0230
0000
0302
0000
,
0023
0000
0032
0000
,
2003
0000
0000
0000
3200
0000
0000
1000
,
2300
0000
0000
0000
3020
0000
0000
0100
,
0230
0000
0000
0000
0302
0000
0000
1000
,
2003
0000
0000
0000
3020
0000
0000
0100
,
0230
0000
0320
2030
,
3001
0000
0000
0100
0000
0000
0001
0000
0000
0100
0000
0000
0001
0000
0000
0100
0000
0000
0002
0000
0000
0000
0000
0003
,
1000
0000
0000
0000
0010
0000
0000
0000
0100
0000
0000
0001
0000
0000
0000
0000
,
0001
0000
0000
0000
0010
0000
0000
0000
0100
0000
0000
1000
0000
0000
0000
0000
,
0010
0000
0000
0000
0100
0000
0000
0000
0001
0000
0000
1000
0000
0000
0100
0000
,
0000
0101
0000
1100
,
0001
0000
0000
0000
0010
0000
0000
0000
0001
0000
0000
0100
0000
0000
0000
0000
,
1000
0000
0000
0000
0010
0000
0000
0000
1000
0000
0000
0100
0000
0000
0000
0000
,
0010
0000
0000
0000
0100
0000
0000
0000
1000
0000
0000
0001
0000
0000
0100
0000
,
0000
0110
0000
0011
,
1000
0000
0010
0000
1000
0000
0000
0000
0001
0000
0000
0010
0000
0000
0000
0000
,
0001
0000
0010
0000
0001
0000
0000
0000
1000
0000
0000
0010
0000
0000
0000
0000
,
1000
0000
0010
0000
1000
0000
0000
0000
0001
0000
0000
0010
0000
0000
0100
0000
,
0000
0000
1100
0000
0000
0010
0000
1000
,
0100
0010
0100
0000
0000
0001
0010
0100
,
0010
0000
0000
1000
0100
0010
0100
0000
,
1000
0000
0001
0000
0010
0100
0010
0000
,
0000
1000
0100
0010
0100
0000
0000
0001
,
0200
0000
0000
0000
,
0000
0000
0300
0000
,
0101
0011
0110
1100
,
0001
0010
0001
0000
1000
0100
1000
0000
,
1010
1001
0101
0011
,
1000
0100
1000
0000
1000
0010
1000
0000
,
0110
0000
0101
0000
0001
0010
0100
0000
,
1000
0010
0100
0000
0001
0010
0100
1000
,
0000
0010
0100
0010
0000
0100
0010
0100
,
0000
0010
0100
0010
0000
0100
0100
0010
,
0110
0000
0000
0000
;
