#TITLE:Lips Are Movin';
#SUBTITLE:;
#ARTIST:Meghan Trainor;
#TITLETRANSLIT:;
#SUBTITLETRANSLIT:;
#ARTISTTRANSLIT:;
#GENRE:;
#CREDIT:usaminseijin;
#BANNER:[ROUND I] - Lips Are Movin'.png;
#BACKGROUND:[ROUND I] - Lips Are Movin'-bg.png;
#LYRICSPATH:[ROUND I] - Lips Are Movin'.lrc;
#CDTITLE:cdtitle.png;
#MUSIC:[ROUND I] - Lips Are Movin'.ogg;
#OFFSET:-0.040000;
#SAMPLESTART:33.915001;
#SAMPLELENGTH:15.000007;
#SELECTABLE:YES;
#BPMS:0.000000=139.000000
;
#STOPS:76.000000=0.432000
;
#BGCHANGES:-0.250=[ROUND I] - Lips Are Movin'.avi=1.000=0=0=1=====,
99999=-nosongbg-=1.000=0=0=0 // don't automatically add -songbackground-
;
#KEYSOUNDS:;
#ATTACKS:;

//---------------dance-single - ----------------
#NOTES:
     dance-single:
     :
     Hard:
     9:
     0.528067,0.619686,0.477322,0.466221,0.105455,333.000000,290.000000,43.000000,42.000000,0.000000,0.000000,0.528067,0.619686,0.477322,0.466221,0.105455,333.000000,290.000000,43.000000,42.000000,0.000000,0.000000:
0000
0000
0000
0000
,
0000
0000
0000
0000
,
0000
0000
0000
0000
,
0000
0000
0000
0000
,
0000
0000
1000
0000
0001
0100
0001
0000
1000
0000
0010
0000
1001
0000
0000
0000
,
1000
0100
1000
0100
1000
0000
0001
0010
0001
0000
0100
0000
0110
0000
0000
0000
,
0000
0000
1000
0001
1000
0000
0010
0100
0010
0000
1000
0000
0010
0000
1001
0000
,
0000
0000
0100
0000
0001
0000
0010
0000
0001
0000
1000
0100
0000
0010
0001
0010
,
0001
0000
1000
0001
0000
0000
1000
0010
1000
0000
0001
0100
0000
0000
0010
0000
,
0100
0000
0001
0010
0000
0001
1000
0000
0010
0100
0000
1001
0000
0000
0000
0000
,
1000
0000
0100
1000
0000
0000
0001
0000
0010
0000
0001
1000
0000
0000
1001
0000
,
1001
0000
0010
0000
0100
0000
0010
1000
0000
0000
0001
0000
0010
0000
1002
0000
,
0000
0103
0110
0010
1010
1000
1001
0001
,
2001
0000
3002
0000
2003
0000
3010
0120
,
0000
0000
2030
0000
3002
0000
0013
0021
,
0000
0000
0032
0000
0000
1003
0010
2000
,
0000
3100
0110
0010
0011
0001
1001
1000
,
2001
0000
3002
0000
2003
0000
3000
0120
,
0000
0000
0230
0000
0302
0000
0103
0100
,
2002
3003
0000
0000
0000
0000
0010
0000
0001
0000
0010
0000
2001
0000
0000
0000
,
3100
0100
0000
0001
0010
0100
1001
0000
,
1020
1000
0030
0000
0100
0020
0000
1030
,
0100
1000
0010
0100
0010
2000
0001
0000
,
3010
0010
0000
1000
0010
1000
0200
0000
,
1300
1000
0000
0010
0100
0010
1001
0000
,
0102
0100
0003
0000
0100
0020
0000
0130
,
0001
0010
0001
0100
0010
1001
0000
0110
,
0000
1002
0000
0103
0010
0100
2001
0000
,
3010
0010
0000
0100
0010
0100
1001
0000
,
0201
0001
0300
0010
0001
2000
0000
3010
,
0100
0001
0010
0001
0100
0020
1000
0000
,
0130
0100
0000
1000
0100
0010
2001
0000
,
3001
0001
0000
0100
0010
0100
1001
0000
,
0210
0010
0300
0000
1000
0020
0000
1030
,
0001
0100
0010
1000
0010
0100
0002
0000
,
1003
1000
0000
0100
0010
0100
1000
0000
,
0010
0010
0000
1000
0001
0100
0100
0000
,
0010
0010
0000
0100
0010
0000
1000
0000
,
0100
0100
0000
1000
0100
0010
0010
0000
,
0001
0001
0000
0000
0110
0000
0010
0000
,
0001
0001
0000
0010
0001
1000
1000
0000
,
0010
0010
0000
1000
0100
0000
1000
0000
,
0010
0010
0000
0000
0100
1001
0000
0110
,
0000
1002
0000
0010
0013
0010
0201
0000
,
0301
0001
0000
0100
0010
0100
1001
0000
,
0102
0100
0003
1000
0010
0200
0000
0310
,
1000
0010
0100
0001
0100
0020
0100
0000
,
1030
1000
0000
0010
0100
0010
2001
0000
,
3001
0001
0000
0100
0010
0100
1001
0000
,
0102
0100
0003
0010
1000
0020
0000
0130
,
0001
1000
0010
0100
0010
1000
0001
0000
;

//---------------dance-single - ----------------
#NOTES:
     dance-single:
     :
     Medium:
     7:
     0.386932,0.478848,0.222010,0.455121,0.000000,244.000000,224.000000,20.000000,41.000000,0.000000,0.000000,0.386932,0.478848,0.222010,0.455121,0.000000,244.000000,224.000000,20.000000,41.000000,0.000000,0.000000:
0000
0000
0000
0000
,
0000
0000
0000
0000
,
0000
0000
0000
0000
,
0000
0000
0000
0000
,
0000
1000
0100
1000
0010
0100
0001
0000
,
1000
0100
1000
0001
0010
0100
0010
0000
,
0000
0001
1000
0010
0100
0001
1000
0001
,
0000
0100
0001
0010
0001
1000
0100
0010
,
0001
1000
0001
1000
0010
0100
0001
0010
,
0001
0100
0010
1000
0010
0100
0001
0000
,
1000
0100
1000
0001
0010
0001
1000
0100
,
0010
0001
0100
0010
1000
0001
0010
0002
,
0000
0103
0010
0100
0010
1000
0001
1000
,
0002
0000
2003
0000
3002
0000
0013
0200
,
0000
0300
0020
0000
0230
0000
0310
0002
,
0000
0000
0203
0000
0000
0310
1000
0002
,
0000
0103
0010
1000
0100
1000
0001
1000
,
0200
0000
2300
0000
3002
0000
0003
0020
,
0000
0000
0230
0000
2300
0000
3100
0100
,
2002
3003
0000
0000
0000
0000
0010
0000
0001
0000
0010
0000
2001
0000
0000
0000
,
3000
0000
0000
0001
0010
0100
1000
0000
,
0210
0000
0300
0000
0000
0020
0000
1030
,
0100
1000
0010
0100
0010
2000
0000
0000
,
3000
0000
0000
1000
0010
1000
0210
0000
,
0300
0000
0000
0010
0100
0010
1000
0000
,
0002
0000
0003
0000
0000
0020
0000
0130
,
0001
0010
0001
0100
0010
1000
0000
0010
,
0000
1001
0000
0100
0010
0100
2001
0000
,
3000
0000
0000
0100
0010
0100
0001
0000
,
0210
0000
0300
0000
0000
2000
0000
3010
,
0100
0001
0010
0001
0100
0020
0000
0000
,
0030
0000
0000
1000
0100
0010
2001
0000
,
3000
0000
0000
0100
0010
0100
1000
0000
,
0210
0000
0300
0000
0000
0020
0000
1030
,
0001
0100
0010
1000
0010
0100
0002
0000
,
0003
0000
0000
0100
0010
0100
0000
0000
,
0010
0010
0000
0000
1001
0000
0000
0000
,
0010
0010
0000
0000
0110
0000
0000
0000
,
0100
0100
0000
0000
1001
0000
0000
0000
,
0001
0001
0000
0000
0110
0000
0000
0000
,
1000
1000
0000
0000
1001
0000
0000
0000
,
0010
0010
0000
0000
0110
0000
0000
0000
,
0100
0100
0000
0000
0100
0001
0000
0100
,
0000
1002
0000
0000
0003
0000
0201
0000
,
0300
0000
0000
0100
0010
0100
0001
0000
,
0102
0000
0003
0000
0000
0200
0000
0310
,
1000
0010
0100
0001
0100
0020
0000
0000
,
0030
0000
0000
0010
0100
0010
2001
0000
,
3000
0000
0000
0100
0010
0100
1000
0000
,
0102
0000
0003
0000
0000
0020
0000
0130
,
0001
1000
0010
0100
0010
1000
0001
0000
;

//---------------dance-single - ----------------
#NOTES:
     dance-single:
     :
     Easy:
     5:
     0.386932,0.364374,0.077704,0.011101,0.000000,244.000000,237.000000,7.000000,1.000000,0.000000,0.000000,0.386932,0.364374,0.077704,0.011101,0.000000,244.000000,237.000000,7.000000,1.000000,0.000000,0.000000:
0000
0000
0000
0000
,
0000
0000
0000
0000
,
0000
0000
0000
0000
,
0000
0000
0000
0000
,
1000
0000
0010
0010
0000
0100
0001
0100
,
0010
0000
1000
1000
0000
0001
0100
0000
,
0010
0000
0100
0100
0000
0010
1000
0001
,
1000
0000
0010
0010
0000
1000
0001
0000
,
0100
0000
0010
0010
0000
1000
0100
1000
,
0010
0000
0100
0100
0000
0010
1000
0000
,
0001
0000
1000
1000
0000
0010
0100
0010
,
1000
0000
0001
0001
0000
0010
0001
0000
,
0100
0000
0010
0100
0000
0001
1000
0001
,
0100
0000
0010
0100
0000
0001
0100
0001
,
0010
0000
0001
1000
0000
0010
1000
0010
,
0100
0000
0010
0100
0000
0001
1000
0000
,
0010
0000
1000
0001
0000
1000
0001
0100
,
0010
0000
1000
0001
0000
0100
0010
0100
,
0010
0000
0100
0001
0000
1000
0100
1000
,
0002
0003
0000
0000
0000
0000
0000
0000
0000
0000
0000
0000
1000
0000
0000
0000
,
0010
0100
0000
0001
0010
0001
1000
0000
,
0100
0010
0000
0001
1000
0000
0010
0000
,
0100
0010
0000
1000
0001
1000
0010
0000
,
0100
0010
0000
1000
0001
0000
1000
0000
,
0010
1000
0000
0010
0100
0010
1000
0000
,
0100
0010
0000
0100
1000
0000
0100
0000
,
1000
0010
0000
1000
0001
1000
0010
0000
,
0100
0010
0000
1000
0001
0000
0010
0000
,
0100
0010
0000
0001
0100
0001
1000
0000
,
0010
0100
0000
0001
1000
0000
0010
0000
,
0100
0001
0000
1000
0010
1000
0100
0000
,
0010
0100
0000
1000
0100
1000
0010
0000
,
1000
0001
0000
0100
0010
0100
0001
0000
,
1000
0010
0000
0100
0010
0000
1000
0000
,
0001
0100
0000
0010
0100
0010
1000
0000
,
0100
0010
0000
0001
1000
0000
0000
0000
,
0010
0010
0000
0000
1001
0000
0000
0000
,
0010
0010
0000
0000
0110
0000
0000
0000
,
0100
0100
0000
0000
1001
0000
0000
0000
,
0001
0001
0000
0000
0110
0000
0000
0000
,
1000
1000
0000
0000
1001
0000
0000
0000
,
0010
0010
0000
0000
0110
0000
0000
0000
,
0100
0100
0000
0000
0100
0001
0000
0100
,
0000
1001
0000
0000
0000
0000
0100
0000
,
1000
0001
0000
0100
0010
0100
0001
0000
,
1000
0010
0000
0100
0010
0000
1000
0000
,
0001
0010
0000
0001
1000
0001
0100
0000
,
0010
0100
0000
0001
1000
0000
0010
0000
,
1000
0001
0000
0100
0010
0100
0001
0000
,
1000
0010
0000
0100
0010
0000
1000
0000
,
0001
1000
0000
0100
0010
0000
0000
0000
;

//---------------dance-single - ----------------
#NOTES:
     dance-single:
     :
     Beginner:
     2:
     0.209324,0.224230,0.099905,0.022201,0.000000,132.000000,123.000000,9.000000,2.000000,0.000000,0.000000,0.209324,0.224230,0.099905,0.022201,0.000000,132.000000,123.000000,9.000000,2.000000,0.000000,0.000000:
// measure 0
0000
0000
0000
0000
,  // measure 1
0000
0000
0000
0000
,  // measure 2
0000
0000
0000
0000
,  // measure 3
0000
0000
0000
0000
,  // measure 4
1000
0000
1000
0000
,  // measure 5
0010
0000
0010
0000
,  // measure 6
0100
0000
0100
0000
,  // measure 7
0001
0000
0001
0000
,  // measure 8
1000
0000
1000
0000
,  // measure 9
0100
0000
0100
0000
,  // measure 10
0010
0000
0010
0000
,  // measure 11
0001
0000
0001
0000
,  // measure 12
0100
0100
0100
0000
,  // measure 13
0010
0010
0010
0000
,  // measure 14
1000
1000
1000
0000
,  // measure 15
0001
0001
0000
0000
,  // measure 16
0100
0100
0100
0000
,  // measure 17
0001
0001
0001
0000
,  // measure 18
1000
1000
1000
0000
,  // measure 19
2002
3003
0000
0000
0000
0000
0000
0000
0000
0000
0000
0000
1000
0000
0000
0000
,  // measure 20
0010
1000
0000
0001
,  // measure 21
0100
0001
0000
1000
,  // measure 22
0100
1000
0000
0001
,  // measure 23
0010
0001
0000
1000
,  // measure 24
0001
1000
0000
0010
,  // measure 25
0100
0010
0000
1000
,  // measure 26
0010
1000
0000
0010
,  // measure 27
0100
0010
0100
0001
,  // measure 28
0001
0001
0000
0100
,  // measure 29
0100
0100
0000
0010
,  // measure 30
0010
0010
0000
1000
,  // measure 31
1000
1000
0000
0100
,  // measure 32
0100
0100
0000
0010
,  // measure 33
0010
0010
0000
0001
,  // measure 34
0001
0001
0000
0100
,  // measure 35
0100
0100
0000
0000
,  // measure 36
0010
0000
1001
0000
,  // measure 37
0010
0000
0110
0000
,  // measure 38
0100
0000
1001
0000
,  // measure 39
0001
0000
0110
0000
,  // measure 40
1000
0000
1001
0000
,  // measure 41
0010
0000
0110
0000
,  // measure 42
0100
0000
0110
0000
,  // measure 43
0000
1001
0000
0000
0000
0000
0100
0000
,  // measure 44
1000
0100
0000
0010
,  // measure 45
0001
0010
0000
0001
,  // measure 46
1000
0001
0000
0010
,  // measure 47
0100
0010
0000
0001
,  // measure 48
0001
0001
0000
0100
,  // measure 49
0100
0100
0000
0010
,  // measure 50
0010
0010
0010
0000
;
