#TITLE:I Need to Know;
#SUBTITLE:;
#ARTIST:R-Angels;
#TITLETRANSLIT:;
#SUBTITLETRANSLIT:;
#ARTISTTRANSLIT:;
#GENRE:;
#CREDIT:;
#BANNER:I Need to Know - R-Angelsbn.png;
#BACKGROUND:I Need to Know - R-Angelsbg.png;
#LYRICSPATH:I Need to Know - R Angels.lrc;
#CDTITLE:encorerebirth.png;
#MUSIC:I Need to Know - R Angels.ogg;
#OFFSET:-0.412;
#SAMPLESTART:57.813;
#SAMPLELENGTH:16.696;
#SELECTABLE:YES;
#BPMS:0.000=115.000
;
#STOPS:
;
#BGCHANGES:;
#KEYSOUNDS:;
#ATTACKS:;

//---------------dance-single - Spork!----------------
#NOTES:
     dance-single:
     Spork! - Expert:
     Challenge:
     9:
     0.661,0.595,0.636,0.368,0.429,325.000,57.000,33.000,14.000,0.000,9.000,0.661,0.595,0.636,0.368,0.429,325.000,57.000,33.000,14.000,0.000,9.000:
0000
0000
0000
0000
,
0000
0000
0000
0000
,
0000
0000
0000
0000
,
0000
0000
0000
0000
,
0001
0010
0100
1000
0010
0000
0010
0100
0001
0000
0001
1000
0010
0000
1000
0010
,
1000
0100
0010
0001
0100
0000
0100
0001
0010
0000
0010
0001
1000
0000
0001
1000
,
0001
0100
0010
1000
0100
0000
0100
1000
0001
0000
0001
0010
0100
0000
0100
0100
,
0010
0000
0010
0000
0001
0000
0000
0000
1000
0000
0001
0000
0000
0000
0100
0000
0010
0100
0010
0000
0100
0000
0001
0000
2000
0000
0000
0000
0000
0000
3000
0000
,
0101
0000
0001
0000
0010
0000
0100
00M0
0100
0000
0001
0000
0100
0000
0010
0M00
,
0010
0000
0001
0000
1000
0000
0010
0000
1100
0000
0000
M101
0000
0000
0100
0000
,
1010
0000
1000
0000
0100
0000
0010
0M00
0010
0000
1000
0000
0010
0000
0100
00M0
,
1100
0000
1001
0000
0011
0000
0110
0000
1001
0000
0100
0000
0040
0000
0000
0030
,
2000
0000
0000
3000
0001
0000
0000
0000
0010
0000
0000
0000
0200
0000
1000
0300
0001
0000
0000
0000
1000
0000
0000
0000
0040
0000
0000
0030
0100
0000
0001
0000
,
2000
0000
0000
3000
0001
0000
0000
0000
0010
0000
0000
0000
2000
0000
0000
3000
0010
0000
0000
0000
0001
0000
0000
0000
0204
0000
0000
0303
0000
0000
0000
0000
,
0002
0000
0000
0003
0010
0000
0001
0000
0100
0000
0001
0000
2000
0000
0010
3000
0100
0000
0000
0000
0001
0000
0000
0000
0040
0000
0000
0030
0100
0000
1000
0000
,
0002
0000
0000
0003
1000
0000
0000
0000
0010
0000
0000
0000
0002
0000
0000
0003
0010
0000
0000
0000
1000
0000
0000
0000
4200
0000
0000
3300
0000
0000
0000
0000
,
1002
0000
0000
0000
0000
0000
0000
0000
0000
0000
0000
0000
0000
0000
0000
0000
0000
0000
0003
0000
0000
0000
0000
0000
0100
0000
0000
0000
0000
0000
0000
0000
0000
0000
0000
0000
0000
0000
0000
0000
0000
0000
0000
0000
0000
0000
0000
0000
0010
0000
0000
0000
0000
0000
0000
0000
0000
0000
0000
0000
0000
0000
0000
0000
0000
0000
0000
0000
0000
0000
0000
0000
0200
0000
0000
0000
0000
0000
0000
0000
0000
0000
0000
0000
0000
0000
0000
0000
0001
0000
0300
0000
0000
0000
0000
0000
0010
0000
0000
0000
0000
0000
0000
0000
0000
0000
0000
0000
0000
0000
0000
0000
0000
0000
0000
0000
0000
0000
0000
0000
0100
0000
0000
0000
0000
0000
0000
0000
0000
0000
0000
0000
0000
0000
0000
0000
0000
0000
0000
0000
0000
0000
0000
0000
0040
0000
0000
0000
0000
0000
0000
0000
0000
0000
0000
0000
0000
0000
0000
0000
0000
0000
0030
0000
0000
0000
0000
0000
0001
0000
0000
0000
0000
0000
0000
0000
0000
0000
0000
0000
0000
0000
0000
0000
0000
0000
0000
0000
0000
0000
0000
0000
,
2000
0000
0000
3000
0001
0000
0000
0000
0100
0000
0000
0000
2000
0000
0000
3000
0100
0000
0000
0000
0001
0000
0000
0000
4002
0000
0000
3003
0000
0000
0000
0000
,
0020
0000
0000
0030
0101
0000
0000
0000
0010
0000
0000
0000
2100
0000
0000
3000
0010
0000
0000
0000
1000
0000
0000
0000
0004
0000
0000
0003
0100
0000
0000
0000
,
0020
0000
0000
0030
1000
0000
0000
0000
0100
0000
0000
0000
0002
0000
0000
0003
0100
0000
0000
0000
0010
0000
0000
0000
0020
0000
0100
0030
1000
0000
0000
0000
,
1100
00M0
0101
0000
0001
0010
0000
0010
0100
0000
0100
1000
0000
1000
0001
0000
,
0011
0M00
1010
0000
1000
0100
0000
0100
0010
0000
0010
0001
0000
0001
0100
0000
,
0101
0000
0001
0010
0000
0010
0001
1000
0010
0000
0100
0000
1001
0000
0001
0100
,
0001
0010
0100
1000
0000
0000
0001
1000
0010
0000
0001
0000
0010
0000
1000
0000
,
1010
0M00
0011
0000
0001
0000
0100
0000
0010
0100
0010
1000
0000
1000
0001
0000
,
0101
00M0
1100
0000
1000
0000
0100
0000
0220
0000
0330
0000
0021
0000
0130
0000
,
1001
0000
1000
0010
0000
0010
0100
0000
0001
0000
0010
0000
0100
0000
1000
0000
,
1010
0110
1001
0101
0011
0010
0001
0100
,
1001
0000
0000
0000
0000
0000
0000
0000
0010
0000
0000
0000
0000
0000
0000
0000
0000
0000
0000
0000
0000
0000
0000
0010
0100
0000
0000
0000
0000
0000
0000
0100
0001
0000
0000
0000
0000
0000
0000
0001
1000
0000
0000
0000
0000
0000
0000
0000
0001
0000
0000
0000
0000
0000
0000
0000
0010
0000
0000
0000
0000
0000
0000
0000
,
0021
0000
0000
0000
0000
0000
0000
0000
0000
0000
0000
0000
0000
0000
0000
0000
0000
0000
0030
0000
0000
0000
0000
0000
0001
0000
0000
0000
0000
0000
0000
0000
0000
0000
0000
0000
0000
0000
0000
0000
0100
0000
0000
0000
0000
0000
0000
0000
0010
0000
0000
0000
0000
0000
0000
0000
0000
0000
0000
0000
0000
0000
0000
0000
0000
0000
0000
0000
0000
0000
0000
0000
2010
0000
0000
0000
0000
0000
0000
0000
0000
0000
0000
0000
0000
0000
0000
0000
0000
0000
3000
0000
0000
0000
0000
0000
0000
0000
0000
0000
0000
0000
0000
0000
0000
0000
0000
0000
0000
0000
0000
0000
0000
0000
0000
0000
0000
0000
0000
0000
0100
0000
0000
0000
0000
0000
0000
0000
0000
0000
0000
0000
0000
0000
0000
0000
0000
0000
0000
0000
0000
0000
0000
0000
1000
0000
0000
0000
0000
0000
0000
0000
0000
0000
0000
0000
0000
0000
0000
0000
0000
0000
0000
0000
0000
0000
0000
0000
0010
0000
0000
0000
0000
0000
0000
0000
0000
0000
0000
0000
0000
0000
0000
0000
0000
0000
0000
0000
0000
0000
0000
0000
,
0110
0000
0000
0010
1000
0100
0010
0000
0000
0100
0000
0000
0110
0000
0000
0010
0001
0100
0010
0000
0000
1000
0000
0000
,
1200
0000
0000
0000
0000
0000
0000
0000
0000
0000
0000
0000
0000
0000
0000
0000
0000
0000
0300
0000
0000
0000
0000
0000
1000
0000
0000
0000
0000
0000
0000
0000
0000
0000
0000
0000
0000
0000
0000
0000
0010
0000
0000
0000
0000
0000
0000
0000
0100
0000
0000
0000
0000
0000
0000
0000
0000
0000
0000
0000
0000
0000
0000
0000
0000
0000
0000
0000
0000
0000
0000
0000
0201
0000
0000
0000
0000
0000
0000
0000
0000
0000
0000
0000
0000
0000
0000
0000
0000
0000
0300
0000
0000
0000
0000
0000
0000
0000
0000
0000
0000
0000
0000
0000
0000
0000
0000
0000
0000
0000
0000
0000
0000
0000
0000
0000
0000
0000
0000
0000
0010
0000
0000
0000
0000
0000
0000
0000
0000
0000
0000
0000
0000
0000
0000
0000
0000
0000
0000
0000
0000
0000
0000
0000
1000
0000
0000
0000
0000
0000
0000
0000
0000
0000
0000
0000
0000
0000
0000
0000
0000
0000
0000
0000
0000
0000
0000
0000
0100
0000
0000
0000
0000
0000
0000
0000
0000
0000
0000
0000
0000
0000
0000
0000
0000
0000
0000
0000
0000
0000
0000
0000
,
1001
0000
0000
0000
0000
0000
0000
0000
0100
0000
0000
0000
0000
0000
0000
0000
0001
0000
0000
0000
0000
0000
0000
0010
0100
0000
0000
0000
0000
0000
0000
0100
1000
0000
0000
0000
0000
0000
0000
1000
0001
0000
0000
0000
0000
0000
0000
0000
2000
0000
0000
0000
0000
0000
3000
0000
0010
0000
0000
0000
0000
0000
0000
0000
,
0210
0000
0000
0000
0000
0000
0000
0000
0000
0000
0000
0000
0000
0000
0000
0000
0000
0000
0300
0000
0000
0000
0000
0000
0010
0000
0000
0000
0000
0000
0000
0000
0000
0000
0000
0000
0000
0000
0000
0000
1000
0000
0000
0000
0000
0000
0000
0000
0001
0000
0000
0000
0000
0000
0000
0000
0000
0000
0000
0000
0000
0000
0000
0000
0000
0000
0000
0000
0000
0000
0000
0000
1002
0000
0000
0000
0000
0000
0000
0000
0000
0000
0000
0000
0000
0000
0000
0000
0000
0000
0003
0000
0000
0000
0000
0000
0000
0000
0000
0000
0000
0000
0000
0000
0000
0000
0000
0000
0000
0000
0000
0000
0000
0000
0000
0000
0000
0000
0000
0000
0010
0000
0000
0000
0000
0000
0000
0000
0000
0000
0000
0000
0000
0000
0000
0000
0000
0000
0000
0000
0000
0000
0000
0000
0001
0000
0000
0000
0000
0000
0000
0000
0000
0000
0000
0000
0000
0000
0000
0000
0000
0000
0000
0000
0000
0000
0000
0000
1000
0000
0000
0000
0000
0000
0000
0000
0000
0000
0000
0000
0000
0000
0000
0000
0000
0000
0000
0000
0000
0000
0000
0000
,
1010
1000
0100
0001
0000
0001
0100
0010
,
0011
0000
0000
0101
0000
0000
0110
0000
1001
0000
0000
0000
0002
0000
0000
0003
,
1100
0000
1000
0000
0010
0000
0100
00M0
0100
0000
1000
0000
0100
0000
0010
0M00
,
0010
0000
1000
0000
0001
0000
0010
0000
0101
0000
0000
110M
0000
0000
0100
0000
,
0011
0000
0001
0000
0100
0000
0010
0M00
0010
0000
0001
0000
0010
0000
0100
00M0
,
0101
0000
1001
0000
1010
0000
0110
0000
1001
0000
1000
0000
0400
0000
0000
0300
,
0020
0000
0000
0000
,
0030
0000
0000
0000
;

//---------------dance-single - Spork!----------------
#NOTES:
     dance-single:
     Spork! - Beginner:
     Beginner:
     1:
     0.096,0.154,0.112,0.067,0.000,44.000,10.000,6.000,0.000,0.000,0.000,0.096,0.154,0.112,0.067,0.000,44.000,10.000,6.000,0.000,0.000,0.000:
0000
0000
0000
0000
,
0000
0000
0000
0000
,
0000
0000
0000
0000
,
0000
0000
0000
0000
,
0000
0000
0000
0010
,
0000
0010
0000
0010
,
0000
0000
0000
0000
,
0000
0000
0000
0000
,
1000
0000
0000
0000
,
0100
0000
0000
0000
,
0010
0000
0000
0000
,
1001
1001
1001
0000
,
0002
0000
0000
0000
,
0003
0000
0000
0000
,
0020
0000
0000
0000
,
0030
0000
0000
0000
,
0200
0000
0000
0000
,
0300
0000
0000
0000
,
2000
0000
0000
0000
,
3000
0000
0000
0000
,
0001
0000
0001
0000
,
1000
0000
1000
0000
,
1001
0000
0000
0000
,
0110
0000
0000
0000
,
0010
0000
0010
0000
,
0100
0000
0100
0000
,
0110
0000
0000
0000
,
0220
0000
0330
0000
,
1000
0000
0000
0000
,
0100
0000
0100
0000
,
0010
0000
0001
0000
,
0100
0000
0100
0000
,
0001
0000
0000
0000
,
0010
0000
0010
0000
,
0100
0000
1000
0000
,
0001
0000
0000
0000
,
0001
0000
0000
0000
,
0100
0000
0000
0000
,
0010
0000
0000
0000
,
1001
1001
1001
0000
;

//---------------dance-single - Spork!----------------
#NOTES:
     dance-single:
     Spork! - Heavy:
     Hard:
     6:
     0.344,0.366,0.078,0.212,0.050,190.000,7.000,19.000,0.000,0.000,0.000,0.344,0.366,0.078,0.212,0.050,190.000,7.000,19.000,0.000,0.000,0.000: // measure 0
0000
0000
0000
0000
,  // measure 1
0000
0000
0000
0000
,  // measure 2
0000
0000
0000
0000
,  // measure 3
0000
0000
0000
0000
,  // measure 4
0001
0000
0000
0000
1000
0000
0000
0000
0001
0000
0000
0000
0020
0000
0000
0031
,  // measure 5
0200
0000
0000
0300
0020
0000
0000
1030
0200
0000
0000
0300
0020
0000
0000
0031
,  // measure 6
2000
0000
0001
3000
0000
0000
0001
0000
0100
0000
0000
0000
0010
0000
0100
0000
,  // measure 7
0020
1000
0000
0001
0000
1030
1001
0000
,  // measure 8
1000
0000
0000
1000
0100
0000
0000
0100
,  // measure 9
0001
0000
0000
0000
0000
0000
0001
0000
0010
0000
0000
0010
0000
0000
1000
0000
,  // measure 10
0001
0000
0000
0001
0100
0000
0000
0100
,  // measure 11
1000
1000
1000
1000
1000
0000
0120
0000
,  // measure 12
1030
0000
0100
0000
1000
0010
0100
0000
,  // measure 13
0010
0000
0001
0000
0010
1000
0001
0000
,  // measure 14
0001
0000
0100
0000
0001
0010
0100
0000
,  // measure 15
0010
0000
1000
0000
0010
0100
1000
0000
,  // measure 16
1002
0000
0103
0000
0001
0010
1000
0000
,  // measure 17
0010
0000
0001
0000
0100
0001
1000
0000
,  // measure 18
2000
0000
3100
0000
1000
0010
0001
0000
,  // measure 19
0010
0100
0010
0000
1000
0001
1000
0000
,  // measure 20
0001
0002
0010
0000
0100
0000
0103
0000
,  // measure 21
0010
0020
0100
0000
1000
0000
1030
0000
,  // measure 22
0001
0000
0000
0010
0000
0000
0001
0000
1000
0000
0001
0000
0100
0000
0100
0000
,  // measure 23
0010
0000
0000
0010
0000
0000
1000
0000
0010
0000
1000
0000
0100
0000
0100
0000
,  // measure 24
1000
2000
0010
0000
0001
0000
3001
0000
,  // measure 25
0010
0020
0100
0000
0001
0000
0031
0000
,  // measure 26
0100
0000
0000
0010
0000
0000
0100
0000
0001
0000
0010
0000
0100
0000
1000
0000
,  // measure 27
0001
0001
0001
0001
0001
0000
0100
0000
,  // measure 28
2001
0000
3000
0010
0100
0010
0000
0010
,  // measure 29
1000
0000
1000
0001
0000
0001
0010
1000
,  // measure 30
0000
1000
0010
0001
0000
0001
1000
1000
,  // measure 31
0010
0000
0010
0100
0000
0100
0001
0000
,  // measure 32
0021
0000
0130
0000
1020
0000
0030
0100
,  // measure 33
0010
0000
0010
1000
0000
1000
0100
0000
,  // measure 34
0010
0001
1000
0010
,  // measure 35
0100
0000
0000
0100
0000
0000
0100
0000
0010
0000
0000
0000
1001
0000
0000
0000
,  // measure 36
0001
0000
0000
0001
0010
0000
0000
0010
,  // measure 37
1000
0000
0000
0000
0000
0000
1000
0000
0100
0000
0000
0100
0000
0000
0001
0000
,  // measure 38
1000
0000
0000
1000
0010
0000
0000
0010
,  // measure 39
0001
0001
0001
0001
0001
0010
2000
0000
,  // measure 40
3200
0000
0000
0000
,  // measure 41
0300
0000
0000
0000
;

//---------------dance-single - Spork!----------------
#NOTES:
     dance-single:
     Spork! - Light:
     Easy:
     3:
     0.253,0.274,0.190,0.156,0.000,128.000,17.000,14.000,0.000,0.000,0.000,0.253,0.274,0.190,0.156,0.000,128.000,17.000,14.000,0.000,0.000,0.000:
0000
0000
0000
0000
,
0000
0000
0000
0000
,
0000
0000
0000
0000
,
0000
0000
0000
0000
,
0001
0000
0010
0002
,
0103
0020
1030
0200
,
0310
0000
0100
0000
,
0000
1001
0000
1001
0000
1001
0000
0000
,
1000
0100
1000
0010
,
1000
0001
1000
1000
,
0001
0010
0001
0100
,
0010
0010
0010
0000
,
1000
0100
0001
0010
,
0001
0100
1000
1000
,
0001
0100
1000
0010
,
1000
0100
0001
0001
,
2000
3010
0001
0100
,
0001
0010
1000
1000
,
0002
0013
1000
0100
,
1000
0010
0001
0001
,
0020
0030
0011
0011
,
0200
0300
1100
1100
,
0010
0001
0100
0100
,
0010
1000
0001
0001
,
0200
0300
1010
1010
,
0020
0030
0101
0101
,
0001
1000
0100
0100
,
0010
0010
0020
0000
,
0230
0000
0300
0000
,
1100
0100
0101
0100
,
0001
0010
0100
1000
,
1010
0010
0011
0001
,
0200
0000
0000
0300
0200
0000
0000
0300
,
0101
0100
1100
0100
,
1000
0010
1000
0001
,
0100
0100
0100
0000
,
0001
0010
0001
0100
,
0001
1000
0001
0001
,
1000
0100
1000
0010
,
0100
0100
0100
0000
,
0020
0000
0000
0000
,
0030
0000
0000
0000
;

//---------------dance-single - Spork!----------------
#NOTES:
     dance-single:
     Spork! - Standard:
     Medium:
     4:
     0.301,0.297,0.156,0.402,0.000,139.000,14.000,36.000,0.000,0.000,0.000,0.301,0.297,0.156,0.402,0.000,139.000,14.000,36.000,0.000,0.000,0.000:
0000
0000
0000
0000
,
0000
0000
0000
0000
,
0000
0000
0000
0000
,
0000
0000
0000
0000
,
2000
0000
0000
0002
,
0003
0020
0030
0200
,
0300
0000
3002
0000
,
0013
0001
0100
1001
,
0002
0000
0000
0010
0023
0000
0000
0100
,
0230
0000
0310
0001
,
2000
0000
0000
0010
3020
0000
0000
0100
,
0230
0010
0301
1001
,
0001
0100
1000
0100
,
0010
0000
0001
0000
0010
1000
0001
0000
,
1000
0100
0001
0100
,
0010
0000
1000
0000
0010
0100
0010
0000
,
2001
3010
0001
0010
,
0100
0000
1000
0000
0100
0001
0010
0000
,
0002
0013
1000
0010
,
0100
0001
0100
1100
,
1000
0001
2000
0000
0010
0000
3010
0000
,
0010
0100
0020
0000
1000
0000
1030
0000
,
0001
0010
0110
1001
,
0010
1000
1100
0101
,
0001
1000
0002
0000
0100
0000
0103
0000
,
0100
0010
0200
0000
0001
0000
0301
0000
,
0010
0001
1001
0110
,
0010
1000
0001
0000
,
0021
0000
0000
0100
0100
0130
0000
0000
,
0020
0032
0203
0300
,
0100
0010
1000
0100
,
0200
2300
3002
0013
,
1001
0010
2002
3003
,
0200
2300
3020
0030
,
1000
0100
0010
0001
,
0100
0100
0100
1001
,
2000
0000
0000
0100
3200
0000
0000
0010
,
0320
0000
0031
1000
,
0002
0000
0000
0100
0203
0000
0000
0010
,
0320
0100
1030
0001
,
2000
0000
0000
0000
,
3000
0000
0000
0000
;
